<?xml version="1.0" standalone="no"?>
<!DOCTYPE svg PUBLIC "-//W3C//DTD SVG 1.1//EN" "http://www.w3.org/Graphics/SVG/1.1/DTD/svg11.dtd" >
<svg xmlns="http://www.w3.org/2000/svg" xmlns:xlink="http://www.w3.org/1999/xlink" version="1.1">
<metadata>
Created by FontForge 20161013 at Sun Jul 23 14:12:00 2017
 By ,,,
Copyright (c)2016. Cerebri Sans is a trademark of Alfredo Marco Pradil. All rights reserved.
</metadata>
<defs>
<font id="CerebriSans-BookItalic" horiz-adv-x="0" >
  <font-face 
    font-family="Cerebri Sans Book Italic"
    font-weight="400"
    font-style="italic"
    font-stretch="normal"
    units-per-em="2048"
    panose-1="0 0 5 0 0 0 0 0 0 0"
    ascent="1536"
    descent="-512"
    x-height="987"
    cap-height="1411"
    bbox="-1632 -561 2841 2380"
    underline-thickness="82"
    underline-position="-348"
    slope="-10"
    unicode-range="U+0020-FB02"
  />
<missing-glyph horiz-adv-x="1284" 
d="M261 0v1536h858v-1536h-858zM410 149h559v1238h-559v-1238z" />
    <glyph glyph-name="fi" unicode="fi" horiz-adv-x="1145" 
d="M709 987l-26 -145h-227l-149 -842h-182l149 842h-191l26 145h190l48 270q26 146 107 222.5t205 76.5q69 0 141 -25l-14 -138q-40 15 -86 15q-64 0 -112 -42.5t-60 -118.5l-46 -260h227zM1057 1488q51 0 84 -36.5t27 -87.5t-47 -88t-92 -37t-83.5 36.5t-27.5 88.5t46 88
t93 36zM704 0l176 990h192l-175 -990h-193z" />
    <glyph glyph-name="fl" unicode="fl" horiz-adv-x="1136" 
d="M709 987l-26 -145h-227l-149 -842h-182l149 842h-191l26 145h190l48 270q26 146 107 222.5t205 76.5q69 0 141 -25l-14 -138q-40 15 -86 15q-64 0 -112 -42.5t-60 -118.5l-46 -260h227zM974 1536h186l-271 -1536h-186z" />
    <glyph glyph-name="f_f" unicode="ff" horiz-adv-x="1254" 
d="M126 0l149 839h-192l27 151h191l47 262q25 149 106.5 226.5t211.5 77.5q72 0 142 -26l-14 -142q-43 17 -91 17q-61 0 -107 -42t-59 -120l-45 -253h422l47 262q25 149 106.5 226.5t211.5 77.5q72 0 142 -26l-14 -142q-42 17 -91 17q-61 0 -107 -42t-59 -120l-45 -253h229
l-27 -151h-229l-148 -839h-191l149 839h-423l-148 -839h-191z" />
    <glyph glyph-name=".notdef" horiz-adv-x="1284" 
d="M261 0v1536h858v-1536h-858zM410 149h559v1238h-559v-1238z" />
    <glyph glyph-name=".null" 
 />
    <glyph glyph-name="nonmarkingreturn" horiz-adv-x="682" 
 />
    <glyph glyph-name="space" unicode=" " horiz-adv-x="532" 
 />
    <glyph glyph-name="exclam" unicode="!" horiz-adv-x="623" 
d="M215 410l162 1004h192l-191 -1004h-163zM233 -20q-56 0 -89.5 40.5t-23.5 96.5q8 47 46 79.5t84 32.5q57 0 90.5 -41t23.5 -98q-8 -46 -46.5 -78t-84.5 -32z" />
    <glyph glyph-name="quotedbl" unicode="&#x22;" horiz-adv-x="967" 
d="M281 768l95 646h182l-128 -646h-149zM633 768l100 646h181l-132 -646h-149z" />
    <glyph glyph-name="numbersign" unicode="#" horiz-adv-x="1488" 
d="M230 0l107 342h-280l46 145h281l142 440h-282l48 144h275l114 347h144l-108 -347h361l110 347h148l-112 -347h283l-49 -144h-279l-139 -440h278l-45 -145h-278l-114 -342h-142l108 342h-365l-109 -342h-143zM530 487h363l141 440h-366z" />
    <glyph glyph-name="dollar" unicode="$" horiz-adv-x="1325" 
d="M773 791q99 -26 162 -51.5t131.5 -72t94 -120t8.5 -173.5q-17 -97 -67.5 -172.5t-124 -121.5t-161 -71t-186.5 -28l-23 -131h-97l23 132q-193 15 -309 117t-120 268l208 36q1 -110 69.5 -175t181.5 -76l88 499l-4 1q-77 21 -127.5 38.5t-110.5 50.5t-91.5 71.5t-48 100
t-2.5 138.5q22 122 100 209.5t186.5 129t235.5 42.5l23 133h97l-24 -138q169 -18 274.5 -106t112.5 -242l-197 -38q-6 99 -64 153t-156 66zM463 1026q-6 -35 2.5 -63.5t26 -48.5t49.5 -38.5t63 -30.5t77 -26l77 442q-111 -10 -193 -69t-102 -166zM968 394q8 48 -5.5 84.5
t-48.5 63t-73.5 44t-97.5 36.5l-83 -470q122 11 206 71t102 171z" />
    <glyph glyph-name="percent" unicode="%" horiz-adv-x="1526" 
d="M468 838q-112 0 -185.5 74t-73.5 184q0 131 101.5 234.5t238.5 103.5q113 0 185.5 -74.5t72.5 -183.5q0 -132 -101 -235t-238 -103zM207 -1l1001 1417h176l-1002 -1417h-175zM474 975q79 0 139 59t60 137q0 54 -36.5 90.5t-93.5 36.5q-78 0 -138.5 -59t-60.5 -138
q0 -55 37 -90.5t93 -35.5zM1056 -18q-114 0 -187.5 73.5t-73.5 183.5q0 133 102 235.5t239 102.5q111 0 183.5 -73t72.5 -182q0 -86 -45 -164.5t-123 -127t-168 -48.5zM1061 118q77 0 138.5 60.5t61.5 137.5q0 54 -37.5 90t-93.5 36q-79 0 -139.5 -58.5t-60.5 -138.5
q0 -54 37 -90.5t94 -36.5z" />
    <glyph glyph-name="ampersand" unicode="&#x26;" horiz-adv-x="1493" 
d="M493 -20q-189 0 -301.5 84t-112.5 239q0 64 10.5 110.5t39 97.5t83 101t139.5 109t212 132q-57 96 -81 154t-24 114q0 136 106 224.5t268 88.5q141 0 223 -66.5t82 -174.5q0 -112 -79.5 -201t-261.5 -192l231 -391q84 91 139.5 196t72.5 205l177 -14
q-25 -145 -102.5 -283.5t-192.5 -251.5l160 -261h-221l-84 147q-235 -167 -483 -167zM717 924q138 82 192 145.5t54 125.5q0 48 -34.5 75.5t-93.5 27.5q-84 0 -140 -54.5t-56 -133.5q0 -26 8 -49.5t19 -44.5t51 -92zM505 143q196 0 386 146l-249 430q-85 -48 -136.5 -80
t-104 -72t-80 -75.5t-44.5 -80t-17 -95.5q0 -88 64 -130.5t181 -42.5z" />
    <glyph glyph-name="quotesingle" unicode="'" horiz-adv-x="612" 
d="M279 768l100 646h181l-132 -646h-149z" />
    <glyph glyph-name="parenleft" unicode="(" horiz-adv-x="655" 
d="M342 -550q-175 130 -238 412.5t3 671.5q66 372 225.5 654t376.5 411l92 -136q-182 -105 -325 -359.5t-203 -596.5q-59 -342 -9 -587.5t196 -349.5z" />
    <glyph glyph-name="parenright" unicode=")" horiz-adv-x="655" 
d="M-45 -559l-92 138q183 105 326 358t203 597q59 338 9 586t-196 351l117 119q174 -130 237.5 -414t-1.5 -669q-66 -375 -226 -656t-377 -410z" />
    <glyph glyph-name="asterisk" unicode="*" horiz-adv-x="960" 
d="M422 891l-90 59l184 204q21 23 19 35t-29 8l-263 -24l19 111l242 -28q26 -4 43 14.5t7 39.5l-122 199l102 55l63 -234q7 -25 25 -20t32 31l140 223l94 -55l-186 -209q-22 -21 -19.5 -33.5t29.5 -8.5l263 26l-18 -111l-244 26q-27 4 -43.5 -14t-4.5 -40l123 -195l-105 -59
l-61 235q-6 25 -24.5 20.5t-32.5 -32.5z" />
    <glyph glyph-name="plus" unicode="+" horiz-adv-x="1187" 
d="M550 206v402h-401v154h401v401h155v-401h400v-154h-400v-402h-155z" />
    <glyph glyph-name="comma" unicode="," horiz-adv-x="624" 
d="M10 -362l234 626h203l-294 -626h-143z" />
    <glyph glyph-name="hyphen" unicode="-" horiz-adv-x="1028" 
d="M147 453l28 159h717l-28 -159h-717z" />
    <glyph glyph-name="period" unicode="." horiz-adv-x="627" 
d="M236 -20q-55 0 -88.5 40.5t-24.5 96.5q8 46 47 79t84 33q56 0 89.5 -42t23.5 -97q-8 -46 -46.5 -78t-84.5 -32z" />
    <glyph glyph-name="slash" unicode="/" horiz-adv-x="824" 
d="M-162 -377l993 1913h184l-993 -1913h-184z" />
    <glyph glyph-name="zero" unicode="0" horiz-adv-x="1164" 
d="M505 -19q-234 0 -329 188.5t-32 551.5q62 354 213 533t378 179q236 0 330 -188t30 -551q-62 -352 -214.5 -532.5t-375.5 -180.5zM510 158q143 0 245.5 141t152.5 422q94 535 -178 535q-142 0 -244.5 -139t-152.5 -423q-95 -536 177 -536z" />
    <glyph glyph-name="one" unicode="1" horiz-adv-x="1164" 
d="M745 1414h182l-249 -1414h-191l212 1204l-386 -293l32 204z" />
    <glyph glyph-name="two" unicode="2" horiz-adv-x="1164" 
d="M1104 1020q-19 -106 -81 -197t-182 -198l-520 -450h684l-31 -175h-961l24 145l667 589q197 173 215 317q16 106 -38 163.5t-155 57.5q-118 0 -205.5 -73.5t-110.5 -202.5q-11 -61 -5 -137l-189 30q-3 72 7 133q34 189 172.5 301t334.5 112q195 0 301 -111.5t73 -303.5z
" />
    <glyph glyph-name="three" unicode="3" horiz-adv-x="1164" 
d="M496 -19q-135 0 -236.5 49t-151.5 151t-25 242q7 39 16 70l201 -2q-20 -47 -28 -94q-20 -116 46.5 -180t181.5 -64q136 0 233.5 77.5t118.5 200.5q21 117 -41 182.5t-179 65.5h-73l27 159h60q87 0 163.5 67.5t94.5 163.5q14 88 -37.5 140.5t-147.5 52.5
q-104 0 -181.5 -61t-94.5 -159q-8 -32 -4 -63l-191 19q0 44 6 69q28 163 161 264.5t306 101.5q182 0 285.5 -108t75.5 -268q-18 -102 -86.5 -178t-159.5 -110q109 -32 170.5 -129t35.5 -245q-33 -187 -185.5 -300.5t-360.5 -113.5z" />
    <glyph glyph-name="four" unicode="4" horiz-adv-x="1164" 
d="M1113 457l-30 -176h-211l-49 -281h-192l50 281h-673l28 177l742 956h294l-169 -957h210zM712 457l145 820l-620 -820h475z" />
    <glyph glyph-name="five" unicode="5" horiz-adv-x="1164" 
d="M1138 1236h-595l-95 -325h170q261 0 371 -122.5t71 -341.5q-37 -208 -187.5 -337t-359.5 -129q-98 0 -180.5 30t-140.5 86.5t-82.5 144t-5.5 195.5l16 64l197 3q-20 -63 -23 -84q-12 -69 2 -121t48 -81t77 -43.5t94 -14.5q136 0 233.5 85t120.5 216q25 136 -42 209.5
t-249 73.5h-368l202 669h757z" />
    <glyph glyph-name="six" unicode="6" horiz-adv-x="1164" 
d="M704 950q90 -6 164.5 -41.5t126 -96.5t72.5 -152.5t3 -201.5q-23 -138 -108 -248t-205 -168.5t-251 -58.5q-217 0 -339.5 139t-85.5 354q32 171 176 331l578 607h230l-452 -469q43 7 91 5zM887 489q23 139 -46 219.5t-199 80.5q-140 0 -249 -96.5t-132 -235.5
q-24 -140 44.5 -218t201.5 -78q141 0 248.5 90.5t131.5 237.5z" />
    <glyph glyph-name="seven" unicode="7" horiz-adv-x="1164" 
d="M262 1414h972l-25 -157l-904 -1257h-225l903 1238h-752z" />
    <glyph glyph-name="eight" unicode="8" horiz-adv-x="1164" 
d="M507 -19q-191 0 -309.5 97.5t-118.5 262.5q0 148 85.5 266t242.5 177q-63 36 -100 99t-37 143q0 72 32 144t90 131t148 95.5t196 36.5q161 0 262 -85.5t101 -223.5q0 -114 -64.5 -207.5t-174.5 -146.5q92 -36 145 -113.5t53 -185.5q0 -89 -37.5 -175.5t-105.5 -157
t-174.5 -114t-233.5 -43.5zM638 838q65 0 120.5 25.5t89.5 65t53 84t19 85.5q0 76 -54 125t-138 49q-115 0 -199 -75t-84 -185q0 -77 53.5 -125.5t139.5 -48.5zM514 157q86 0 156.5 31.5t112.5 81.5t64.5 106.5t22.5 112.5q0 96 -66 151.5t-174 55.5q-148 0 -253 -93.5
t-105 -236.5q0 -97 67 -153t175 -56z" />
    <glyph glyph-name="nine" unicode="9" horiz-adv-x="1164" 
d="M733 1430q216 0 340 -139t85 -353q-35 -175 -178 -331l-578 -607h-234l451 468q-43 -6 -87 -4q-88 6 -162 44t-125 100.5t-72.5 153t-3.5 194.5q23 139 107.5 248.5t204.5 167.5t252 58zM975 957q24 139 -43.5 217.5t-200.5 78.5q-139 0 -248 -91t-132 -237
q-22 -138 47 -219.5t200 -81.5q139 0 246.5 97t130.5 236z" />
    <glyph glyph-name="colon" unicode=":" horiz-adv-x="608" 
d="M347 669q-56 0 -89.5 41t-23.5 97q8 46 47 78.5t85 32.5q55 0 89 -41.5t24 -96.5q-9 -46 -47.5 -78.5t-84.5 -32.5zM226 -20q-56 0 -89.5 40.5t-23.5 96.5q8 46 46.5 79t83.5 33q56 0 90 -41.5t24 -97.5q-8 -46 -46.5 -78t-84.5 -32z" />
    <glyph glyph-name="semicolon" unicode=";" horiz-adv-x="623" 
d="M383 669q-57 0 -90.5 40.5t-24.5 97.5q8 46 47 78.5t86 32.5q54 0 88.5 -41.5t24.5 -96.5q-9 -46 -47.5 -78.5t-83.5 -32.5zM-21 -362l234 626h203l-294 -626h-143z" />
    <glyph glyph-name="less" unicode="&#x3c;" horiz-adv-x="1427" 
d="M1274 1377v-172l-969 -488l969 -490v-174l-1130 572v184z" />
    <glyph glyph-name="equal" unicode="=" horiz-adv-x="1208" 
d="M220 823v154h784v-154h-784zM220 409v154h784v-154h-784z" />
    <glyph glyph-name="greater" unicode="&#x3e;" horiz-adv-x="1426" 
d="M231 1377l1131 -568v-184l-1131 -572v174l969 490l-969 488v172z" />
    <glyph glyph-name="question" unicode="?" horiz-adv-x="1012" 
d="M403 402l22 130q9 50 27.5 86.5t50.5 65.5t65 49t88 46q151 62 184 245q21 116 -33 183t-159 67q-114 0 -201.5 -79.5t-109.5 -200.5q-7 -47 -6 -75l-162 28q0 39 9 93q31 174 162 284t309 110q189 0 290 -120t67 -313q-26 -142 -101.5 -229.5t-175.5 -127.5
q-65 -22 -101 -55t-46 -87l-17 -100h-162zM428 -20q-56 0 -89 40.5t-23 96.5q8 46 46.5 78.5t83.5 32.5q54 0 87.5 -41t23.5 -97q-9 -46 -46.5 -78t-82.5 -32z" />
    <glyph glyph-name="at" unicode="@" horiz-adv-x="1754" 
d="M771 -204q-185 0 -332 82.5t-227.5 225.5t-80.5 320q0 121 40.5 245t119.5 236t184 199.5t245 139t292 51.5q139 0 258 -47t202 -130t130 -199.5t47 -251.5q0 -99 -24 -192t-70 -170t-121 -123.5t-169 -46.5t-155 36t-78 102h-12q-102 -125 -268 -125q-97 0 -158.5 46.5
t-61.5 133.5q0 111 76 178t242 97l213 38q11 65 12 86q2 59 -34.5 87t-97.5 28q-69 0 -124.5 -35t-72.5 -99l-122 43q31 95 114.5 144.5t205.5 49.5q121 0 199 -53t78 -164q0 -32 -31 -197t-31 -191q0 -93 106 -93q57 0 102.5 27t74 70t47.5 99.5t27 111.5t8 110
q0 226 -141.5 365t-367.5 139q-138 0 -262 -48t-213 -126t-155.5 -176t-99 -199.5t-32.5 -193.5q0 -217 145.5 -360.5t372.5 -143.5q170 0 335 91l51 -118q-179 -99 -386 -99zM798 256q82 0 153.5 54.5t91.5 157.5l14 78l-182 -40q-195 -37 -195 -163q0 -43 31 -65t87 -22z
" />
    <glyph glyph-name="A" unicode="A" horiz-adv-x="1350" 
d="M1026 0l-60 333h-635l-178 -333h-200l768 1411h229l272 -1411h-196zM421 500h515l-130 721z" />
    <glyph glyph-name="B" unicode="B" horiz-adv-x="1247" 
d="M928 730q207 -68 207 -291q0 -64 -14.5 -122.5t-52 -118t-95.5 -102t-153 -69.5t-217 -27h-490l249 1411h370q415 0 415 -312q0 -265 -219 -369zM971 1067q0 42 -10 71.5t-36.5 55.5t-79 39t-130.5 13h-199l-78 -449h224q145 0 227 74.5t82 195.5zM594 168q97 0 169 22
t113 60t60.5 85t19.5 102q0 204 -243 204h-302l-81 -473h264z" />
    <glyph glyph-name="C" unicode="C" horiz-adv-x="1505" 
d="M730 -19q-271 0 -436 155.5t-165 423.5q0 134 37 261.5t109.5 237.5t171.5 193t232 130.5t282 47.5q216 0 367.5 -102.5t204.5 -282.5l-184 -60q-38 128 -143 196.5t-253 68.5q-113 0 -214.5 -37.5t-177 -102.5t-131.5 -151t-84.5 -185t-28.5 -202q0 -194 116 -302
t305 -108q154 0 289.5 73t220.5 202l166 -82q-113 -178 -294 -276t-390 -98z" />
    <glyph glyph-name="D" unicode="D" horiz-adv-x="1423" 
d="M113 0l249 1411h454q269 0 410 -145t141 -393q0 -122 -27 -242t-88.5 -235t-150.5 -202t-223.5 -140.5t-297.5 -53.5h-467zM334 172h257q102 0 189 30.5t149 83.5t109.5 121t75.5 147.5t42 158t14 157.5q0 176 -94 272.5t-284 96.5h-270z" />
    <glyph glyph-name="E" unicode="E" horiz-adv-x="1070" 
d="M1095 1239h-568l-79 -449h500l-30 -170h-500l-79 -448h568l-31 -172h-763l249 1411h763z" />
    <glyph glyph-name="F" unicode="F" horiz-adv-x="1034" 
d="M1102 1239h-575l-80 -448h502l-31 -171h-501l-110 -620h-194l249 1411h770z" />
    <glyph glyph-name="G" unicode="G" horiz-adv-x="1597" 
d="M722 -19q-268 0 -431.5 153t-163.5 420q0 134 36.5 262.5t109 239t171 194.5t232 132t283.5 48q200 0 345.5 -86.5t207.5 -247.5l-177 -79q-44 121 -144 180.5t-239 59.5q-144 0 -265.5 -60t-201 -159t-124 -224.5t-44.5 -258.5q0 -193 113 -297t310 -104
q198 0 345 107.5t206 308.5l-467 -6l29 160h652l-128 -724h-155l48 254q-94 -133 -234 -203t-314 -70z" />
    <glyph glyph-name="H" unicode="H" horiz-adv-x="1486" 
d="M1257 1411h191l-250 -1411h-190l110 622h-703l-110 -622h-192l249 1411h192l-109 -619h703z" />
    <glyph glyph-name="I" unicode="I" horiz-adv-x="592" 
d="M113 0l249 1411h190l-248 -1411h-191z" />
    <glyph glyph-name="J" unicode="J" horiz-adv-x="934" 
d="M264 -19q-163 0 -309 87l102 154q82 -65 197 -65q117 0 197.5 79t104.5 215l169 960h191l-178 -1007q-35 -199 -163 -311t-311 -112z" />
    <glyph glyph-name="K" unicode="K" horiz-adv-x="1291" 
d="M706 734l-1 -4l453 -730h-228l-393 653h-118l-115 -653h-191l249 1411h190l-103 -587h124l582 587h241z" />
    <glyph glyph-name="L" unicode="L" horiz-adv-x="916" 
d="M336 172h483l-30 -172h-676l249 1411h190z" />
    <glyph glyph-name="M" unicode="M" horiz-adv-x="1853" 
d="M1501 1411h259l-142 -1411h-186l110 1153l-644 -1153h-115l-237 1155l-299 -1155h-188l357 1411h253l224 -1081z" />
    <glyph glyph-name="N" unicode="N" horiz-adv-x="1541" 
d="M1312 1411h189l-249 -1411h-201l-549 1132l-201 -1132h-188l249 1411h199l553 -1129z" />
    <glyph glyph-name="O" unicode="O" horiz-adv-x="1614" 
d="M730 -19q-271 0 -436 155.5t-165 423.5q0 134 37 261.5t109.5 237.5t171.5 193t232 130.5t282 47.5q269 0 434.5 -155t165.5 -422q0 -168 -59.5 -325t-165 -278.5t-264 -195t-342.5 -73.5zM738 160q113 0 214.5 38t176.5 103.5t130.5 152t83.5 185.5t28 202
q0 193 -115 301t-303 108q-113 0 -214.5 -37.5t-177.5 -103.5t-131.5 -152t-84 -185.5t-28.5 -201.5q0 -194 116 -302t305 -108z" />
    <glyph glyph-name="P" unicode="P" horiz-adv-x="1245" 
d="M840 1411q202 0 308 -108.5t106 -284.5q0 -102 -32.5 -187t-97 -149.5t-169.5 -100.5t-242 -36h-314l-95 -545h-191l249 1411h478zM702 710q102 0 175 22.5t113.5 64t58.5 94t18 119.5q0 110 -62 174t-195 64h-287l-95 -538h274z" />
    <glyph glyph-name="Q" unicode="Q" horiz-adv-x="1637" 
d="M1568 852q0 -194 -77.5 -371t-217.5 -300l189 -251l-175 -58l-158 208q-179 -99 -396 -99q-272 0 -438.5 155.5t-166.5 424.5q0 133 37 261t110 237.5t172.5 192.5t233 130.5t282.5 47.5q271 0 438 -155t167 -423zM316 567q0 -196 116.5 -304.5t306.5 -108.5
q115 0 217 38t178 104.5t131.5 153.5t84 187.5t28.5 203.5q0 193 -116 301t-306 108q-143 0 -265 -58t-203 -154t-126.5 -218.5t-45.5 -252.5z" />
    <glyph glyph-name="R" unicode="R" horiz-adv-x="1245" 
d="M1197 1084q0 -54 -12 -108.5t-41 -110t-71.5 -100.5t-109 -78t-147.5 -45l279 -642h-209l-260 636h-210l-111 -636h-192l249 1411h466q183 0 276 -89.5t93 -237.5zM523 1246l-83 -474h249q75 0 134.5 21t94.5 52.5t58 72t31 76t8 67.5q0 87 -56 136t-173 49h-263z" />
    <glyph glyph-name="S" unicode="S" horiz-adv-x="1244" 
d="M585 -19q-228 0 -372 103.5t-149 279.5l198 35q7 -118 98 -186.5t235 -68.5q150 0 245 67t95 179q0 49 -20.5 88.5t-41 62t-77.5 47.5t-80.5 32.5t-99.5 28.5l-9 3q-50 14 -82.5 24.5t-77.5 28.5t-73.5 36t-60.5 46t-50 59.5t-30 74.5t-12 94q0 119 67 214.5t184 148
t260 52.5q132 0 239 -36.5t178 -117.5t76 -196l-188 -37q-6 112 -90.5 168t-209.5 56q-138 0 -231.5 -68t-93.5 -167q0 -32 8.5 -59.5t20.5 -47t36.5 -37.5t43.5 -29t55.5 -24t58.5 -19.5t66 -18.5q55 -15 88.5 -25t84.5 -29t82 -37.5t68 -48.5t57.5 -63.5t34.5 -81
t14 -102.5q0 -133 -71.5 -231.5t-194 -148t-279.5 -49.5z" />
    <glyph glyph-name="T" unicode="T" horiz-adv-x="987" 
d="M1109 1411l-30 -172h-359l-219 -1239h-189l219 1239h-361l30 172h909z" />
    <glyph glyph-name="U" unicode="U" horiz-adv-x="1381" 
d="M610 -19q-204 0 -328 104.5t-124 290.5q0 56 9 101l166 934h190l-162 -921q-9 -48 -9 -89q0 -124 71.5 -186t191.5 -62q149 0 260.5 91t141.5 259l161 908h191l-167 -948q-41 -229 -205 -355.5t-387 -126.5z" />
    <glyph glyph-name="V" unicode="V" horiz-adv-x="1315" 
d="M1230 1411h206l-768 -1411h-198l-268 1411h195l210 -1177z" />
    <glyph glyph-name="W" unicode="W" horiz-adv-x="2022" 
d="M365 0l-152 1411h194l123 -1154l555 1154h168l141 -1154l538 1154h200l-649 -1411h-227l-143 1066l-521 -1066h-227z" />
    <glyph glyph-name="X" unicode="X" horiz-adv-x="1402" 
d="M-50 0l682 737l-404 674h226l312 -539l503 539h236l-647 -674l417 -737h-235l-315 589l-528 -589h-247z" />
    <glyph glyph-name="Y" unicode="Y" horiz-adv-x="1173" 
d="M1308 1411l-598 -742l-117 -669h-193l119 676l-332 735h207l245 -568l445 568h224z" />
    <glyph glyph-name="Z" unicode="Z" horiz-adv-x="1201" 
d="M1261 1411l-25 -156l-974 -1083h805l-30 -172h-1043l26 155l977 1084h-782l30 172h1016z" />
    <glyph glyph-name="bracketleft" unicode="[" horiz-adv-x="631" 
d="M-19 -512l361 2048h432l-24 -141h-262l-312 -1766h263l-26 -141h-432z" />
    <glyph glyph-name="backslash" unicode="\" horiz-adv-x="1468" 
d="M1153 -377l-993 1913h184l993 -1913h-184z" />
    <glyph glyph-name="bracketright" unicode="]" horiz-adv-x="632" 
d="M-138 -512l26 141h263l311 1766h-262l24 141h432l-361 -2048h-433z" />
    <glyph glyph-name="asciicircum" unicode="^" horiz-adv-x="1366" 
d="M1248 283h-162l-266 959l-605 -959h-170l711 1131h178z" />
    <glyph glyph-name="underscore" unicode="_" horiz-adv-x="1335" 
d="M39 -160l29 160h1024l-29 -160h-1024z" />
    <glyph glyph-name="grave" unicode="`" horiz-adv-x="461" 
d="M405 1224l-179 260l113 73l194 -333h-128z" />
    <glyph glyph-name="a" unicode="a" horiz-adv-x="1231" 
d="M973 987h183l-174 -987h-171l21 176q-62 -92 -160.5 -144.5t-207.5 -52.5q-174 0 -283.5 112.5t-109.5 302.5q0 111 40.5 220.5t110.5 196.5t174.5 141t222.5 54q119 0 204.5 -57t116.5 -153zM512 138q86 0 162 41t126 104.5t78.5 139t28.5 147.5q0 121 -70.5 200
t-188.5 79q-86 0 -161 -39.5t-124.5 -102.5t-78 -141t-28.5 -156q0 -125 70.5 -198.5t185.5 -73.5z" />
    <glyph glyph-name="b" unicode="b" horiz-adv-x="1229" 
d="M765 1006q172 0 282 -112.5t110 -300.5q0 -112 -40 -221.5t-110 -197t-174.5 -141.5t-223.5 -54q-121 0 -206.5 58t-116.5 156l-37 -193h-178l271 1536h183l-123 -716q63 88 159 137t204 49zM574 138q88 0 164.5 40t126.5 103.5t79 142t29 155.5q0 124 -70.5 197
t-184.5 73q-69 0 -132 -26.5t-110.5 -71t-83 -101t-53.5 -119t-18 -121.5q0 -121 70 -196.5t183 -75.5z" />
    <glyph glyph-name="c" unicode="c" horiz-adv-x="1093" 
d="M495 -18q-193 0 -310 113.5t-117 301.5q0 114 41.5 223.5t115 195t185 138t240.5 52.5q172 0 281.5 -89.5t126.5 -245.5l-173 -15q-15 97 -78 148t-160 51q-88 0 -164.5 -41.5t-126 -107.5t-77.5 -147t-28 -162q0 -121 67 -191.5t178 -70.5q104 0 192.5 55.5t139.5 153.5
l168 -37q-72 -154 -206 -239.5t-295 -85.5z" />
    <glyph glyph-name="d" unicode="d" horiz-adv-x="1229" 
d="M1070 1536h183l-271 -1536h-177l24 173q-62 -90 -159.5 -142t-205.5 -52q-174 0 -283.5 112t-109.5 301q0 113 40.5 223t110.5 197t174.5 140.5t223.5 53.5q117 0 203 -57t118 -153zM515 138q86 0 161 40.5t124 103.5t77 138.5t28 147.5q0 125 -72 203t-187 78
q-113 0 -204.5 -66.5t-138.5 -165t-47 -203.5q0 -127 71.5 -201.5t187.5 -74.5z" />
    <glyph glyph-name="e" unicode="e" horiz-adv-x="1109" 
d="M647 1007q182 0 289 -97.5t107 -281.5q0 -68 -11 -121l-10 -44h-771q-5 -45 -5 -80q0 -123 69.5 -186.5t182.5 -63.5q91 0 173.5 48t137.5 130l162 -44q-76 -135 -202.5 -210.5t-271.5 -75.5q-196 0 -310.5 107t-114.5 298q0 95 24.5 185.5t73.5 169.5t117 138.5
t161 93.5t199 34zM646 869q-133 0 -226 -76t-138 -199h584q4 27 4 55q0 109 -60.5 164.5t-163.5 55.5z" />
    <glyph glyph-name="f" unicode="f" horiz-adv-x="632" 
d="M700 1408q-64 0 -112 -42.5t-60 -118.5l-46 -260h227l-26 -145h-227l-149 -842h-182l149 842h-191l26 145h190l48 270q26 146 107 222.5t205 76.5q69 0 141 -25l-14 -138q-40 15 -86 15z" />
    <glyph glyph-name="g" unicode="g" horiz-adv-x="1211" 
d="M958 987h178l-165 -941q-44 -252 -192 -383.5t-372 -131.5q-187 0 -296 80.5t-143 228.5l160 62q44 -219 275 -219q155 0 255 98t128 268l27 160q-59 -82 -156.5 -131.5t-203.5 -49.5q-167 0 -275.5 112t-108.5 291q0 113 43 219t115 184t170.5 125t204.5 47
q117 0 203.5 -56.5t117.5 -147.5zM504 184q150 0 268 124t118 280q0 114 -71 190t-184 76q-102 0 -191.5 -58t-142 -151.5t-52.5 -195.5q0 -116 71.5 -190.5t183.5 -74.5z" />
    <glyph glyph-name="h" unicode="h" horiz-adv-x="1102" 
d="M718 1006q128 0 204.5 -70t76.5 -196q0 -25 -8 -83l-117 -657h-183l112 637q6 33 6 61q0 80 -43.5 117.5t-115.5 37.5q-95 0 -174.5 -58t-111.5 -170l-110 -625h-183l271 1536h183l-120 -682q125 152 313 152z" />
    <glyph glyph-name="i" unicode="i" horiz-adv-x="513" 
d="M397 1239q-51 0 -83.5 36.5t-27.5 88.5t46 88t93 36q51 0 84 -36.5t27 -87.5t-47 -88t-92 -37zM72 0l176 990h192l-175 -990h-193z" />
    <glyph glyph-name="j" unicode="j" horiz-adv-x="514" 
d="M398 1239q-51 0 -83.5 36.5t-27.5 88.5t46 88t93 36q51 0 84 -36.5t27 -87.5t-47 -88t-92 -37zM-226 -463l26 160q134 0 188.5 66.5t88.5 261.5l171 965h194l-172 -979q-47 -262 -158 -368t-338 -106z" />
    <glyph glyph-name="k" unicode="k" horiz-adv-x="1024" 
d="M1062 987l-486 -457l356 -530h-220l-302 463h-71l-82 -463h-186l271 1536h186l-165 -934h81l395 385h223z" />
    <glyph glyph-name="l" unicode="l" horiz-adv-x="504" 
d="M71 0l271 1536h186l-271 -1536h-186z" />
    <glyph glyph-name="m" unicode="m" horiz-adv-x="1631" 
d="M1257 1006q123 0 197.5 -66t74.5 -184q0 -23 -8 -75l-120 -681h-183l113 646q6 33 6 60q0 75 -40 111t-108 36q-85 0 -153.5 -59t-92.5 -168l-111 -626h-186l112 640q5 38 5 62q0 77 -39.5 114t-109.5 37q-89 0 -160 -64.5t-91 -183.5l-107 -605h-184l175 987h183
l-24 -134q118 153 290 153q95 0 161.5 -43.5t90.5 -123.5q58 79 138 123t171 44z" />
    <glyph glyph-name="n" unicode="n" horiz-adv-x="1104" 
d="M720 1006q128 0 204 -70t76 -196q0 -25 -8 -83l-117 -657h-184l114 637q5 37 5 60q0 81 -44 118.5t-121 37.5q-93 0 -170.5 -59.5t-108.5 -170.5l-110 -623h-184l175 987h183l-23 -132q124 151 313 151z" />
    <glyph glyph-name="o" unicode="o" horiz-adv-x="1162" 
d="M502 -19q-194 0 -312.5 111.5t-118.5 301.5q0 117 41 227t115 195.5t186 137.5t245 52q195 0 313.5 -111.5t118.5 -301.5q0 -117 -41.5 -226.5t-115.5 -195.5t-186.5 -138t-244.5 -52zM506 133q90 0 167 40.5t127.5 105.5t79 145t28.5 161q0 124 -70 197t-187 73
q-89 0 -166 -41t-126 -106.5t-77 -145.5t-28 -160q0 -124 68.5 -196.5t183.5 -72.5z" />
    <glyph glyph-name="p" unicode="p" horiz-adv-x="1230" 
d="M764 1006q174 0 283.5 -110.5t109.5 -298.5q0 -114 -40 -224.5t-109.5 -198t-174.5 -141.5t-225 -54q-117 0 -203 56.5t-118 151.5l-118 -682h-184l261 1482h177l-25 -174q62 91 159.5 142t206.5 51zM579 138q86 0 161.5 39t125 102t78 141t28.5 156q0 126 -71 199
t-185 73q-86 0 -161.5 -40t-125.5 -103t-79 -140t-29 -151q0 -124 71.5 -200t186.5 -76z" />
    <glyph glyph-name="q" unicode="q" horiz-adv-x="1229" 
d="M979 987h178l-261 -1482h-184l114 660q-62 -87 -158.5 -136.5t-201.5 -49.5q-174 0 -283.5 110.5t-109.5 299.5q0 115 40 226t110 198t174.5 140t224.5 53q117 0 203.5 -57.5t116.5 -152.5zM511 138q87 0 163 40t126 103t78.5 139t28.5 149q0 124 -71.5 201.5
t-186.5 77.5q-86 0 -161 -38.5t-124.5 -101.5t-77.5 -141.5t-28 -158.5q0 -126 70 -198t183 -72z" />
    <glyph glyph-name="r" unicode="r" horiz-adv-x="661" 
d="M397 819q52 79 143.5 128.5t194.5 50.5l-35 -182q-140 0 -233.5 -77t-120.5 -232l-89 -507h-185l175 987h179z" />
    <glyph glyph-name="s" unicode="s" horiz-adv-x="919" 
d="M390 -19q-166 0 -260.5 74t-94.5 205l171 35q-4 -84 48 -132t143 -48q94 0 157.5 48t63.5 133q0 27 -11 48.5t-25.5 35t-46.5 26.5t-56.5 20.5t-72.5 20.5q-61 16 -101 31.5t-81.5 42.5t-62 68.5t-20.5 97.5q0 149 109.5 233.5t276.5 84.5q147 0 240 -67t94 -197
l-159 -27q4 81 -46 120t-126 39q-89 0 -151.5 -47t-62.5 -125q0 -26 12 -46t25.5 -31.5t47 -24t50 -17t62.5 -15.5q51 -13 86 -24.5t75.5 -32.5t65.5 -46.5t41.5 -64t16.5 -87.5q0 -156 -115 -243.5t-293 -87.5z" />
    <glyph glyph-name="t" unicode="t" horiz-adv-x="684" 
d="M400 0q-108 0 -169.5 57t-61.5 158q0 32 7 64l100 563h-202l26 145h66q68 0 114.5 39t59.5 110l32 179h171l-58 -328h225l-26 -145h-225l-99 -557q-2 -15 -2 -39q0 -50 28 -75.5t79 -25.5h96l-26 -145h-135z" />
    <glyph glyph-name="u" unicode="u" horiz-adv-x="1104" 
d="M847 987h184l-175 -987h-175l20 139q-59 -75 -140.5 -116.5t-175.5 -41.5q-130 0 -206 70t-76 196q0 36 8 82l117 658h183l-111 -624q-6 -36 -6 -65q0 -82 44.5 -121t117.5 -39q107 0 186 68.5t100 188.5h1z" />
    <glyph glyph-name="v" unicode="v" horiz-adv-x="989" 
d="M861 987h201l-578 -987h-156l-228 987h191l148 -774z" />
    <glyph glyph-name="w" unicode="w" horiz-adv-x="1585" 
d="M1455 987h195l-515 -988h-167l-131 750l-397 -750h-168l-162 988h190l108 -745l396 745h142l133 -746z" />
    <glyph glyph-name="x" unicode="x" horiz-adv-x="1034" 
d="M-68 0l472 495l-292 492h221l201 -370l337 370h230l-474 -493l294 -494h-220l-199 369l-337 -369h-233z" />
    <glyph glyph-name="y" unicode="y" horiz-adv-x="982" 
d="M856 987h197l-832 -1452h-194l290 499l-214 953h199l141 -753z" />
    <glyph glyph-name="z" unicode="z" horiz-adv-x="882" 
d="M919 987l-655 -839h503l-26 -148h-792l652 839h-470l26 148h762z" />
    <glyph glyph-name="braceleft" unicode="{" horiz-adv-x="606" 
d="M284 -504q-112 0 -170 71.5t-40 178.5l76 429q18 86 16 140.5t-27 85.5t-87 59l10 117q104 40 145.5 99t66.5 196l74 427q19 107 95.5 172t188.5 65h101l-24 -133h-54q-53 0 -90.5 -40.5t-48.5 -109.5l-73 -410q-9 -51 -18.5 -85.5t-28 -74t-44.5 -68t-68 -55.5t-99 -48
q76 -32 113 -84.5t38 -114.5t-11 -139l-73 -412q-13 -70 5 -101t74 -31h65l-22 -134h-90z" />
    <glyph glyph-name="bar" unicode="|" horiz-adv-x="606" 
d="M99 -307l324 1843h126l-324 -1843h-126z" />
    <glyph glyph-name="braceright" unicode="}" horiz-adv-x="606" 
d="M-119 -504l23 134h54q56 0 92 38t48 108l72 412q12 65 25.5 106.5t40.5 87t74 79t118 59.5q-75 32 -112 84t-38 114t10 139l73 410q24 136 -78 136h-66l23 133h89q112 0 170.5 -72t40.5 -179l-77 -427q-17 -87 -15.5 -141.5t26 -86t86.5 -59.5l-8 -117
q-106 -40 -146.5 -98.5t-65.5 -194.5l-75 -429q-18 -106 -94.5 -171t-189.5 -65h-100z" />
    <glyph glyph-name="asciitilde" unicode="~" horiz-adv-x="1384" 
d="M914 345q-48 0 -90 13t-76.5 38.5t-54 44t-46.5 47.5q-7 8 -10 11q-37 42 -69.5 62t-69.5 20q-75 0 -119 -62.5t-46 -153.5h-145q-5 162 81 262t232 100q83 0 140.5 -36.5t115.5 -111.5q26 -31 42 -47t44 -30.5t59 -14.5q71 0 118 59.5t44 155.5h143q10 -153 -74 -255
t-219 -102z" />
    <glyph glyph-name="exclamdown" unicode="&#xa1;" horiz-adv-x="623" 
d="M371 762q-56 0 -89.5 40.5t-24.5 97.5q9 46 47.5 78.5t85.5 32.5q55 0 88.5 -41.5t23.5 -96.5q-9 -47 -46.5 -79t-84.5 -32zM52 -424l192 1005h163l-163 -1005h-192z" />
    <glyph glyph-name="cent" unicode="&#xa2;" horiz-adv-x="1159" 
d="M614 386q86 0 165 44t138 118l121 -124q-167 -184 -388 -201l-39 -223h-119l40 227q-189 29 -287.5 183t-59.5 374q39 217 190 364.5t349 167.5l39 220h119l-39 -221q206 -27 309 -209l-146 -102q-33 72 -93 111t-138 39q-143 0 -262 -112.5t-149 -284.5
q-29 -163 43.5 -267t206.5 -104z" />
    <glyph glyph-name="sterling" unicode="&#xa3;" horiz-adv-x="1304" 
d="M57 0l23 125l55 9q47 6 79.5 36.5t40.5 77.5l66 366h-155l26 148h154l39 219q35 202 181 328.5t344 126.5q148 0 246 -81t98 -224q0 -61 -24 -140l-174 -25q32 89 32 137q0 78 -52.5 120.5t-134.5 42.5q-130 0 -222 -81.5t-117 -217.5l-36 -205h324l-25 -148h-324
l-79 -444h673l-30 -170h-1008z" />
    <glyph glyph-name="currency" unicode="&#xa4;" horiz-adv-x="1360" 
d="M273 267l-90 110l127 108q-48 87 -48 190q0 191 137 337l-85 96l118 110l88 -103q129 85 272 85q152 0 252 -91l126 108l92 -105l-126 -110q48 -84 48 -190q0 -191 -137 -339l84 -96l-117 -110l-88 103q-125 -83 -271 -83q-151 0 -255 90zM665 434q84 0 155.5 33.5
t117 87t71 119t25.5 130.5q0 106 -64.5 176.5t-187.5 70.5q-84 0 -156 -34t-118 -88t-71.5 -119.5t-25.5 -130.5q0 -105 65 -175t189 -70z" />
    <glyph glyph-name="yen" unicode="&#xa5;" horiz-adv-x="1399" 
d="M513 0l43 243h-394l22 127h394l36 210h-394l23 127h374l-334 707h218l256 -565l457 565h230l-584 -707h366l-23 -127h-391l-36 -210h391l-22 -127h-391l-43 -243h-198z" />
    <glyph glyph-name="brokenbar" unicode="&#xa6;" horiz-adv-x="606" 
d="M294 799l129 737h126l-129 -737h-126zM99 -307l129 737h126l-129 -737h-126z" />
    <glyph glyph-name="section" unicode="&#xa7;" horiz-adv-x="1305" 
d="M725 810q83 -21 132.5 -36.5t117 -49t101.5 -72.5t53.5 -103t5.5 -145q-28 -149 -132 -241q73 -91 48 -234q-17 -97 -68.5 -170.5t-127 -117t-164 -65t-189.5 -21.5q-207 0 -334 98.5t-132 267.5l178 30q3 -118 84 -183t211 -65q91 0 166.5 23.5t132.5 81.5t71 144
q7 45 -7.5 81.5t-34 58.5t-71 45.5t-79.5 33t-99 30.5l-9 3t-8 2.5t-9 2.5q-95 25 -154.5 48t-122 65.5t-85 109.5t-6.5 159q25 149 140 237q-83 88 -57 237q21 118 97 202t180 122.5t226 38.5q127 0 225.5 -35.5t160.5 -112.5t67 -187l-169 -32q-6 111 -81.5 165t-196.5 54
q-124 0 -221.5 -60.5t-119.5 -180.5q-7 -40 4 -71.5t33.5 -53t59.5 -40t76 -31.5t89 -28q12 -3 18 -5zM363 565q-9 -49 4 -84.5t62.5 -63.5t80 -39t114.5 -37l18 -6q147 -37 225 -73q79 61 96 164q9 55 -7 94.5t-68.5 69.5t-89 43.5t-121.5 39.5q-21 7 -32 10
q-99 26 -167 53q-96 -61 -115 -171z" />
    <glyph glyph-name="dieresis" unicode="&#xa8;" horiz-adv-x="858" 
d="M381 1239q-52 0 -85 36.5t-27 88.5q5 51 46.5 87.5t92.5 36.5q50 0 82.5 -36t28.5 -88q-6 -52 -47 -88.5t-91 -36.5zM764 1239q-51 0 -84.5 37t-27.5 88q5 51 46.5 87.5t92.5 36.5t83.5 -36.5t27.5 -87.5t-46 -88t-92 -37z" />
    <glyph glyph-name="copyright" unicode="&#xa9;" horiz-adv-x="1744" 
d="M909 -20q-148 0 -283 58t-233 156.5t-156 234t-58 283.5t58 283.5t156 233.5t233 156.5t283 58.5q149 0 285 -58.5t234 -156.5t156.5 -233.5t58.5 -283.5t-58.5 -283.5t-156.5 -234t-234 -156.5t-285 -58zM909 95q169 0 311 82t224 224t82 311q0 168 -82 310t-224 224
t-311 82q-168 0 -309.5 -82t-223.5 -224t-82 -310q0 -169 82 -311t223.5 -224t309.5 -82zM910 292q-171 0 -292.5 121.5t-121.5 294.5q0 172 121 293t293 121q92 0 176 -38.5t140 -106.5l-94 -80q-40 49 -98.5 76.5t-123.5 27.5q-121 0 -205 -84.5t-84 -208.5t84 -208.5
t205 -84.5q136 0 222 103l94 -81q-56 -68 -140 -106.5t-176 -38.5z" />
    <glyph glyph-name="ordfeminine" unicode="&#xaa;" horiz-adv-x="994" 
d="M860 1536h119l-109 -614h-119l18 104q-100 -117 -245 -117q-118 0 -193 78t-75 196q0 143 107 254t251 111q164 0 225 -131zM546 1014q102 0 182.5 77.5t80.5 179.5q0 76 -48.5 123t-124.5 47q-109 0 -186.5 -79t-77.5 -177q0 -79 48 -125t126 -46z" />
    <glyph glyph-name="guillemotleft" unicode="&#xab;" horiz-adv-x="992" 
d="M323 237l-248 377l375 376h167l-380 -376l242 -377h-156zM718 237l-247 377l374 376h168l-380 -376l242 -377h-157z" />
    <glyph glyph-name="logicalnot" unicode="&#xac;" horiz-adv-x="1677" 
d="M1304 306v524h-1112v160h1271v-684h-159z" />
    <glyph glyph-name="uni00AD" unicode="&#xad;" horiz-adv-x="1030" 
d="M152 471l29 164h716l-28 -164h-717z" />
    <glyph glyph-name="registered" unicode="&#xae;" horiz-adv-x="1744" 
d="M909 1444q149 0 285 -58.5t234 -156.5t156.5 -233.5t58.5 -283.5t-58.5 -283.5t-156.5 -234t-234 -156.5t-285 -58q-148 0 -283 58t-233 156.5t-156 234t-58 283.5t58 283.5t156 233.5t233 156.5t283 58.5zM909 95q169 0 311 82t224 224t82 311q0 168 -82 310t-224 224
t-311 82q-168 0 -309.5 -82t-223.5 -224t-82 -310q0 -169 82 -311t223.5 -224t309.5 -82zM1220 890q0 -72 -38 -129.5t-102 -85.5l169 -382h-130l-154 362h-179v-362h-118v837h313q100 0 169.5 -70t69.5 -170zM786 1020v-263h181q58 0 97.5 38t39.5 93q0 57 -39.5 94.5
t-97.5 37.5h-181z" />
    <glyph glyph-name="macron" unicode="&#xaf;" horiz-adv-x="961" 
d="M290 1250l21 121h650l-22 -121h-649z" />
    <glyph glyph-name="degree" unicode="&#xb0;" horiz-adv-x="932" 
d="M580 853q-121 0 -206 85t-85 206t85 205.5t206 84.5t205.5 -84.5t84.5 -205.5t-84.5 -206t-205.5 -85zM580 966q74 0 125.5 51.5t51.5 126.5q0 74 -52 126.5t-125 52.5q-74 0 -126 -52.5t-52 -126.5q0 -75 52 -126.5t126 -51.5z" />
    <glyph glyph-name="plusminus" unicode="&#xb1;" horiz-adv-x="1288" 
d="M571 344v401h-401v155h401v402h155v-402h401v-155h-401v-401h-155zM160 2v156h954v-156h-954z" />
    <glyph glyph-name="acute" unicode="&#xb4;" horiz-adv-x="460" 
d="M172 1224l312 333l88 -73l-271 -260h-129z" />
    <glyph glyph-name="uni00B5" unicode="&#xb5;" horiz-adv-x="1320" 
d="M1054 990h171l-176 -990h-170l25 143q-69 -76 -158 -119.5t-184 -43.5q-147 0 -243 93l-104 -585h-153l158 890q0 5 2 15l106 597h171l-104 -593q-20 -113 42 -189t171 -76q117 0 216.5 78.5t124.5 187.5z" />
    <glyph glyph-name="paragraph" unicode="&#xb6;" horiz-adv-x="1162" 
d="M380 -307l182 1035h-54q-171 0 -254.5 93.5t-53.5 263.5q28 161 136 245t279 84h172l-303 -1721h-104zM676 -307l302 1721h106l-303 -1721h-105z" />
    <glyph glyph-name="periodcentered" unicode="&#xb7;" horiz-adv-x="585" 
d="M330 638q-45 0 -72.5 33t-19.5 80q7 35 36.5 59.5t66.5 24.5q42 0 69.5 -33t20.5 -78q-6 -37 -36 -61.5t-65 -24.5z" />
    <glyph glyph-name="cedilla" unicode="&#xb8;" horiz-adv-x="587" 
d="M105 -532q-74 0 -133.5 38.5t-79.5 95.5l99 37q16 -32 52.5 -52.5t75.5 -20.5q48 0 87 32.5t48 82.5q9 51 -19 80.5t-81 29.5q-41 0 -84 -23l-70 51l151 220h101l-118 -174q44 7 55 7q86 0 132.5 -53.5t32.5 -137.5q-16 -90 -87.5 -151.5t-161.5 -61.5z" />
    <glyph glyph-name="ordmasculine" unicode="&#xba;" horiz-adv-x="920" 
d="M545 909q-128 0 -210 79t-82 199q0 143 113.5 252t264.5 109q129 0 211.5 -78.5t82.5 -197.5q0 -147 -114.5 -255t-265.5 -108zM545 1014q102 0 182 78.5t80 178.5q0 74 -50 122t-126 48q-108 0 -184.5 -80t-76.5 -177q0 -73 49.5 -121.5t125.5 -48.5z" />
    <glyph glyph-name="guillemotright" unicode="&#xbb;" horiz-adv-x="989" 
d="M18 237l380 377l-242 376h156l248 -376l-375 -377h-167zM413 237l381 377l-243 376h156l249 -376l-375 -377h-168z" />
    <glyph glyph-name="onequarter" unicode="&#xbc;" horiz-adv-x="1720" 
d="M1328 1536h141l-1137 -1536h-143zM298 614l142 797l-243 -165l19 124l252 166h118l-163 -922h-125zM1597 922l-111 -629h101l-17 -98h-102l-34 -195h-121l34 195h-434l16 100l505 627h163zM1364 293l91 519l-406 -519h315z" />
    <glyph glyph-name="onehalf" unicode="&#xbd;" horiz-adv-x="1781" 
d="M1328 1536h141l-1137 -1536h-143zM298 614l142 797l-244 -165l22 124l250 166h118l-163 -922h-125zM1688 656q-18 -119 -139.5 -240.5t-417.5 -313.5h485l-18 -102h-626l15 122q235 164 359.5 266t168.5 160.5t54 118.5q15 83 -21 121t-102 38q-80 0 -137 -51.5
t-72 -128.5l-126 11q23 125 117 202t219 77t192.5 -77t48.5 -203z" />
    <glyph glyph-name="threequarters" unicode="&#xbe;" horiz-adv-x="1925" 
d="M636 1120q53 -30 82 -81.5t32 -108.5t-18.5 -116t-63 -105.5t-108 -76.5t-146.5 -30q-129 0 -204.5 80.5t-54.5 196.5l126 -14q-12 -70 25 -112t103 -42q107 0 173 84q55 70 45 147q-10 80 -86 105q-28 9 -63 9h-64l17 102h46q90 0 146 77q46 64 35 130q-11 64 -76 76
q-12 2 -25 2q-63 0 -111.5 -41.5t-60.5 -107.5l-123 15q19 107 100.5 173t188.5 66q81 0 136 -33.5t74 -85t13.5 -109.5t-42.5 -112.5t-96 -87.5zM1533 1536h141l-1136 -1536h-143zM1802 922l-111 -629h102l-18 -98h-101l-34 -195h-121l34 195h-434l15 100l506 627h162z
M1570 293l92 521l-408 -521h316z" />
    <glyph glyph-name="questiondown" unicode="&#xbf;" horiz-adv-x="1012" 
d="M553 762q-54 0 -87.5 41t-23.5 97q8 47 46 79t83 32q56 0 89 -40.5t23 -97.5q-8 -46 -46.5 -78.5t-83.5 -32.5zM350 -444q-189 0 -290 120t-67 313q13 74 42 135.5t67.5 104t79.5 71t88 47.5q65 22 101 54.5t46 86.5l17 100h162l-22 -130q-9 -49 -27.5 -86t-50 -65.5
t-65 -49t-88.5 -46.5q-151 -62 -184 -245q-21 -115 33 -182t159 -67q113 0 201 79t110 200q7 47 6 76l162 -29q0 -39 -9 -93q-31 -174 -162 -284t-309 -110z" />
    <glyph glyph-name="Agrave" unicode="&#xc0;" horiz-adv-x="1350" 
d="M926 1555h-129l-179 260l114 73zM1026 0l-60 333h-635l-178 -333h-200l768 1411h229l272 -1411h-196zM421 500h515l-130 721z" />
    <glyph glyph-name="Aacute" unicode="&#xc1;" horiz-adv-x="1350" 
d="M1190 1815l-270 -260h-129l312 333zM1026 0l-60 333h-635l-178 -333h-200l768 1411h229l272 -1411h-196zM421 500h515l-130 721z" />
    <glyph glyph-name="Acircumflex" unicode="&#xc2;" horiz-adv-x="1350" 
d="M898 1775l-191 -220h-128l266 296h135l162 -296h-129zM1026 0l-60 333h-635l-178 -333h-200l768 1411h229l272 -1411h-196zM421 500h515l-130 721z" />
    <glyph glyph-name="Atilde" unicode="&#xc3;" horiz-adv-x="1350" 
d="M756 1717q-48 0 -84.5 -44t-49.5 -113h-105q20 115 90.5 188t163.5 73q115 0 167 -112q26 -59 87 -59q49 0 84 41.5t48 112.5h106q-21 -114 -89.5 -187t-164.5 -73q-118 0 -168 112q-27 61 -85 61zM721 1411h229l272 -1411h-196l-60 333h-635l-178 -333h-200zM421 500
h515l-130 721z" />
    <glyph glyph-name="Adieresis" unicode="&#xc4;" horiz-adv-x="1350" 
d="M674 1555q-46 0 -73.5 33.5t-20.5 79.5q10 47 49 80t85 33t74 -33t19 -80q-7 -46 -47 -79.5t-86 -33.5zM1050 1555q-46 0 -74 33t-20 80q10 47 49 80t85 33t73.5 -33t18.5 -80q-7 -46 -46.5 -79.5t-85.5 -33.5zM1026 0l-60 333h-635l-178 -333h-200l768 1411h229
l272 -1411h-196zM421 500h515l-130 721z" />
    <glyph glyph-name="Aring" unicode="&#xc5;" horiz-adv-x="1350" 
d="M869 1555q-83 0 -134.5 50t-53.5 131q-2 99 70 173.5t177 74.5q84 0 134 -50t52 -129q2 -98 -69 -174t-176 -76zM920 1897q-61 0 -104 -46t-43 -103q0 -47 28.5 -74.5t77.5 -27.5q61 0 103.5 43.5t42.5 101.5q0 45 -29 75.5t-76 30.5zM1026 0l-60 333h-635l-178 -333
h-200l768 1411h229l272 -1411h-196zM421 500h515l-130 721z" />
    <glyph glyph-name="AE" unicode="&#xc6;" horiz-adv-x="1759" 
d="M-47 0l765 1414h1097l-31 -179h-600l-78 -439h524l-32 -179h-524l-76 -437h600l-32 -180h-799l58 330h-485l-175 -330h-212zM430 504h427l128 731h-169z" />
    <glyph glyph-name="Ccedilla" unicode="&#xc7;" horiz-adv-x="1505" 
d="M738 162q154 0 289.5 73t220.5 202l166 -82q-109 -171 -281 -268.5t-372 -104.5l-79 -117q44 7 55 7q86 0 132.5 -53.5t32.5 -137.5q-16 -90 -87.5 -151.5t-161.5 -61.5q-74 0 -133.5 38.5t-79.5 95.5l99 37q16 -32 52.5 -52.5t75.5 -20.5q48 0 87 32.5t48 82.5
q9 51 -19 80.5t-81 29.5q-41 0 -84 -23l-70 51l113 165q-242 20 -387 173t-145 403q0 134 37 261.5t109.5 237.5t171.5 193t232 130.5t282 47.5q216 0 367.5 -102.5t204.5 -282.5l-184 -60q-38 128 -143 196.5t-253 68.5q-113 0 -214.5 -37.5t-177 -102.5t-131.5 -151
t-84.5 -185t-28.5 -202q0 -194 116 -302t305 -108z" />
    <glyph glyph-name="Egrave" unicode="&#xc8;" horiz-adv-x="1070" 
d="M837 1555h-129l-179 260l114 73zM1095 1239h-568l-79 -449h500l-30 -170h-500l-79 -448h568l-31 -172h-763l249 1411h763z" />
    <glyph glyph-name="Eacute" unicode="&#xc9;" horiz-adv-x="1070" 
d="M1101 1815l-270 -260h-129l312 333zM1095 1239h-568l-79 -449h500l-30 -170h-500l-79 -448h568l-31 -172h-763l249 1411h763z" />
    <glyph glyph-name="Ecircumflex" unicode="&#xca;" horiz-adv-x="1070" 
d="M809 1775l-191 -220h-128l266 296h135l162 -296h-129zM1095 1239h-568l-79 -449h500l-30 -170h-500l-79 -448h568l-31 -172h-763l249 1411h763z" />
    <glyph glyph-name="Edieresis" unicode="&#xcb;" horiz-adv-x="1070" 
d="M585 1555q-46 0 -73.5 33.5t-20.5 79.5q10 47 49 80t85 33t74 -33t19 -80q-7 -46 -47 -79.5t-86 -33.5zM961 1555q-46 0 -74 33t-20 80q10 47 49 80t85 33t73.5 -33t18.5 -80q-7 -46 -46.5 -79.5t-85.5 -33.5zM1095 1239h-568l-79 -449h500l-30 -170h-500l-79 -448h568
l-31 -172h-763l249 1411h763z" />
    <glyph glyph-name="Igrave" unicode="&#xcc;" horiz-adv-x="592" 
d="M417 1555l-179 260l114 73l194 -333h-129zM113 0l249 1411h190l-248 -1411h-191z" />
    <glyph glyph-name="Iacute" unicode="&#xcd;" horiz-adv-x="592" 
d="M411 1555l312 333l87 -73l-270 -260h-129zM113 0l249 1411h190l-248 -1411h-191z" />
    <glyph glyph-name="Icircumflex" unicode="&#xce;" horiz-adv-x="592" 
d="M327 1555h-128l266 296h135l162 -296h-129l-115 220zM113 0l249 1411h190l-248 -1411h-191z" />
    <glyph glyph-name="Idieresis" unicode="&#xcf;" horiz-adv-x="592" 
d="M294 1555q-46 0 -73.5 33.5t-20.5 79.5q10 47 49 80t85 33t74 -33t19 -80q-7 -46 -47 -79.5t-86 -33.5zM670 1555q-46 0 -74 33t-20 80q10 47 49 80t85 33t73.5 -33t18.5 -80q-7 -46 -46.5 -79.5t-85.5 -33.5zM113 0l249 1411h190l-248 -1411h-191z" />
    <glyph glyph-name="Eth" unicode="&#xd0;" horiz-adv-x="1423" 
d="M816 1411q269 0 410 -145t141 -393q0 -122 -27 -242t-88.5 -235t-150.5 -202t-223.5 -140.5t-297.5 -53.5h-467l114 644h-165l22 125h165l113 642h454zM591 172q102 0 189 30.5t149 83.5t109.5 121t75.5 147.5t42 158t14 157.5q0 176 -94 272.5t-284 96.5h-270l-83 -470
h265l-22 -125h-265l-83 -472h257z" />
    <glyph glyph-name="Ntilde" unicode="&#xd1;" horiz-adv-x="1541" 
d="M852 1717q-48 0 -84.5 -44t-49.5 -113h-105q20 115 90.5 188t163.5 73q115 0 167 -112q26 -59 87 -59q49 0 84 41.5t48 112.5h106q-21 -114 -89.5 -187t-164.5 -73q-118 0 -168 112q-27 61 -85 61zM1312 1411h189l-249 -1411h-201l-549 1132l-201 -1132h-188l249 1411
h199l553 -1129z" />
    <glyph glyph-name="Ograve" unicode="&#xd2;" horiz-adv-x="1614" 
d="M931 1555l-179 260l114 73l194 -333h-129zM730 -19q-271 0 -436 155.5t-165 423.5q0 134 37 261.5t109.5 237.5t171.5 193t232 130.5t282 47.5q269 0 434.5 -155t165.5 -422q0 -168 -59.5 -325t-165 -278.5t-264 -195t-342.5 -73.5zM738 160q113 0 214.5 38t176.5 103.5
t130.5 152t83.5 185.5t28 202q0 193 -115 301t-303 108q-113 0 -214.5 -37.5t-177.5 -103.5t-131.5 -152t-84 -185.5t-28.5 -201.5q0 -194 116 -302t305 -108z" />
    <glyph glyph-name="Oacute" unicode="&#xd3;" horiz-adv-x="1614" 
d="M925 1555l312 333l87 -73l-270 -260h-129zM730 -19q-271 0 -436 155.5t-165 423.5q0 134 37 261.5t109.5 237.5t171.5 193t232 130.5t282 47.5q269 0 434.5 -155t165.5 -422q0 -168 -59.5 -325t-165 -278.5t-264 -195t-342.5 -73.5zM738 160q113 0 214.5 38t176.5 103.5
t130.5 152t83.5 185.5t28 202q0 193 -115 301t-303 108q-113 0 -214.5 -37.5t-177.5 -103.5t-131.5 -152t-84 -185.5t-28.5 -201.5q0 -194 116 -302t305 -108z" />
    <glyph glyph-name="Ocircumflex" unicode="&#xd4;" horiz-adv-x="1614" 
d="M841 1555h-128l266 296h135l162 -296h-129l-115 220zM730 -19q-271 0 -436 155.5t-165 423.5q0 134 37 261.5t109.5 237.5t171.5 193t232 130.5t282 47.5q269 0 434.5 -155t165.5 -422q0 -168 -59.5 -325t-165 -278.5t-264 -195t-342.5 -73.5zM738 160q113 0 214.5 38
t176.5 103.5t130.5 152t83.5 185.5t28 202q0 193 -115 301t-303 108q-113 0 -214.5 -37.5t-177.5 -103.5t-131.5 -152t-84 -185.5t-28.5 -201.5q0 -194 116 -302t305 -108z" />
    <glyph glyph-name="Otilde" unicode="&#xd5;" horiz-adv-x="1614" 
d="M1143 1544q-118 0 -168 112q-27 61 -85 61q-48 0 -84.5 -44t-49.5 -113h-105q20 115 90.5 188t163.5 73q115 0 167 -112q26 -59 87 -59q49 0 84 41.5t48 112.5h106q-21 -114 -89.5 -187t-164.5 -73zM730 -19q-271 0 -436 155.5t-165 423.5q0 134 37 261.5t109.5 237.5
t171.5 193t232 130.5t282 47.5q269 0 434.5 -155t165.5 -422q0 -168 -59.5 -325t-165 -278.5t-264 -195t-342.5 -73.5zM738 160q113 0 214.5 38t176.5 103.5t130.5 152t83.5 185.5t28 202q0 193 -115 301t-303 108q-113 0 -214.5 -37.5t-177.5 -103.5t-131.5 -152
t-84 -185.5t-28.5 -201.5q0 -194 116 -302t305 -108z" />
    <glyph glyph-name="Odieresis" unicode="&#xd6;" horiz-adv-x="1614" 
d="M808 1555q-46 0 -73.5 33.5t-20.5 79.5q10 47 49 80t85 33t74 -33t19 -80q-7 -46 -47 -79.5t-86 -33.5zM1184 1555q-46 0 -74 33t-20 80q10 47 49 80t85 33t73.5 -33t18.5 -80q-7 -46 -46.5 -79.5t-85.5 -33.5zM730 -19q-271 0 -436 155.5t-165 423.5q0 134 37 261.5
t109.5 237.5t171.5 193t232 130.5t282 47.5q269 0 434.5 -155t165.5 -422q0 -168 -59.5 -325t-165 -278.5t-264 -195t-342.5 -73.5zM738 160q113 0 214.5 38t176.5 103.5t130.5 152t83.5 185.5t28 202q0 193 -115 301t-303 108q-113 0 -214.5 -37.5t-177.5 -103.5
t-131.5 -152t-84 -185.5t-28.5 -201.5q0 -194 116 -302t305 -108z" />
    <glyph glyph-name="multiply" unicode="&#xd7;" horiz-adv-x="1075" 
d="M288 278l-110 111l279 279l-279 279l110 109l280 -277l276 276l111 -108l-279 -279l279 -279l-111 -109l-276 278z" />
    <glyph glyph-name="Oslash" unicode="&#xd8;" horiz-adv-x="1614" 
d="M1341 1319q105 -75 162.5 -193.5t57.5 -272.5q0 -168 -59.5 -325t-165 -278.5t-264 -195t-342.5 -73.5q-158 0 -283 55l-105 -150l-95 56l103 148q-106 76 -163.5 195.5t-57.5 274.5q0 134 37 261.5t109.5 237.5t171.5 193t232 130.5t282 47.5q156 0 283 -55l106 152
l95 -59zM317 570q0 -213 141 -324l677 972q-82 32 -182 32q-113 0 -214.5 -37.5t-177.5 -103.5t-131.5 -152t-84 -185.5t-28.5 -201.5zM738 160q113 0 214.5 38t176.5 103.5t130.5 152t83.5 185.5t28 202q0 212 -139 322l-677 -971q82 -32 183 -32z" />
    <glyph glyph-name="Ugrave" unicode="&#xd9;" horiz-adv-x="1381" 
d="M810 1555l-179 260l114 73l194 -333h-129zM610 -19q-204 0 -328 104.5t-124 290.5q0 56 9 101l166 934h190l-162 -921q-9 -48 -9 -89q0 -124 71.5 -186t191.5 -62q149 0 260.5 91t141.5 259l161 908h191l-167 -948q-41 -229 -205 -355.5t-387 -126.5z" />
    <glyph glyph-name="Uacute" unicode="&#xda;" horiz-adv-x="1381" 
d="M804 1555l312 333l87 -73l-270 -260h-129zM610 -19q-204 0 -328 104.5t-124 290.5q0 56 9 101l166 934h190l-162 -921q-9 -48 -9 -89q0 -124 71.5 -186t191.5 -62q149 0 260.5 91t141.5 259l161 908h191l-167 -948q-41 -229 -205 -355.5t-387 -126.5z" />
    <glyph glyph-name="Ucircumflex" unicode="&#xdb;" horiz-adv-x="1381" 
d="M720 1555h-128l266 296h135l162 -296h-129l-115 220zM610 -19q-204 0 -328 104.5t-124 290.5q0 56 9 101l166 934h190l-162 -921q-9 -48 -9 -89q0 -124 71.5 -186t191.5 -62q149 0 260.5 91t141.5 259l161 908h191l-167 -948q-41 -229 -205 -355.5t-387 -126.5z" />
    <glyph glyph-name="Udieresis" unicode="&#xdc;" horiz-adv-x="1381" 
d="M687 1555q-46 0 -73.5 33.5t-20.5 79.5q10 47 49 80t85 33t74 -33t19 -80q-7 -46 -47 -79.5t-86 -33.5zM1063 1555q-46 0 -74 33t-20 80q10 47 49 80t85 33t73.5 -33t18.5 -80q-7 -46 -46.5 -79.5t-85.5 -33.5zM610 -19q-204 0 -328 104.5t-124 290.5q0 56 9 101l166 934
h190l-162 -921q-9 -48 -9 -89q0 -124 71.5 -186t191.5 -62q149 0 260.5 91t141.5 259l161 908h191l-167 -948q-41 -229 -205 -355.5t-387 -126.5z" />
    <glyph glyph-name="Yacute" unicode="&#xdd;" horiz-adv-x="1173" 
d="M1099 1815l-270 -260h-129l312 333zM1308 1411l-598 -742l-117 -669h-193l119 676l-332 735h207l245 -568l445 568h224z" />
    <glyph glyph-name="Thorn" unicode="&#xde;" horiz-adv-x="1188" 
d="M759 1321q233 0 331.5 -92t98.5 -266q0 -72 -19.5 -142t-62.5 -136.5t-105.5 -116.5t-155.5 -80.5t-204 -30.5h-256l-81 -457h-192l233 1321l37 208h192l-37 -208h221zM663 632q92 0 162 28t109 74.5t57.5 98.5t18.5 109q0 48 -11 82.5t-39.5 63.5t-83.5 43.5t-136 14.5
h-232l-91 -514h246z" />
    <glyph glyph-name="germandbls" unicode="&#xdf;" horiz-adv-x="1200" 
d="M71 0l181 1026q25 145 78 250t126.5 165t156.5 87.5t180 27.5q177 0 283 -89t106 -230q0 -153 -122 -270q-3 -3 -19 -18t-19 -18.5t-16.5 -17t-17 -19t-13 -17.5t-12.5 -20t-8 -20t-6.5 -23t-1.5 -23q0 -29 18 -56.5t43.5 -53t50.5 -55.5t43 -78t18 -108
q0 -188 -125 -314t-310 -126h-200l27 150h136q119 0 201.5 86t82.5 207q0 46 -17 83.5t-41.5 63t-49 51.5t-41.5 61.5t-17 78.5q0 40 7.5 72t27 61t32 44t45.5 46t44 43q80 85 80 185q0 77 -55.5 123t-153.5 46q-137 0 -227 -88t-123 -271l-184 -1042h-188z" />
    <glyph glyph-name="agrave" unicode="&#xe0;" horiz-adv-x="1231" 
d="M796 1155h-128l-179 260l113 73zM973 987h183l-174 -987h-171l21 176q-62 -92 -160.5 -144.5t-207.5 -52.5q-174 0 -283.5 112.5t-109.5 302.5q0 111 40.5 220.5t110.5 196.5t174.5 141t222.5 54q119 0 204.5 -57t116.5 -153zM512 138q86 0 162 41t126 104.5t78.5 139
t28.5 147.5q0 121 -70.5 200t-188.5 79q-86 0 -161 -39.5t-124.5 -102.5t-78 -141t-28.5 -156q0 -125 70.5 -198.5t185.5 -73.5z" />
    <glyph glyph-name="aacute" unicode="&#xe1;" horiz-adv-x="1231" 
d="M1061 1415l-271 -260h-129l312 333zM973 987h183l-174 -987h-171l21 176q-62 -92 -160.5 -144.5t-207.5 -52.5q-174 0 -283.5 112.5t-109.5 302.5q0 111 40.5 220.5t110.5 196.5t174.5 141t222.5 54q119 0 204.5 -57t116.5 -153zM512 138q86 0 162 41t126 104.5t78.5 139
t28.5 147.5q0 121 -70.5 200t-188.5 79q-86 0 -161 -39.5t-124.5 -102.5t-78 -141t-28.5 -156q0 -125 70.5 -198.5t185.5 -73.5z" />
    <glyph glyph-name="acircumflex" unicode="&#xe2;" horiz-adv-x="1231" 
d="M772 1391l-192 -220h-127l265 296h135l162 -296h-129zM973 987h183l-174 -987h-171l21 176q-62 -92 -160.5 -144.5t-207.5 -52.5q-174 0 -283.5 112.5t-109.5 302.5q0 111 40.5 220.5t110.5 196.5t174.5 141t222.5 54q119 0 204.5 -57t116.5 -153zM512 138q86 0 162 41
t126 104.5t78.5 139t28.5 147.5q0 121 -70.5 200t-188.5 79q-86 0 -161 -39.5t-124.5 -102.5t-78 -141t-28.5 -156q0 -125 70.5 -198.5t185.5 -73.5z" />
    <glyph glyph-name="atilde" unicode="&#xe3;" horiz-adv-x="1231" 
d="M644 1294q-40 0 -69 -37t-39 -96h-104q18 103 80 168.5t146 65.5q104 0 146 -98q21 -48 71 -48q40 0 67.5 35.5t38.5 95.5h104q-18 -102 -79 -167.5t-146 -65.5q-103 0 -150 97q-21 50 -66 50zM973 987h183l-174 -987h-171l21 176q-62 -92 -160.5 -144.5t-207.5 -52.5
q-174 0 -283.5 112.5t-109.5 302.5q0 111 40.5 220.5t110.5 196.5t174.5 141t222.5 54q119 0 204.5 -57t116.5 -153zM512 138q86 0 162 41t126 104.5t78.5 139t28.5 147.5q0 121 -70.5 200t-188.5 79q-86 0 -161 -39.5t-124.5 -102.5t-78 -141t-28.5 -156
q0 -125 70.5 -198.5t185.5 -73.5z" />
    <glyph glyph-name="adieresis" unicode="&#xe4;" horiz-adv-x="1231" 
d="M564 1239q-52 0 -85 36.5t-27 88.5q5 51 46.5 87.5t92.5 36.5q50 0 82.5 -36t28.5 -88q-6 -52 -47 -88.5t-91 -36.5zM947 1239q-51 0 -84.5 37t-27.5 88q5 51 46.5 87.5t92.5 36.5t83.5 -36.5t27.5 -87.5t-46 -88t-92 -37zM973 987h183l-174 -987h-171l21 176
q-62 -92 -160.5 -144.5t-207.5 -52.5q-174 0 -283.5 112.5t-109.5 302.5q0 111 40.5 220.5t110.5 196.5t174.5 141t222.5 54q119 0 204.5 -57t116.5 -153zM512 138q86 0 162 41t126 104.5t78.5 139t28.5 147.5q0 121 -70.5 200t-188.5 79q-86 0 -161 -39.5t-124.5 -102.5
t-78 -141t-28.5 -156q0 -125 70.5 -198.5t185.5 -73.5z" />
    <glyph glyph-name="aring" unicode="&#xe5;" horiz-adv-x="1231" 
d="M740 1120q-89 0 -145.5 63.5t-48.5 151.5q11 89 81 151.5t159 62.5q88 0 143.5 -63t45.5 -151q-8 -88 -77.5 -151.5t-157.5 -63.5zM639 1335q-5 -54 27 -89t85 -35q52 0 91 35.5t44 88.5q6 52 -26 89.5t-83 37.5q-53 0 -92.5 -37.5t-45.5 -89.5zM973 987h183l-174 -987
h-171l21 176q-62 -92 -160.5 -144.5t-207.5 -52.5q-174 0 -283.5 112.5t-109.5 302.5q0 111 40.5 220.5t110.5 196.5t174.5 141t222.5 54q119 0 204.5 -57t116.5 -153zM512 138q86 0 162 41t126 104.5t78.5 139t28.5 147.5q0 121 -70.5 200t-188.5 79q-86 0 -161 -39.5
t-124.5 -102.5t-78 -141t-28.5 -156q0 -125 70.5 -198.5t185.5 -73.5z" />
    <glyph glyph-name="ae" unicode="&#xe6;" horiz-adv-x="1721" 
d="M1256 1010q183 0 291 -98t108 -282q0 -68 -11 -123l-11 -47h-768q-7 -38 -7 -76q0 -120 69 -183t180 -63q90 0 172 48t135 129l170 -46q-78 -138 -205 -213t-277 -75q-127 0 -222 47t-148 136h-16q-101 -103 -199 -143t-206 -40q-125 0 -201 55.5t-76 166.5
q0 72 22.5 128.5t59 94t94.5 65.5t116.5 44.5t136.5 29.5l161 27q116 22 116 139q0 135 -170 135q-95 0 -168 -47t-99 -140l-167 46q95 283 443 283q234 0 306 -134q157 136 371 136zM1254 868q-119 0 -214 -69t-142 -200h572q4 25 4 53q0 107 -58 161.5t-162 54.5zM370 128
q84 0 165 50.5t146 135.5q-5 40 -5 75q0 38 5 85l-214 -41q-241 -41 -241 -197q0 -55 39 -81.5t105 -26.5z" />
    <glyph glyph-name="ccedilla" unicode="&#xe7;" horiz-adv-x="1093" 
d="M496 135q104 0 192.5 55.5t139.5 153.5l168 -37q-69 -149 -197.5 -234t-282.5 -91l-80 -117q44 7 55 7q86 0 132.5 -53.5t32.5 -137.5q-16 -90 -87.5 -151.5t-161.5 -61.5q-74 0 -133.5 38.5t-79.5 95.5l99 37q16 -32 52.5 -52.5t75.5 -20.5q48 0 87 32.5t48 82.5
q9 51 -19 80.5t-81 29.5q-41 0 -84 -23l-70 51l115 168q-160 23 -254.5 132.5t-94.5 277.5q0 114 41.5 223.5t115 195t185 138t240.5 52.5q172 0 281.5 -89.5t126.5 -245.5l-173 -15q-15 97 -78 148t-160 51q-88 0 -164.5 -41.5t-126 -107.5t-77.5 -147t-28 -162
q0 -121 67 -191.5t178 -70.5z" />
    <glyph glyph-name="egrave" unicode="&#xe8;" horiz-adv-x="1109" 
d="M756 1156h-128l-179 260l113 73zM647 1007q182 0 289 -97.5t107 -281.5q0 -68 -11 -121l-10 -44h-771q-5 -45 -5 -80q0 -123 69.5 -186.5t182.5 -63.5q91 0 173.5 48t137.5 130l162 -44q-76 -135 -202.5 -210.5t-271.5 -75.5q-196 0 -310.5 107t-114.5 298
q0 95 24.5 185.5t73.5 169.5t117 138.5t161 93.5t199 34zM646 869q-133 0 -226 -76t-138 -199h584q4 27 4 55q0 109 -60.5 164.5t-163.5 55.5z" />
    <glyph glyph-name="eacute" unicode="&#xe9;" horiz-adv-x="1109" 
d="M1021 1416l-271 -260h-129l312 333zM647 1007q182 0 289 -97.5t107 -281.5q0 -68 -11 -121l-10 -44h-771q-5 -45 -5 -80q0 -123 69.5 -186.5t182.5 -63.5q91 0 173.5 48t137.5 130l162 -44q-76 -135 -202.5 -210.5t-271.5 -75.5q-196 0 -310.5 107t-114.5 298
q0 95 24.5 185.5t73.5 169.5t117 138.5t161 93.5t199 34zM646 869q-133 0 -226 -76t-138 -199h584q4 27 4 55q0 109 -60.5 164.5t-163.5 55.5z" />
    <glyph glyph-name="ecircumflex" unicode="&#xea;" horiz-adv-x="1109" 
d="M732 1392l-192 -220h-127l265 296h135l162 -296h-129zM647 1007q182 0 289 -97.5t107 -281.5q0 -68 -11 -121l-10 -44h-771q-5 -45 -5 -80q0 -123 69.5 -186.5t182.5 -63.5q91 0 173.5 48t137.5 130l162 -44q-76 -135 -202.5 -210.5t-271.5 -75.5q-196 0 -310.5 107
t-114.5 298q0 95 24.5 185.5t73.5 169.5t117 138.5t161 93.5t199 34zM646 869q-133 0 -226 -76t-138 -199h584q4 27 4 55q0 109 -60.5 164.5t-163.5 55.5z" />
    <glyph glyph-name="edieresis" unicode="&#xeb;" horiz-adv-x="1109" 
d="M524 1240q-52 0 -85 36.5t-27 88.5q5 51 46.5 87.5t92.5 36.5q50 0 82.5 -36t28.5 -88q-6 -52 -47 -88.5t-91 -36.5zM934 1489q51 0 83.5 -36.5t27.5 -87.5t-46 -88t-92 -37t-84.5 37t-27.5 88q5 51 46.5 87.5t92.5 36.5zM647 1007q182 0 289 -97.5t107 -281.5
q0 -68 -11 -121l-10 -44h-771q-5 -45 -5 -80q0 -123 69.5 -186.5t182.5 -63.5q91 0 173.5 48t137.5 130l162 -44q-76 -135 -202.5 -210.5t-271.5 -75.5q-196 0 -310.5 107t-114.5 298q0 95 24.5 185.5t73.5 169.5t117 138.5t161 93.5t199 34zM646 869q-133 0 -226 -76
t-138 -199h584q4 27 4 55q0 109 -60.5 164.5t-163.5 55.5z" />
    <glyph glyph-name="igrave" unicode="&#xec;" horiz-adv-x="513" 
d="M310 1155l-179 260l113 73l194 -333h-128zM72 0l176 990h192l-175 -990h-193z" />
    <glyph glyph-name="iacute" unicode="&#xed;" horiz-adv-x="513" 
d="M303 1155l312 333l88 -73l-271 -260h-129zM72 0l176 990h192l-175 -990h-193z" />
    <glyph glyph-name="icircumflex" unicode="&#xee;" horiz-adv-x="513" 
d="M222 1171h-127l265 296h135l162 -296h-129l-114 220zM72 0l176 990h192l-175 -990h-193z" />
    <glyph glyph-name="idieresis" unicode="&#xef;" horiz-adv-x="513" 
d="M206 1239q-52 0 -85 36.5t-27 88.5q5 51 46.5 87.5t92.5 36.5q50 0 82.5 -36t28.5 -88q-6 -52 -47 -88.5t-91 -36.5zM589 1239q-51 0 -84.5 37t-27.5 88q5 51 46.5 87.5t92.5 36.5t83.5 -36.5t27.5 -87.5t-46 -88t-92 -37zM72 0l176 990h192l-175 -990h-193z" />
    <glyph glyph-name="eth" unicode="&#xf0;" horiz-adv-x="1151" 
d="M1006 841q69 -129 69 -283q0 -113 -41 -217t-113.5 -183.5t-182 -127.5t-237.5 -48q-198 0 -314.5 114t-116.5 305q0 157 72.5 297t196.5 224t267 84q64 0 119 -19l-142 247l-271 -67l-6 71l241 60l-137 238h219l104 -192l272 67l6 -71l-243 -60zM515 159
q92 0 167.5 38.5t120.5 100t69.5 133t24.5 143.5q0 118 -69 193.5t-184 75.5q-91 0 -166 -39t-121.5 -102t-71.5 -138t-25 -150q0 -118 70 -186.5t185 -68.5z" />
    <glyph glyph-name="ntilde" unicode="&#xf1;" horiz-adv-x="1104" 
d="M578 1291q-40 0 -69 -37t-39 -96h-104q18 103 80 168.5t146 65.5q104 0 146 -98q21 -48 71 -48q40 0 67.5 35.5t38.5 95.5h104q-18 -102 -79 -167.5t-146 -65.5q-103 0 -150 97q-21 50 -66 50zM720 1006q128 0 204 -70t76 -196q0 -25 -8 -83l-117 -657h-184l114 637
q5 37 5 60q0 81 -44 118.5t-121 37.5q-93 0 -170.5 -59.5t-108.5 -170.5l-110 -623h-184l175 987h183l-23 -132q124 151 313 151z" />
    <glyph glyph-name="ograve" unicode="&#xf2;" horiz-adv-x="1162" 
d="M632 1152l-179 260l113 73l194 -333h-128zM502 -19q-194 0 -312.5 111.5t-118.5 301.5q0 117 41 227t115 195.5t186 137.5t245 52q195 0 313.5 -111.5t118.5 -301.5q0 -117 -41.5 -226.5t-115.5 -195.5t-186.5 -138t-244.5 -52zM506 133q90 0 167 40.5t127.5 105.5
t79 145t28.5 161q0 124 -70 197t-187 73q-89 0 -166 -41t-126 -106.5t-77 -145.5t-28 -160q0 -124 68.5 -196.5t183.5 -72.5z" />
    <glyph glyph-name="oacute" unicode="&#xf3;" horiz-adv-x="1162" 
d="M625 1152l312 333l88 -73l-271 -260h-129zM502 -19q-194 0 -312.5 111.5t-118.5 301.5q0 117 41 227t115 195.5t186 137.5t245 52q195 0 313.5 -111.5t118.5 -301.5q0 -117 -41.5 -226.5t-115.5 -195.5t-186.5 -138t-244.5 -52zM506 133q90 0 167 40.5t127.5 105.5
t79 145t28.5 161q0 124 -70 197t-187 73q-89 0 -166 -41t-126 -106.5t-77 -145.5t-28 -160q0 -124 68.5 -196.5t183.5 -72.5z" />
    <glyph glyph-name="ocircumflex" unicode="&#xf4;" horiz-adv-x="1162" 
d="M544 1168h-127l265 296h135l162 -296h-129l-114 220zM502 -19q-194 0 -312.5 111.5t-118.5 301.5q0 117 41 227t115 195.5t186 137.5t245 52q195 0 313.5 -111.5t118.5 -301.5q0 -117 -41.5 -226.5t-115.5 -195.5t-186.5 -138t-244.5 -52zM506 133q90 0 167 40.5
t127.5 105.5t79 145t28.5 161q0 124 -70 197t-187 73q-89 0 -166 -41t-126 -106.5t-77 -145.5t-28 -160q0 -124 68.5 -196.5t183.5 -72.5z" />
    <glyph glyph-name="otilde" unicode="&#xf5;" horiz-adv-x="1162" 
d="M824 1144q-103 0 -150 97q-21 50 -66 50q-40 0 -69 -37t-39 -96h-104q18 103 80 168.5t146 65.5q104 0 146 -98q21 -48 71 -48q40 0 67.5 35.5t38.5 95.5h104q-18 -102 -79 -167.5t-146 -65.5zM502 -19q-194 0 -312.5 111.5t-118.5 301.5q0 117 41 227t115 195.5
t186 137.5t245 52q195 0 313.5 -111.5t118.5 -301.5q0 -117 -41.5 -226.5t-115.5 -195.5t-186.5 -138t-244.5 -52zM506 133q90 0 167 40.5t127.5 105.5t79 145t28.5 161q0 124 -70 197t-187 73q-89 0 -166 -41t-126 -106.5t-77 -145.5t-28 -160q0 -124 68.5 -196.5
t183.5 -72.5z" />
    <glyph glyph-name="odieresis" unicode="&#xf6;" horiz-adv-x="1162" 
d="M528 1236q-52 0 -85 36.5t-27 88.5q5 51 46.5 87.5t92.5 36.5q50 0 82.5 -36t28.5 -88q-6 -52 -47 -88.5t-91 -36.5zM911 1236q-51 0 -84.5 37t-27.5 88q5 51 46.5 87.5t92.5 36.5t83.5 -36.5t27.5 -87.5t-46 -88t-92 -37zM502 -19q-194 0 -312.5 111.5t-118.5 301.5
q0 117 41 227t115 195.5t186 137.5t245 52q195 0 313.5 -111.5t118.5 -301.5q0 -117 -41.5 -226.5t-115.5 -195.5t-186.5 -138t-244.5 -52zM506 133q90 0 167 40.5t127.5 105.5t79 145t28.5 161q0 124 -70 197t-187 73q-89 0 -166 -41t-126 -106.5t-77 -145.5t-28 -160
q0 -124 68.5 -196.5t183.5 -72.5z" />
    <glyph glyph-name="divide" unicode="&#xf7;" horiz-adv-x="1017" 
d="M536 933q-47 0 -81.5 34t-34.5 83q0 47 35 82.5t81 35.5q47 0 83 -35.5t36 -82.5q0 -49 -35.5 -83t-83.5 -34zM149 608v154h784v-154h-784zM536 202q-47 0 -81.5 34.5t-34.5 84.5q0 47 35 81.5t81 34.5q47 0 83 -35t36 -81q0 -50 -35.5 -84.5t-83.5 -34.5z" />
    <glyph glyph-name="oslash" unicode="&#xf8;" horiz-adv-x="1162" 
d="M941 921q149 -114 149 -328q0 -117 -41.5 -226.5t-115.5 -195.5t-186.5 -138t-244.5 -52q-105 0 -192 35l-90 -130l-91 54l89 128q-147 113 -147 326q0 117 41 227t115 195.5t186 137.5t245 52q104 0 191 -34l91 131l90 -55zM254 402q0 -119 64 -191l436 626
q-45 18 -103 18q-89 0 -166 -41t-126 -106.5t-77 -145.5t-28 -160zM506 133q90 0 167 40.5t127.5 105.5t79 145t28.5 161q0 119 -66 193l-437 -627q45 -18 101 -18z" />
    <glyph glyph-name="ugrave" unicode="&#xf9;" horiz-adv-x="1104" 
d="M735 1152h-128l-179 260l113 73zM847 987h184l-175 -987h-175l20 139q-59 -75 -140.5 -116.5t-175.5 -41.5q-130 0 -206 70t-76 196q0 36 8 82l117 658h183l-111 -624q-6 -36 -6 -65q0 -82 44.5 -121t117.5 -39q107 0 186 68.5t100 188.5h1z" />
    <glyph glyph-name="uacute" unicode="&#xfa;" horiz-adv-x="1104" 
d="M1000 1412l-271 -260h-129l312 333zM847 987h184l-175 -987h-175l20 139q-59 -75 -140.5 -116.5t-175.5 -41.5q-130 0 -206 70t-76 196q0 36 8 82l117 658h183l-111 -624q-6 -36 -6 -65q0 -82 44.5 -121t117.5 -39q107 0 186 68.5t100 188.5h1z" />
    <glyph glyph-name="ucircumflex" unicode="&#xfb;" horiz-adv-x="1104" 
d="M711 1388l-192 -220h-127l265 296h135l162 -296h-129zM847 987h184l-175 -987h-175l20 139q-59 -75 -140.5 -116.5t-175.5 -41.5q-130 0 -206 70t-76 196q0 36 8 82l117 658h183l-111 -624q-6 -36 -6 -65q0 -82 44.5 -121t117.5 -39q107 0 186 68.5t100 188.5h1z" />
    <glyph glyph-name="udieresis" unicode="&#xfc;" horiz-adv-x="1104" 
d="M503 1236q-52 0 -85 36.5t-27 88.5q5 51 46.5 87.5t92.5 36.5q50 0 82.5 -36t28.5 -88q-6 -52 -47 -88.5t-91 -36.5zM886 1236q-51 0 -84.5 37t-27.5 88q5 51 46.5 87.5t92.5 36.5t83.5 -36.5t27.5 -87.5t-46 -88t-92 -37zM847 987h184l-175 -987h-175l20 139
q-59 -75 -140.5 -116.5t-175.5 -41.5q-130 0 -206 70t-76 196q0 36 8 82l117 658h183l-111 -624q-6 -36 -6 -65q0 -82 44.5 -121t117.5 -39q107 0 186 68.5t100 188.5h1z" />
    <glyph glyph-name="yacute" unicode="&#xfd;" horiz-adv-x="982" 
d="M934 1412l-271 -260h-129l312 333zM856 987h197l-832 -1452h-194l290 499l-214 953h199l141 -753z" />
    <glyph glyph-name="thorn" unicode="&#xfe;" horiz-adv-x="1236" 
d="M782 1010q170 0 276.5 -108t106.5 -292q0 -117 -41.5 -230.5t-114 -202.5t-180 -143.5t-230.5 -54.5q-111 0 -192.5 52t-112.5 142l-118 -669h-192l357 2032h193l-127 -720q64 90 164 142t211 52zM589 143q112 0 201.5 65.5t135 163t45.5 202.5q0 125 -72 198t-186 73
q-84 0 -158 -39t-122 -100.5t-76 -136t-28 -147.5q0 -124 72 -201.5t188 -77.5z" />
    <glyph glyph-name="ydieresis" unicode="&#xff;" horiz-adv-x="982" 
d="M437 1236q-52 0 -85 36.5t-27 88.5q5 51 46.5 87.5t92.5 36.5q50 0 82.5 -36t28.5 -88q-6 -52 -47 -88.5t-91 -36.5zM820 1236q-51 0 -84.5 37t-27.5 88q5 51 46.5 87.5t92.5 36.5t83.5 -36.5t27.5 -87.5t-46 -88t-92 -37zM856 987h197l-832 -1452h-194l290 499l-214 953
h199l141 -753z" />
    <glyph glyph-name="Amacron" unicode="&#x100;" horiz-adv-x="1350" 
d="M1207 1676l-21 -121h-650l21 121h650zM1026 0l-60 333h-635l-178 -333h-200l768 1411h229l272 -1411h-196zM421 500h515l-130 721z" />
    <glyph glyph-name="amacron" unicode="&#x101;" horiz-adv-x="1231" 
d="M1084 1302l-22 -121h-649l21 121h650zM973 987h183l-174 -987h-171l21 176q-62 -92 -160.5 -144.5t-207.5 -52.5q-174 0 -283.5 112.5t-109.5 302.5q0 111 40.5 220.5t110.5 196.5t174.5 141t222.5 54q119 0 204.5 -57t116.5 -153zM512 138q86 0 162 41t126 104.5
t78.5 139t28.5 147.5q0 121 -70.5 200t-188.5 79q-86 0 -161 -39.5t-124.5 -102.5t-78 -141t-28.5 -156q0 -125 70.5 -198.5t185.5 -73.5z" />
    <glyph glyph-name="Abreve" unicode="&#x102;" horiz-adv-x="1350" 
d="M860 1555q-157 0 -238 67.5t-56 206.5h117q-17 -88 37 -132t158 -44q105 0 174 43.5t85 132.5h117q-25 -139 -130 -206.5t-264 -67.5zM721 1411h229l272 -1411h-196l-60 333h-635l-178 -333h-200zM421 500h515l-130 721z" />
    <glyph glyph-name="abreve" unicode="&#x103;" horiz-adv-x="1231" 
d="M729 1144q-152 0 -232.5 87t-53.5 236h117q-17 -98 35.5 -161.5t150.5 -63.5q100 0 175.5 63.5t92.5 161.5h116q-26 -149 -137 -236t-264 -87zM973 987h183l-174 -987h-171l21 176q-62 -92 -160.5 -144.5t-207.5 -52.5q-174 0 -283.5 112.5t-109.5 302.5
q0 111 40.5 220.5t110.5 196.5t174.5 141t222.5 54q119 0 204.5 -57t116.5 -153zM512 138q86 0 162 41t126 104.5t78.5 139t28.5 147.5q0 121 -70.5 200t-188.5 79q-86 0 -161 -39.5t-124.5 -102.5t-78 -141t-28.5 -156q0 -125 70.5 -198.5t185.5 -73.5z" />
    <glyph glyph-name="Aogonek" unicode="&#x104;" horiz-adv-x="1350" 
d="M1014 -227q-8 -41 65 -41q55 0 102 31l-24 -136q-54 -20 -117 -20q-86 0 -128 25.5t-34 71.5q17 97 251 296h-103l-60 333h-635l-178 -333h-200l768 1411h229l272 -1411q-129 -111 -171 -162q-33 -40 -37 -65zM421 500h515l-130 721z" />
    <glyph glyph-name="aogonek" unicode="&#x105;" horiz-adv-x="1231" 
d="M982 0q-129 -111 -171 -162q-33 -40 -37 -65q-8 -41 65 -41q55 0 102 31l-24 -136q-54 -20 -117 -20q-86 0 -128 25.5t-34 71.5q17 97 251 296h-78l21 176q-62 -92 -160.5 -144.5t-207.5 -52.5q-174 0 -283.5 112.5t-109.5 302.5q0 111 40.5 220.5t110.5 196.5t174.5 141
t222.5 54q119 0 204.5 -57t116.5 -153l33 191h183zM512 138q86 0 162 41t126 104.5t78.5 139t28.5 147.5q0 121 -70.5 200t-188.5 79q-86 0 -161 -39.5t-124.5 -102.5t-78 -141t-28.5 -156q0 -125 70.5 -198.5t185.5 -73.5z" />
    <glyph glyph-name="Cacute" unicode="&#x106;" horiz-adv-x="1505" 
d="M926 1555l312 333l87 -73l-270 -260h-129zM730 -19q-271 0 -436 155.5t-165 423.5q0 134 37 261.5t109.5 237.5t171.5 193t232 130.5t282 47.5q216 0 367.5 -102.5t204.5 -282.5l-184 -60q-38 128 -143 196.5t-253 68.5q-113 0 -214.5 -37.5t-177 -102.5t-131.5 -151
t-84.5 -185t-28.5 -202q0 -194 116 -302t305 -108q154 0 289.5 73t220.5 202l166 -82q-113 -178 -294 -276t-390 -98z" />
    <glyph glyph-name="cacute" unicode="&#x107;" horiz-adv-x="1093" 
d="M609 1152l312 333l88 -73l-271 -260h-129zM495 -18q-193 0 -310 113.5t-117 301.5q0 114 41.5 223.5t115 195t185 138t240.5 52.5q172 0 281.5 -89.5t126.5 -245.5l-173 -15q-15 97 -78 148t-160 51q-88 0 -164.5 -41.5t-126 -107.5t-77.5 -147t-28 -162
q0 -121 67 -191.5t178 -70.5q104 0 192.5 55.5t139.5 153.5l168 -37q-72 -154 -206 -239.5t-295 -85.5z" />
    <glyph glyph-name="Cdotaccent" unicode="&#x10a;" horiz-adv-x="1505" 
d="M996 1555q-51 0 -81.5 36.5t-22.5 88.5q10 52 54 88t95 36t81 -36.5t20 -87.5q-7 -51 -51 -88t-95 -37zM730 -19q-271 0 -436 155.5t-165 423.5q0 134 37 261.5t109.5 237.5t171.5 193t232 130.5t282 47.5q216 0 367.5 -102.5t204.5 -282.5l-184 -60q-38 128 -143 196.5
t-253 68.5q-113 0 -214.5 -37.5t-177 -102.5t-131.5 -151t-84.5 -185t-28.5 -202q0 -194 116 -302t305 -108q154 0 289.5 73t220.5 202l166 -82q-113 -178 -294 -276t-390 -98z" />
    <glyph glyph-name="cdotaccent" unicode="&#x10b;" horiz-adv-x="1093" 
d="M703 1236q-51 0 -83.5 36.5t-27.5 88.5t46 88t93 36q51 0 84 -36.5t27 -87.5t-47 -88t-92 -37zM495 -18q-193 0 -310 113.5t-117 301.5q0 114 41.5 223.5t115 195t185 138t240.5 52.5q172 0 281.5 -89.5t126.5 -245.5l-173 -15q-15 97 -78 148t-160 51
q-88 0 -164.5 -41.5t-126 -107.5t-77.5 -147t-28 -162q0 -121 67 -191.5t178 -70.5q104 0 192.5 55.5t139.5 153.5l168 -37q-72 -154 -206 -239.5t-295 -85.5z" />
    <glyph glyph-name="Ccaron" unicode="&#x10c;" horiz-adv-x="1505" 
d="M928 1555l-162 296h128l115 -221l191 221h129l-266 -296h-135zM730 -19q-271 0 -436 155.5t-165 423.5q0 134 37 261.5t109.5 237.5t171.5 193t232 130.5t282 47.5q216 0 367.5 -102.5t204.5 -282.5l-184 -60q-38 128 -143 196.5t-253 68.5q-113 0 -214.5 -37.5
t-177 -102.5t-131.5 -151t-84.5 -185t-28.5 -202q0 -194 116 -302t305 -108q154 0 289.5 73t220.5 202l166 -82q-113 -178 -294 -276t-390 -98z" />
    <glyph glyph-name="ccaron" unicode="&#x10d;" horiz-adv-x="1093" 
d="M615 1168l-162 296h127l115 -221l192 221h129l-266 -296h-135zM495 -18q-193 0 -310 113.5t-117 301.5q0 114 41.5 223.5t115 195t185 138t240.5 52.5q172 0 281.5 -89.5t126.5 -245.5l-173 -15q-15 97 -78 148t-160 51q-88 0 -164.5 -41.5t-126 -107.5t-77.5 -147
t-28 -162q0 -121 67 -191.5t178 -70.5q104 0 192.5 55.5t139.5 153.5l168 -37q-72 -154 -206 -239.5t-295 -85.5z" />
    <glyph glyph-name="Dcaron" unicode="&#x10e;" horiz-adv-x="1423" 
d="M709 1555l-162 296h128l115 -221l191 221h129l-266 -296h-135zM113 0l249 1411h454q269 0 410 -145t141 -393q0 -122 -27 -242t-88.5 -235t-150.5 -202t-223.5 -140.5t-297.5 -53.5h-467zM334 172h257q102 0 189 30.5t149 83.5t109.5 121t75.5 147.5t42 158t14 157.5
q0 176 -94 272.5t-284 96.5h-270z" />
    <glyph glyph-name="dcaron" unicode="&#x10f;" horiz-adv-x="1389" 
d="M943 804l128 732h191l-271 -1536h-184l23 168q-62 -89 -158.5 -139t-203.5 -50q-175 0 -285.5 112.5t-110.5 301.5q0 113 40.5 223.5t111 198t175.5 141.5t224 54q118 0 203.5 -56t116.5 -150zM1436 1536h200l-184 -626h-141zM512 143q87 0 163.5 41.5t126.5 105.5
t79 141t29 149q0 118 -69.5 192t-179.5 74q-87 0 -163 -39.5t-126.5 -103t-79.5 -142t-29 -156.5q0 -120 68.5 -191t180.5 -71z" />
    <glyph glyph-name="Dcroat" unicode="&#x110;" horiz-adv-x="1423" 
d="M816 1411q269 0 410 -145t141 -393q0 -122 -27 -242t-88.5 -235t-150.5 -202t-223.5 -140.5t-297.5 -53.5h-467l114 644h-165l22 125h165l113 642h454zM591 172q102 0 189 30.5t149 83.5t109.5 121t75.5 147.5t42 158t14 157.5q0 176 -94 272.5t-284 96.5h-270l-83 -470
h265l-22 -125h-265l-83 -472h257z" />
    <glyph glyph-name="dcroat" unicode="&#x111;" horiz-adv-x="1229" 
d="M1375 1312l-22 -125h-162l-209 -1187h-177l24 173q-62 -90 -159.5 -142t-205.5 -52q-174 0 -283.5 112t-109.5 301q0 113 40.5 223t110.5 197t174.5 140.5t223.5 53.5q117 0 203 -57t118 -153l68 391h-276l22 125h276l39 224h183l-40 -224h162zM515 138q86 0 161 40.5
t124 103.5t77 138.5t28 147.5q0 125 -72 203t-187 78q-113 0 -204.5 -66.5t-138.5 -165t-47 -203.5q0 -127 71.5 -201.5t187.5 -74.5z" />
    <glyph glyph-name="Emacron" unicode="&#x112;" horiz-adv-x="1070" 
d="M1118 1676l-21 -121h-650l21 121h650zM1095 1239h-568l-79 -449h500l-30 -170h-500l-79 -448h568l-31 -172h-763l249 1411h763z" />
    <glyph glyph-name="emacron" unicode="&#x113;" horiz-adv-x="1109" 
d="M1044 1303l-22 -121h-649l21 121h650zM647 1007q182 0 289 -97.5t107 -281.5q0 -68 -11 -121l-10 -44h-771q-5 -45 -5 -80q0 -123 69.5 -186.5t182.5 -63.5q91 0 173.5 48t137.5 130l162 -44q-76 -135 -202.5 -210.5t-271.5 -75.5q-196 0 -310.5 107t-114.5 298
q0 95 24.5 185.5t73.5 169.5t117 138.5t161 93.5t199 34zM646 869q-133 0 -226 -76t-138 -199h584q4 27 4 55q0 109 -60.5 164.5t-163.5 55.5z" />
    <glyph glyph-name="Edotaccent" unicode="&#x116;" horiz-adv-x="1070" 
d="M772 1555q-51 0 -81.5 36.5t-22.5 88.5q10 52 54 88t95 36t81 -36.5t20 -87.5q-7 -51 -51 -88t-95 -37zM1095 1239h-568l-79 -449h500l-30 -170h-500l-79 -448h568l-31 -172h-763l249 1411h763z" />
    <glyph glyph-name="edotaccent" unicode="&#x117;" horiz-adv-x="1109" 
d="M715 1240q-51 0 -83.5 36.5t-27.5 88.5t46 88t93 36q51 0 84 -36.5t27 -87.5t-47 -88t-92 -37zM647 1007q182 0 289 -97.5t107 -281.5q0 -68 -11 -121l-10 -44h-771q-5 -45 -5 -80q0 -123 69.5 -186.5t182.5 -63.5q91 0 173.5 48t137.5 130l162 -44
q-76 -135 -202.5 -210.5t-271.5 -75.5q-196 0 -310.5 107t-114.5 298q0 95 24.5 185.5t73.5 169.5t117 138.5t161 93.5t199 34zM646 869q-133 0 -226 -76t-138 -199h584q4 27 4 55q0 109 -60.5 164.5t-163.5 55.5z" />
    <glyph glyph-name="Eogonek" unicode="&#x118;" horiz-adv-x="1070" 
d="M1095 1239h-568l-79 -449h500l-30 -170h-500l-79 -448h568l-31 -172q-129 -111 -171 -162q-33 -40 -37 -65q-8 -41 65 -41q55 0 102 31l-24 -136q-54 -20 -117 -20q-86 0 -128 25.5t-34 71.5q17 97 251 296h-670l249 1411h763z" />
    <glyph glyph-name="eogonek" unicode="&#x119;" horiz-adv-x="1109" 
d="M647 1007q182 0 289 -97.5t107 -281.5q0 -68 -11 -121l-10 -44h-771q-5 -45 -5 -80q0 -123 69.5 -186.5t182.5 -63.5q91 0 173.5 48t137.5 130l162 -44q-68 -121 -181 -197q-124 -111 -132 -161q-8 -41 65 -41q55 0 102 31l-24 -136q-54 -20 -117 -20q-86 0 -128 25.5
t-34 71.5q9 57 101 156q-61 -15 -126 -15q-196 0 -310.5 107t-114.5 298q0 95 24.5 185.5t73.5 169.5t117 138.5t161 93.5t199 34zM646 869q-133 0 -226 -76t-138 -199h584q4 27 4 55q0 109 -60.5 164.5t-163.5 55.5z" />
    <glyph glyph-name="Ecaron" unicode="&#x11a;" horiz-adv-x="1070" 
d="M839 1555h-135l-162 296h128l115 -221l191 221h129zM1095 1239h-568l-79 -449h500l-30 -170h-500l-79 -448h568l-31 -172h-763l249 1411h763z" />
    <glyph glyph-name="ecaron" unicode="&#x11b;" horiz-adv-x="1109" 
d="M762 1172h-135l-162 296h127l115 -221l192 221h129zM647 1007q182 0 289 -97.5t107 -281.5q0 -68 -11 -121l-10 -44h-771q-5 -45 -5 -80q0 -123 69.5 -186.5t182.5 -63.5q91 0 173.5 48t137.5 130l162 -44q-76 -135 -202.5 -210.5t-271.5 -75.5q-196 0 -310.5 107
t-114.5 298q0 95 24.5 185.5t73.5 169.5t117 138.5t161 93.5t199 34zM646 869q-133 0 -226 -76t-138 -199h584q4 27 4 55q0 109 -60.5 164.5t-163.5 55.5z" />
    <glyph glyph-name="Gbreve" unicode="&#x11e;" horiz-adv-x="1597" 
d="M984 1555q-157 0 -238 67.5t-56 206.5h117q-17 -88 37 -132t158 -44q105 0 174 43.5t85 132.5h117q-25 -139 -130 -206.5t-264 -67.5zM722 -19q-268 0 -431.5 153t-163.5 420q0 134 36.5 262.5t109 239t171 194.5t232 132t283.5 48q200 0 345.5 -86.5t207.5 -247.5
l-177 -79q-44 121 -144 180.5t-239 59.5q-144 0 -265.5 -60t-201 -159t-124 -224.5t-44.5 -258.5q0 -193 113 -297t310 -104q198 0 345 107.5t206 308.5l-467 -6l29 160h652l-128 -724h-155l48 254q-94 -133 -234 -203t-314 -70z" />
    <glyph glyph-name="gbreve" unicode="&#x11f;" horiz-adv-x="1211" 
d="M682 1141q-152 0 -232.5 87t-53.5 236h117q-17 -98 35.5 -161.5t150.5 -63.5q100 0 175.5 63.5t92.5 161.5h116q-26 -149 -137 -236t-264 -87zM958 987h178l-165 -941q-44 -252 -192 -383.5t-372 -131.5q-187 0 -296 80.5t-143 228.5l160 62q44 -219 275 -219
q155 0 255 98t128 268l27 160q-59 -82 -156.5 -131.5t-203.5 -49.5q-167 0 -275.5 112t-108.5 291q0 113 43 219t115 184t170.5 125t204.5 47q117 0 203.5 -56.5t117.5 -147.5zM504 184q150 0 268 124t118 280q0 114 -71 190t-184 76q-102 0 -191.5 -58t-142 -151.5
t-52.5 -195.5q0 -116 71.5 -190.5t183.5 -74.5z" />
    <glyph glyph-name="Gdotaccent" unicode="&#x120;" horiz-adv-x="1597" 
d="M985 1555q-51 0 -81.5 36.5t-22.5 88.5q10 52 54 88t95 36t81 -36.5t20 -87.5q-7 -51 -51 -88t-95 -37zM722 -19q-268 0 -431.5 153t-163.5 420q0 134 36.5 262.5t109 239t171 194.5t232 132t283.5 48q200 0 345.5 -86.5t207.5 -247.5l-177 -79q-44 121 -144 180.5
t-239 59.5q-144 0 -265.5 -60t-201 -159t-124 -224.5t-44.5 -258.5q0 -193 113 -297t310 -104q198 0 345 107.5t206 308.5l-467 -6l29 160h652l-128 -724h-155l48 254q-94 -133 -234 -203t-314 -70z" />
    <glyph glyph-name="gdotaccent" unicode="&#x121;" horiz-adv-x="1211" 
d="M708 1236q-51 0 -83.5 36.5t-27.5 88.5t46 88t93 36q51 0 84 -36.5t27 -87.5t-47 -88t-92 -37zM958 987h178l-165 -941q-44 -252 -192 -383.5t-372 -131.5q-187 0 -296 80.5t-143 228.5l160 62q44 -219 275 -219q155 0 255 98t128 268l27 160q-59 -82 -156.5 -131.5
t-203.5 -49.5q-167 0 -275.5 112t-108.5 291q0 113 43 219t115 184t170.5 125t204.5 47q117 0 203.5 -56.5t117.5 -147.5zM504 184q150 0 268 124t118 280q0 114 -71 190t-184 76q-102 0 -191.5 -58t-142 -151.5t-52.5 -195.5q0 -116 71.5 -190.5t183.5 -74.5z" />
    <glyph glyph-name="Gcommaaccent" unicode="&#x122;" horiz-adv-x="1597" 
d="M722 -19q-268 0 -431.5 153t-163.5 420q0 134 36.5 262.5t109 239t171 194.5t232 132t283.5 48q200 0 345.5 -86.5t207.5 -247.5l-177 -79q-44 121 -144 180.5t-239 59.5q-144 0 -265.5 -60t-201 -159t-124 -224.5t-44.5 -258.5q0 -193 113 -297t310 -104
q198 0 345 107.5t206 308.5l-467 -6l29 160h652l-128 -724h-155l48 254q-94 -133 -234 -203t-314 -70zM461 -561l-92 45l226 367h174z" />
    <glyph glyph-name="gcommaaccent" unicode="&#x123;" horiz-adv-x="1211" 
d="M1073 1457l-289 -310h-203l349 310h143zM958 987h178l-165 -941q-44 -252 -192 -383.5t-372 -131.5q-187 0 -296 80.5t-143 228.5l160 62q44 -219 275 -219q155 0 255 98t128 268l27 160q-59 -82 -156.5 -131.5t-203.5 -49.5q-167 0 -275.5 112t-108.5 291q0 113 43 219
t115 184t170.5 125t204.5 47q117 0 203.5 -56.5t117.5 -147.5zM504 184q150 0 268 124t118 280q0 114 -71 190t-184 76q-102 0 -191.5 -58t-142 -151.5t-52.5 -195.5q0 -116 71.5 -190.5t183.5 -74.5z" />
    <glyph glyph-name="Hbar" unicode="&#x126;" horiz-adv-x="1486" 
d="M1544 1151l-16 -95h-143l-187 -1056h-190l110 622h-703l-110 -622h-192l186 1056h-144l16 95h145l46 260h192l-46 -260h703l46 260h191l-46 -260h142zM1148 792l46 264h-703l-46 -264h703z" />
    <glyph glyph-name="hbar" unicode="&#x127;" horiz-adv-x="1102" 
d="M718 1006q128 0 204.5 -70t76.5 -196q0 -25 -8 -83l-117 -657h-183l112 637q6 33 6 61q0 80 -43.5 117.5t-115.5 37.5q-95 0 -174.5 -58t-111.5 -170l-110 -625h-183l210 1189h-140l22 125h140l39 222h183l-39 -222h297l-22 -125h-297l-59 -335q125 152 313 152z" />
    <glyph glyph-name="Itilde" unicode="&#x128;" horiz-adv-x="592" 
d="M629 1544q-118 0 -168 112q-27 61 -85 61q-48 0 -84.5 -44t-49.5 -113h-105q20 115 90.5 188t163.5 73q115 0 167 -112q26 -59 87 -59q49 0 84 41.5t48 112.5h106q-21 -114 -89.5 -187t-164.5 -73zM113 0l249 1411h190l-248 -1411h-191z" />
    <glyph glyph-name="itilde" unicode="&#x129;" horiz-adv-x="513" 
d="M502 1147q-103 0 -150 97q-21 50 -66 50q-40 0 -69 -37t-39 -96h-104q18 103 80 168.5t146 65.5q104 0 146 -98q21 -48 71 -48q40 0 67.5 35.5t38.5 95.5h104q-18 -102 -79 -167.5t-146 -65.5zM72 0l176 990h192l-175 -990h-193z" />
    <glyph glyph-name="Imacron" unicode="&#x12a;" horiz-adv-x="592" 
d="M156 1555l21 121h650l-21 -121h-650zM113 0l249 1411h190l-248 -1411h-191z" />
    <glyph glyph-name="imacron" unicode="&#x12b;" horiz-adv-x="513" 
d="M55 1181l21 121h650l-22 -121h-649zM72 0l176 990h192l-175 -990h-193z" />
    <glyph glyph-name="Iogonek" unicode="&#x12e;" horiz-adv-x="592" 
d="M305 0q-129 -111 -171 -162q-33 -40 -37 -65q-8 -41 65 -41q55 0 102 31l-24 -136q-54 -20 -117 -20q-86 0 -128 25.5t-34 71.5q17 97 251 296h-99l249 1411h190l-248 -1411h1z" />
    <glyph glyph-name="iogonek" unicode="&#x12f;" horiz-adv-x="513" 
d="M425 1488q51 0 84 -36.5t27 -87.5t-47 -88t-92 -37t-83.5 36.5t-27.5 88.5t46 88t93 36zM72 0l176 990h192l-175 -990q-129 -111 -171 -162q-33 -40 -37 -65q-8 -41 65 -41q55 0 102 31l-24 -136q-54 -20 -117 -20q-86 0 -128 25.5t-34 71.5q17 97 251 296h-100z" />
    <glyph glyph-name="Idotaccent" unicode="&#x130;" horiz-adv-x="592" 
d="M481 1555q-51 0 -81.5 36.5t-22.5 88.5q10 52 54 88t95 36t81 -36.5t20 -87.5q-7 -51 -51 -88t-95 -37zM113 0l249 1411h190l-248 -1411h-191z" />
    <glyph glyph-name="dotlessi" unicode="&#x131;" horiz-adv-x="513" 
d="M72 0l176 990h192l-175 -990h-193z" />
    <glyph glyph-name="Kcommaaccent" unicode="&#x136;" horiz-adv-x="1291" 
d="M706 734l-1 -4l453 -730h-228l-393 653h-118l-115 -653h-191l249 1411h190l-103 -587h124l582 587h241zM199 -516l226 367h174l-308 -412z" />
    <glyph glyph-name="kcommaaccent" unicode="&#x137;" horiz-adv-x="1024" 
d="M1062 987l-486 -457l356 -530h-220l-302 463h-71l-82 -463h-186l271 1536h186l-165 -934h81l395 385h223zM83 -516l226 367h174l-308 -412z" />
    <glyph glyph-name="Lacute" unicode="&#x139;" horiz-adv-x="916" 
d="M811 1815l-270 -260h-129l312 333zM336 172h483l-30 -172h-676l249 1411h190z" />
    <glyph glyph-name="lacute" unicode="&#x13a;" horiz-adv-x="504" 
d="M393 1701l312 333l88 -73l-271 -260h-129zM71 0l271 1536h186l-271 -1536h-186z" />
    <glyph glyph-name="Lcommaaccent" unicode="&#x13b;" horiz-adv-x="916" 
d="M336 172h483l-30 -172h-676l249 1411h190zM111 -516l226 367h174l-308 -412z" />
    <glyph glyph-name="lcommaaccent" unicode="&#x13c;" horiz-adv-x="504" 
d="M71 0l271 1536h186l-271 -1536h-186zM-85 -561l-92 45l226 367h174z" />
    <glyph glyph-name="Lcaron" unicode="&#x13d;" horiz-adv-x="1000" 
d="M1056 1414l-294 -626h-143l234 626h203zM552 1411l-216 -1239h483l-30 -172h-676l249 1411h190z" />
    <glyph glyph-name="lcaron" unicode="&#x13e;" horiz-adv-x="652" 
d="M71 0l271 1536h194l-271 -1536h-194zM576 910l125 626h200l-184 -626h-141z" />
    <glyph glyph-name="Lslash" unicode="&#x141;" horiz-adv-x="916" 
d="M336 172h483l-30 -172h-676l98 553l-189 -124l25 137l188 124l127 721h190l-101 -577l225 148l-24 -138l-224 -148z" />
    <glyph glyph-name="lslash" unicode="&#x142;" horiz-adv-x="504" 
d="M617 1002l-24 -138l-208 -137l-128 -727h-186l104 589l-212 -140l25 137l211 140l143 810h186l-118 -671z" />
    <glyph glyph-name="Nacute" unicode="&#x143;" horiz-adv-x="1541" 
d="M1286 1815l-270 -260h-129l312 333zM1312 1411h189l-249 -1411h-201l-549 1132l-201 -1132h-188l249 1411h199l553 -1129z" />
    <glyph glyph-name="nacute" unicode="&#x144;" horiz-adv-x="1104" 
d="M995 1412l-271 -260h-129l312 333zM720 1006q128 0 204 -70t76 -196q0 -25 -8 -83l-117 -657h-184l114 637q5 37 5 60q0 81 -44 118.5t-121 37.5q-93 0 -170.5 -59.5t-108.5 -170.5l-110 -623h-184l175 987h183l-23 -132q124 151 313 151z" />
    <glyph glyph-name="Ncommaaccent" unicode="&#x145;" horiz-adv-x="1541" 
d="M1312 1411h189l-249 -1411h-201l-549 1132l-201 -1132h-188l249 1411h199l553 -1129zM343 -516l226 367h174l-308 -412z" />
    <glyph glyph-name="ncommaaccent" unicode="&#x146;" horiz-adv-x="1104" 
d="M720 1006q128 0 204 -70t76 -196q0 -25 -8 -83l-117 -657h-184l114 637q5 37 5 60q0 81 -44 118.5t-121 37.5q-93 0 -170.5 -59.5t-108.5 -170.5l-110 -623h-184l175 987h183l-23 -132q124 151 313 151zM122 -516l226 367h174l-308 -412z" />
    <glyph glyph-name="Ncaron" unicode="&#x147;" horiz-adv-x="1541" 
d="M1024 1555h-135l-162 296h128l115 -221l191 221h129zM1312 1411h189l-249 -1411h-201l-549 1132l-201 -1132h-188l249 1411h199l553 -1129z" />
    <glyph glyph-name="ncaron" unicode="&#x148;" horiz-adv-x="1104" 
d="M736 1168h-135l-162 296h127l115 -221l192 221h129zM720 1006q128 0 204 -70t76 -196q0 -25 -8 -83l-117 -657h-184l114 637q5 37 5 60q0 81 -44 118.5t-121 37.5q-93 0 -170.5 -59.5t-108.5 -170.5l-110 -623h-184l175 987h183l-23 -132q124 151 313 151z" />
    <glyph glyph-name="Eng" unicode="&#x14a;" horiz-adv-x="1583" 
d="M1544 1414l-221 -1247h1l-30 -167q-38 -220 -190 -341t-374 -121l26 155q134 0 226 79.5t99 227.5l-572 1137l-201 -1137h-195l250 1414h210l575 -1131l199 1131h197z" />
    <glyph glyph-name="eng" unicode="&#x14b;" horiz-adv-x="1116" 
d="M725 1010q156 0 232.5 -94.5t46.5 -265.5l-146 -827q-24 -133 -110 -211t-212 -78h-144l24 141h85q59 0 106 41.5t59 111.5l141 796q21 116 -23.5 168.5t-135.5 52.5q-102 0 -179 -63t-98 -179l-107 -603h-192l176 990h191l-21 -120q127 140 307 140z" />
    <glyph glyph-name="Omacron" unicode="&#x14c;" horiz-adv-x="1614" 
d="M670 1555l21 121h650l-21 -121h-650zM730 -19q-271 0 -436 155.5t-165 423.5q0 134 37 261.5t109.5 237.5t171.5 193t232 130.5t282 47.5q269 0 434.5 -155t165.5 -422q0 -168 -59.5 -325t-165 -278.5t-264 -195t-342.5 -73.5zM738 160q113 0 214.5 38t176.5 103.5
t130.5 152t83.5 185.5t28 202q0 193 -115 301t-303 108q-113 0 -214.5 -37.5t-177.5 -103.5t-131.5 -152t-84 -185.5t-28.5 -201.5q0 -194 116 -302t305 -108z" />
    <glyph glyph-name="omacron" unicode="&#x14d;" horiz-adv-x="1162" 
d="M377 1178l21 121h650l-22 -121h-649zM502 -19q-194 0 -312.5 111.5t-118.5 301.5q0 117 41 227t115 195.5t186 137.5t245 52q195 0 313.5 -111.5t118.5 -301.5q0 -117 -41.5 -226.5t-115.5 -195.5t-186.5 -138t-244.5 -52zM506 133q90 0 167 40.5t127.5 105.5t79 145
t28.5 161q0 124 -70 197t-187 73q-89 0 -166 -41t-126 -106.5t-77 -145.5t-28 -160q0 -124 68.5 -196.5t183.5 -72.5z" />
    <glyph glyph-name="Ohungarumlaut" unicode="&#x150;" horiz-adv-x="1614" 
d="M749 1555l312 333l87 -73l-270 -260h-129zM1112 1555l312 333l87 -73l-270 -260h-129zM730 -19q-271 0 -436 155.5t-165 423.5q0 134 37 261.5t109.5 237.5t171.5 193t232 130.5t282 47.5q269 0 434.5 -155t165.5 -422q0 -168 -59.5 -325t-165 -278.5t-264 -195
t-342.5 -73.5zM738 160q113 0 214.5 38t176.5 103.5t130.5 152t83.5 185.5t28 202q0 193 -115 301t-303 108q-113 0 -214.5 -37.5t-177.5 -103.5t-131.5 -152t-84 -185.5t-28.5 -201.5q0 -194 116 -302t305 -108z" />
    <glyph glyph-name="ohungarumlaut" unicode="&#x151;" horiz-adv-x="1162" 
d="M449 1152l312 333l88 -73l-271 -260h-129zM812 1152l312 333l88 -73l-272 -260h-128zM502 -19q-194 0 -312.5 111.5t-118.5 301.5q0 117 41 227t115 195.5t186 137.5t245 52q195 0 313.5 -111.5t118.5 -301.5q0 -117 -41.5 -226.5t-115.5 -195.5t-186.5 -138t-244.5 -52z
M506 133q90 0 167 40.5t127.5 105.5t79 145t28.5 161q0 124 -70 197t-187 73q-89 0 -166 -41t-126 -106.5t-77 -145.5t-28 -160q0 -124 68.5 -196.5t183.5 -72.5z" />
    <glyph glyph-name="OE" unicode="&#x152;" horiz-adv-x="1938" 
d="M731 0q-306 0 -455.5 135.5t-149.5 385.5q0 134 28 258t93 240.5t161 202t243 137t329 51.5h1014l-32 -180h-604l-77 -436h518l-32 -179h-518l-77 -435h604l-31 -180h-1014zM772 180h203l185 1050h-203q-140 0 -250.5 -40.5t-179.5 -106t-114 -156.5t-63 -184.5
t-18 -196.5q0 -181 106.5 -273.5t333.5 -92.5z" />
    <glyph glyph-name="oe" unicode="&#x153;" horiz-adv-x="1936" 
d="M1474 1007q182 0 289 -97.5t107 -281.5q0 -68 -11 -121l-10 -44h-771q-5 -45 -5 -80q0 -123 69.5 -186.5t182.5 -63.5q91 0 173.5 48t137.5 130l162 -44q-76 -135 -202.5 -210.5t-271.5 -75.5q-135 0 -233 52t-148 150q-80 -94 -192.5 -148t-248.5 -54
q-194 0 -312.5 111.5t-118.5 301.5q0 117 41 227t115 195.5t186 137.5t245 52q132 0 231.5 -53t151.5 -150q77 96 187 150t246 54zM1473 869q-133 0 -226 -76t-138 -199h584q4 27 4 55q0 109 -60.5 164.5t-163.5 55.5zM506 133q90 0 167 40.5t127.5 105.5t79 145t28.5 161
q0 124 -70 197t-187 73q-89 0 -166 -41t-126 -106.5t-77 -145.5t-28 -160q0 -124 68.5 -196.5t183.5 -72.5z" />
    <glyph glyph-name="Racute" unicode="&#x154;" horiz-adv-x="1245" 
d="M1137 1815l-270 -260h-129l312 333zM1197 1084q0 -54 -12 -108.5t-41 -110t-71.5 -100.5t-109 -78t-147.5 -45l279 -642h-209l-260 636h-210l-111 -636h-192l249 1411h466q183 0 276 -89.5t93 -237.5zM523 1246l-83 -474h249q75 0 134.5 21t94.5 52.5t58 72t31 76t8 67.5
q0 87 -56 136t-173 49h-263z" />
    <glyph glyph-name="racute" unicode="&#x155;" horiz-adv-x="661" 
d="M778 1412l-271 -260h-129l312 333zM397 819q52 79 143.5 128.5t194.5 50.5l-35 -182q-140 0 -233.5 -77t-120.5 -232l-89 -507h-185l175 987h179z" />
    <glyph glyph-name="Rcommaaccent" unicode="&#x156;" horiz-adv-x="1245" 
d="M1197 1084q0 -54 -12 -108.5t-41 -110t-71.5 -100.5t-109 -78t-147.5 -45l279 -642h-209l-260 636h-210l-111 -636h-192l249 1411h466q183 0 276 -89.5t93 -237.5zM523 1246l-83 -474h249q75 0 134.5 21t94.5 52.5t58 72t31 76t8 67.5q0 87 -56 136t-173 49h-263z
M194 -516l226 367h174l-308 -412z" />
    <glyph glyph-name="rcommaaccent" unicode="&#x157;" horiz-adv-x="661" 
d="M397 819q52 79 143.5 128.5t194.5 50.5l-35 -182q-140 0 -233.5 -77t-120.5 -232l-89 -507h-185l175 987h179zM-175 -516l226 367h174l-308 -412z" />
    <glyph glyph-name="Rcaron" unicode="&#x158;" horiz-adv-x="1245" 
d="M875 1555h-135l-162 296h128l115 -221l191 221h129zM1197 1084q0 -54 -12 -108.5t-41 -110t-71.5 -100.5t-109 -78t-147.5 -45l279 -642h-209l-260 636h-210l-111 -636h-192l249 1411h466q183 0 276 -89.5t93 -237.5zM523 1246l-83 -474h249q75 0 134.5 21t94.5 52.5
t58 72t31 76t8 67.5q0 87 -56 136t-173 49h-263z" />
    <glyph glyph-name="rcaron" unicode="&#x159;" horiz-adv-x="661" 
d="M519 1168h-135l-162 296h127l115 -221l192 221h129zM397 819q52 79 143.5 128.5t194.5 50.5l-35 -182q-140 0 -233.5 -77t-120.5 -232l-89 -507h-185l175 987h179z" />
    <glyph glyph-name="Sacute" unicode="&#x15a;" horiz-adv-x="1244" 
d="M739 1555l312 333l87 -73l-270 -260h-129zM585 -19q-228 0 -372 103.5t-149 279.5l198 35q7 -118 98 -186.5t235 -68.5q150 0 245 67t95 179q0 49 -20.5 88.5t-41 62t-77.5 47.5t-80.5 32.5t-99.5 28.5l-9 3q-50 14 -82.5 24.5t-77.5 28.5t-73.5 36t-60.5 46t-50 59.5
t-30 74.5t-12 94q0 119 67 214.5t184 148t260 52.5q132 0 239 -36.5t178 -117.5t76 -196l-188 -37q-6 112 -90.5 168t-209.5 56q-138 0 -231.5 -68t-93.5 -167q0 -32 8.5 -59.5t20.5 -47t36.5 -37.5t43.5 -29t55.5 -24t58.5 -19.5t66 -18.5q55 -15 88.5 -25t84.5 -29
t82 -37.5t68 -48.5t57.5 -63.5t34.5 -81t14 -102.5q0 -133 -71.5 -231.5t-194 -148t-279.5 -49.5z" />
    <glyph glyph-name="sacute" unicode="&#x15b;" horiz-adv-x="919" 
d="M508 1152l312 333l88 -73l-271 -260h-129zM390 -19q-166 0 -260.5 74t-94.5 205l171 35q-4 -84 48 -132t143 -48q94 0 157.5 48t63.5 133q0 27 -11 48.5t-25.5 35t-46.5 26.5t-56.5 20.5t-72.5 20.5q-61 16 -101 31.5t-81.5 42.5t-62 68.5t-20.5 97.5q0 149 109.5 233.5
t276.5 84.5q147 0 240 -67t94 -197l-159 -27q4 81 -46 120t-126 39q-89 0 -151.5 -47t-62.5 -125q0 -26 12 -46t25.5 -31.5t47 -24t50 -17t62.5 -15.5q51 -13 86 -24.5t75.5 -32.5t65.5 -46.5t41.5 -64t16.5 -87.5q0 -156 -115 -243.5t-293 -87.5z" />
    <glyph glyph-name="Scedilla" unicode="&#x15e;" horiz-adv-x="1244" 
d="M701 797q55 -15 88.5 -25t84.5 -29t82 -37.5t68 -48.5t57.5 -63.5t34.5 -81t14 -102.5q0 -133 -71.5 -231.5t-194 -148t-279.5 -49.5h-11l-79 -116q44 7 55 7q86 0 132.5 -53.5t32.5 -137.5q-16 -90 -87.5 -151.5t-161.5 -61.5q-74 0 -133.5 38.5t-79.5 95.5l99 37
q16 -32 52.5 -52.5t75.5 -20.5q48 0 87 32.5t48 82.5q9 51 -19 80.5t-81 29.5q-41 0 -84 -23l-70 51l116 169q-185 24 -297 123.5t-116 252.5l198 35q7 -118 98 -186.5t235 -68.5q150 0 245 67t95 179q0 49 -20.5 88.5t-41 62t-77.5 47.5t-80.5 32.5t-99.5 28.5l-9 3
q-50 14 -82.5 24.5t-77.5 28.5t-73.5 36t-60.5 46t-50 59.5t-30 74.5t-12 94q0 119 67 214.5t184 148t260 52.5q132 0 239 -36.5t178 -117.5t76 -196l-188 -37q-6 112 -90.5 168t-209.5 56q-138 0 -231.5 -68t-93.5 -167q0 -32 8.5 -59.5t20.5 -47t36.5 -37.5t43.5 -29
t55.5 -24t58.5 -19.5t66 -18.5z" />
    <glyph glyph-name="scedilla" unicode="&#x15f;" horiz-adv-x="919" 
d="M513 567q51 -13 86 -24.5t75.5 -32.5t65.5 -46.5t41.5 -64t16.5 -87.5q0 -151 -107 -238t-277 -93l-78 -115q44 7 55 7q86 0 132.5 -53.5t32.5 -137.5q-16 -90 -87.5 -151.5t-161.5 -61.5q-74 0 -133.5 38.5t-79.5 95.5l99 37q16 -32 52.5 -52.5t75.5 -20.5q48 0 87 32.5
t48 82.5q9 51 -19 80.5t-81 29.5q-41 0 -84 -23l-70 51l113 165q-133 17 -206.5 88.5t-73.5 186.5l171 35q-4 -84 48 -132t143 -48q94 0 157.5 48t63.5 133q0 27 -11 48.5t-25.5 35t-46.5 26.5t-56.5 20.5t-72.5 20.5q-61 16 -101 31.5t-81.5 42.5t-62 68.5t-20.5 97.5
q0 149 109.5 233.5t276.5 84.5q147 0 240 -67t94 -197l-159 -27q4 81 -46 120t-126 39q-89 0 -151.5 -47t-62.5 -125q0 -26 12 -46t25.5 -31.5t47 -24t50 -17t62.5 -15.5z" />
    <glyph glyph-name="Scaron" unicode="&#x160;" horiz-adv-x="1244" 
d="M741 1555l-162 296h128l115 -221l191 221h129l-266 -296h-135zM585 -19q-228 0 -372 103.5t-149 279.5l198 35q7 -118 98 -186.5t235 -68.5q150 0 245 67t95 179q0 49 -20.5 88.5t-41 62t-77.5 47.5t-80.5 32.5t-99.5 28.5l-9 3q-50 14 -82.5 24.5t-77.5 28.5t-73.5 36
t-60.5 46t-50 59.5t-30 74.5t-12 94q0 119 67 214.5t184 148t260 52.5q132 0 239 -36.5t178 -117.5t76 -196l-188 -37q-6 112 -90.5 168t-209.5 56q-138 0 -231.5 -68t-93.5 -167q0 -32 8.5 -59.5t20.5 -47t36.5 -37.5t43.5 -29t55.5 -24t58.5 -19.5t66 -18.5
q55 -15 88.5 -25t84.5 -29t82 -37.5t68 -48.5t57.5 -63.5t34.5 -81t14 -102.5q0 -133 -71.5 -231.5t-194 -148t-279.5 -49.5z" />
    <glyph glyph-name="scaron" unicode="&#x161;" horiz-adv-x="919" 
d="M514 1168l-162 296h127l115 -221l192 221h129l-266 -296h-135zM390 -19q-166 0 -260.5 74t-94.5 205l171 35q-4 -84 48 -132t143 -48q94 0 157.5 48t63.5 133q0 27 -11 48.5t-25.5 35t-46.5 26.5t-56.5 20.5t-72.5 20.5q-61 16 -101 31.5t-81.5 42.5t-62 68.5t-20.5 97.5
q0 149 109.5 233.5t276.5 84.5q147 0 240 -67t94 -197l-159 -27q4 81 -46 120t-126 39q-89 0 -151.5 -47t-62.5 -125q0 -26 12 -46t25.5 -31.5t47 -24t50 -17t62.5 -15.5q51 -13 86 -24.5t75.5 -32.5t65.5 -46.5t41.5 -64t16.5 -87.5q0 -156 -115 -243.5t-293 -87.5z" />
    <glyph glyph-name="uni0162" unicode="&#x162;" horiz-adv-x="987" 
d="M501 0h-43l-92 -135q44 7 55 7q86 0 132.5 -53.5t32.5 -137.5q-16 -90 -87.5 -151.5t-161.5 -61.5q-74 0 -133.5 38.5t-79.5 95.5l99 37q16 -32 52.5 -52.5t75.5 -20.5q48 0 87 32.5t48 82.5q9 51 -19 80.5t-81 29.5q-41 0 -84 -23l-70 51l124 181h-44l219 1239h-361
l30 172h909l-30 -172h-359z" />
    <glyph glyph-name="uni0163" unicode="&#x163;" horiz-adv-x="684" 
d="M459 842l-99 -557q-2 -15 -2 -39q0 -50 28 -75.5t79 -25.5h96l-26 -145h-46l-92 -135q44 7 55 7q86 0 132.5 -53.5t32.5 -137.5q-16 -90 -87.5 -151.5t-161.5 -61.5q-74 0 -133.5 38.5t-79.5 95.5l99 37q16 -32 52.5 -52.5t75.5 -20.5q48 0 87 32.5t48 82.5
q9 51 -19 80.5t-81 29.5q-41 0 -84 -23l-70 51l124 181q-102 4 -160 60.5t-58 154.5q0 32 7 64l100 563h-202l26 145h66q68 0 114.5 39t59.5 110l32 179h171l-58 -328h225l-26 -145h-225z" />
    <glyph glyph-name="Tcaron" unicode="&#x164;" horiz-adv-x="987" 
d="M747 1555h-135l-162 296h128l115 -221l191 221h129zM1109 1411l-30 -172h-359l-219 -1239h-189l219 1239h-361l30 172h909z" />
    <glyph glyph-name="tcaron" unicode="&#x165;" horiz-adv-x="694" 
d="M695 1202l124 625h200l-183 -625h-141zM405 0q-110 0 -172 57.5t-62 160.5q0 37 6 65l99 556h-202l27 151h66q69 0 116.5 39.5t60.5 111.5l30 178h179l-58 -329h224l-26 -151h-224l-98 -550q-3 -23 -3 -39q0 -99 107 -99h96l-27 -151h-139z" />
    <glyph glyph-name="Tbar" unicode="&#x166;" horiz-adv-x="987" 
d="M1079 1239h-359l-83 -470h215l-22 -125h-215l-114 -644h-189l114 644h-216l22 125h216l83 470h-361l30 172h909z" />
    <glyph glyph-name="tbar" unicode="&#x167;" horiz-adv-x="684" 
d="M684 842h-225l-50 -284h165l-18 -125h-170l-26 -148q-2 -15 -2 -39q0 -50 28 -75.5t79 -25.5h96l-26 -145h-135q-108 0 -169.5 57t-61.5 158q0 32 7 64l27 154h-154l18 125h159l50 284h-202l26 145h66q68 0 114.5 39t59.5 110l32 179h171l-58 -328h225z" />
    <glyph glyph-name="Utilde" unicode="&#x168;" horiz-adv-x="1381" 
d="M1022 1544q-118 0 -168 112q-27 61 -85 61q-48 0 -84.5 -44t-49.5 -113h-105q20 115 90.5 188t163.5 73q115 0 167 -112q26 -59 87 -59q49 0 84 41.5t48 112.5h106q-21 -114 -89.5 -187t-164.5 -73zM610 -19q-204 0 -328 104.5t-124 290.5q0 56 9 101l166 934h190
l-162 -921q-9 -48 -9 -89q0 -124 71.5 -186t191.5 -62q149 0 260.5 91t141.5 259l161 908h191l-167 -948q-41 -229 -205 -355.5t-387 -126.5z" />
    <glyph glyph-name="utilde" unicode="&#x169;" horiz-adv-x="1104" 
d="M583 1291q-40 0 -69 -37t-39 -96h-104q18 103 80 168.5t146 65.5q104 0 146 -98q21 -48 71 -48q40 0 67.5 35.5t38.5 95.5h104q-18 -102 -79 -167.5t-146 -65.5q-103 0 -150 97q-21 50 -66 50zM847 987h184l-175 -987h-175l20 139q-59 -75 -140.5 -116.5t-175.5 -41.5
q-130 0 -206 70t-76 196q0 36 8 82l117 658h183l-111 -624q-6 -36 -6 -65q0 -82 44.5 -121t117.5 -39q107 0 186 68.5t100 188.5h1z" />
    <glyph glyph-name="Umacron" unicode="&#x16a;" horiz-adv-x="1381" 
d="M549 1555l21 121h650l-21 -121h-650zM610 -19q-204 0 -328 104.5t-124 290.5q0 56 9 101l166 934h190l-162 -921q-9 -48 -9 -89q0 -124 71.5 -186t191.5 -62q149 0 260.5 91t141.5 259l161 908h191l-167 -948q-41 -229 -205 -355.5t-387 -126.5z" />
    <glyph glyph-name="umacron" unicode="&#x16b;" horiz-adv-x="1104" 
d="M1023 1299l-22 -121h-649l21 121h650zM847 987h184l-175 -987h-175l20 139q-59 -75 -140.5 -116.5t-175.5 -41.5q-130 0 -206 70t-76 196q0 36 8 82l117 658h183l-111 -624q-6 -36 -6 -65q0 -82 44.5 -121t117.5 -39q107 0 186 68.5t100 188.5h1z" />
    <glyph glyph-name="Uring" unicode="&#x16e;" horiz-adv-x="1381" 
d="M882 1555q-83 0 -134.5 50t-53.5 131q-2 99 70 173.5t177 74.5q84 0 134 -50t52 -129q2 -98 -69 -174t-176 -76zM892 1646q61 0 103.5 43.5t42.5 101.5q0 45 -29 75.5t-76 30.5q-61 0 -104 -46t-43 -103q0 -47 28.5 -74.5t77.5 -27.5zM610 -19q-204 0 -328 104.5
t-124 290.5q0 56 9 101l166 934h190l-162 -921q-9 -48 -9 -89q0 -124 71.5 -186t191.5 -62q149 0 260.5 91t141.5 259l161 908h191l-167 -948q-41 -229 -205 -355.5t-387 -126.5z" />
    <glyph glyph-name="uring" unicode="&#x16f;" horiz-adv-x="1104" 
d="M679 1117q-89 0 -145.5 63.5t-48.5 151.5q11 89 81 151.5t159 62.5q88 0 143.5 -63t45.5 -151q-8 -88 -77.5 -151.5t-157.5 -63.5zM578 1332q-5 -54 27 -89t85 -35q52 0 91 35.5t44 88.5q6 52 -26 89.5t-83 37.5q-53 0 -92.5 -37.5t-45.5 -89.5zM847 987h184l-175 -987
h-175l20 139q-59 -75 -140.5 -116.5t-175.5 -41.5q-130 0 -206 70t-76 196q0 36 8 82l117 658h183l-111 -624q-6 -36 -6 -65q0 -82 44.5 -121t117.5 -39q107 0 186 68.5t100 188.5h1z" />
    <glyph glyph-name="Uhungarumlaut" unicode="&#x170;" horiz-adv-x="1381" 
d="M628 1555l312 333l87 -73l-270 -260h-129zM991 1555l312 333l87 -73l-270 -260h-129zM610 -19q-204 0 -328 104.5t-124 290.5q0 56 9 101l166 934h190l-162 -921q-9 -48 -9 -89q0 -124 71.5 -186t191.5 -62q149 0 260.5 91t141.5 259l161 908h191l-167 -948
q-41 -229 -205 -355.5t-387 -126.5z" />
    <glyph glyph-name="uhungarumlaut" unicode="&#x171;" horiz-adv-x="1104" 
d="M824 1412l-271 -260h-129l312 333zM915 1152h-128l312 333l88 -73zM743 395l104 592h184l-175 -987h-175l20 139q-59 -75 -140.5 -116.5t-175.5 -41.5q-130 0 -206 70t-76 196q0 36 8 82l117 658h183l-111 -624q-6 -36 -6 -65q0 -82 44.5 -121t117.5 -39q107 0 186 68.5
t100 188.5h1z" />
    <glyph glyph-name="Uogonek" unicode="&#x172;" horiz-adv-x="1381" 
d="M1178 1411h191l-167 -948q-31 -171 -132 -286t-250 -163q-169 -146 -178 -202q-8 -41 65 -41q55 0 102 31l-24 -136q-54 -20 -117 -20q-86 0 -128 25.5t-34 71.5q14 85 191 243q-48 -5 -87 -5q-204 0 -328 104.5t-124 290.5q0 56 9 101l166 934h190l-162 -921
q-9 -48 -9 -89q0 -124 71.5 -186t191.5 -62q149 0 260.5 91t141.5 259z" />
    <glyph glyph-name="uogonek" unicode="&#x173;" horiz-adv-x="1104" 
d="M856 0q-129 -111 -171 -162q-33 -40 -37 -65q-8 -41 65 -41q55 0 102 31l-24 -136q-54 -20 -117 -20q-86 0 -128 25.5t-34 71.5q17 97 251 296h-82l20 139q-59 -75 -140.5 -116.5t-175.5 -41.5q-130 0 -206 70t-76 196q0 36 8 82l117 658h183l-111 -624q-6 -36 -6 -65
q0 -82 44.5 -121t117.5 -39q107 0 186 68.5t100 188.5h1l104 592h184z" />
    <glyph glyph-name="Wcircumflex" unicode="&#x174;" horiz-adv-x="2022" 
d="M1042 1555h-128l266 296h135l162 -296h-129l-115 220zM365 0l-152 1411h194l123 -1154l555 1154h168l141 -1154l538 1154h200l-649 -1411h-227l-143 1066l-521 -1066h-227z" />
    <glyph glyph-name="wcircumflex" unicode="&#x175;" horiz-adv-x="1585" 
d="M954 1388l-192 -220h-127l265 296h135l162 -296h-129zM1455 987h195l-515 -988h-167l-131 750l-397 -750h-168l-162 988h190l108 -745l396 745h142l133 -746z" />
    <glyph glyph-name="Ycircumflex" unicode="&#x176;" horiz-adv-x="1173" 
d="M807 1775l-191 -220h-128l266 296h135l162 -296h-129zM1308 1411l-598 -742l-117 -669h-193l119 676l-332 735h207l245 -568l445 568h224z" />
    <glyph glyph-name="ycircumflex" unicode="&#x177;" horiz-adv-x="982" 
d="M645 1388l-192 -220h-127l265 296h135l162 -296h-129zM856 987h197l-832 -1452h-194l290 499l-214 953h199l141 -753z" />
    <glyph glyph-name="Ydieresis" unicode="&#x178;" horiz-adv-x="1173" 
d="M583 1555q-46 0 -73.5 33.5t-20.5 79.5q10 47 49 80t85 33t74 -33t19 -80q-7 -46 -47 -79.5t-86 -33.5zM959 1555q-46 0 -74 33t-20 80q10 47 49 80t85 33t73.5 -33t18.5 -80q-7 -46 -46.5 -79.5t-85.5 -33.5zM1308 1411l-598 -742l-117 -669h-193l119 676l-332 735h207
l245 -568l445 568h224z" />
    <glyph glyph-name="Zacute" unicode="&#x179;" horiz-adv-x="1201" 
d="M1129 1815l-270 -260h-129l312 333zM1261 1411l-25 -156l-974 -1083h805l-30 -172h-1043l26 155l977 1084h-782l30 172h1016z" />
    <glyph glyph-name="zacute" unicode="&#x17a;" horiz-adv-x="882" 
d="M897 1412l-271 -260h-129l312 333zM919 987l-655 -839h503l-26 -148h-792l652 839h-470l26 148h762z" />
    <glyph glyph-name="Zdotaccent" unicode="&#x17b;" horiz-adv-x="1201" 
d="M800 1555q-51 0 -81.5 36.5t-22.5 88.5q10 52 54 88t95 36t81 -36.5t20 -87.5q-7 -51 -51 -88t-95 -37zM1261 1411l-25 -156l-974 -1083h805l-30 -172h-1043l26 155l977 1084h-782l30 172h1016z" />
    <glyph glyph-name="zdotaccent" unicode="&#x17c;" horiz-adv-x="882" 
d="M591 1236q-51 0 -83.5 36.5t-27.5 88.5t46 88t93 36q51 0 84 -36.5t27 -87.5t-47 -88t-92 -37zM919 987l-655 -839h503l-26 -148h-792l652 839h-470l26 148h762z" />
    <glyph glyph-name="Zcaron" unicode="&#x17d;" horiz-adv-x="1201" 
d="M867 1555h-135l-162 296h128l115 -221l191 221h129zM1261 1411l-25 -156l-974 -1083h805l-30 -172h-1043l26 155l977 1084h-782l30 172h1016z" />
    <glyph glyph-name="zcaron" unicode="&#x17e;" horiz-adv-x="882" 
d="M638 1168h-135l-162 296h127l115 -221l192 221h129zM919 987l-655 -839h503l-26 -148h-792l652 839h-470l26 148h762z" />
    <glyph glyph-name="florin" unicode="&#x192;" horiz-adv-x="1003" 
d="M-10 -390l410 1223h-173l53 157h173l87 263q27 86 91 155.5t146.5 108.5t165.5 39q44 0 83.5 -12.5t57.5 -27.5l-32 -139q-30 31 -90 31q-82 0 -151.5 -54t-96.5 -138l-77 -226h285l-52 -157h-285l-412 -1223h-183z" />
    <glyph glyph-name="Ohorn" unicode="&#x1a0;" horiz-adv-x="1614" 
d="M1647 1488h115l-21 -118q-41 -233 -213 -233q-9 0 -31 2q64 -126 64 -286q0 -168 -59.5 -325t-165 -278.5t-264 -195t-342.5 -73.5q-271 0 -436 155.5t-165 423.5q0 134 37 261.5t109.5 237.5t171.5 193t232 130.5t282 47.5q285 0 451 -171l1 1q46 -28 96 -28
q51 0 78.5 36t41.5 114zM738 160q113 0 214.5 38t176.5 103.5t130.5 152t83.5 185.5t28 202q0 193 -115 301t-303 108q-113 0 -214.5 -37.5t-177.5 -103.5t-131.5 -152t-84 -185.5t-28.5 -201.5q0 -194 116 -302t305 -108z" />
    <glyph glyph-name="ohorn" unicode="&#x1a1;" horiz-adv-x="1162" 
d="M1190 1129h115l-21 -118q-41 -233 -213 -233q-12 0 -18 1q37 -83 37 -186q0 -117 -41.5 -226.5t-115.5 -195.5t-186.5 -138t-244.5 -52q-194 0 -312.5 111.5t-118.5 301.5q0 117 41 227t115 195.5t186 137.5t245 52q200 0 318 -116q38 -17 76 -17q51 0 78.5 36t41.5 114z
M506 133q90 0 167 40.5t127.5 105.5t79 145t28.5 161q0 124 -70 197t-187 73q-89 0 -166 -41t-126 -106.5t-77 -145.5t-28 -160q0 -124 68.5 -196.5t183.5 -72.5z" />
    <glyph glyph-name="Uhorn" unicode="&#x1af;" horiz-adv-x="1381" 
d="M1551 1540h115l-21 -118q-41 -233 -213 -233q-45 0 -99 19l-131 -745q-41 -229 -205 -355.5t-387 -126.5q-204 0 -328 104.5t-124 290.5q0 56 9 101l166 934h190l-162 -921q-9 -48 -9 -89q0 -124 71.5 -186t191.5 -62q149 0 260.5 91t141.5 259l161 908h191l-20 -115
q34 -12 64 -12q51 0 78.5 36t41.5 114z" />
    <glyph glyph-name="uhorn" unicode="&#x1b0;" horiz-adv-x="1104" 
d="M1226 1116h115l-21 -118q-41 -233 -213 -233q-52 0 -111 24l-140 -789h-175l20 139q-59 -75 -140.5 -116.5t-175.5 -41.5q-130 0 -206 70t-76 196q0 36 8 82l117 658h183l-111 -624q-6 -36 -6 -65q0 -82 44.5 -121t117.5 -39q107 0 186 68.5t100 188.5h1l104 592h184
l-19 -109q36 -18 76 -18q51 0 78.5 36t41.5 114z" />
    <glyph glyph-name="uni01CD" unicode="&#x1cd;" horiz-adv-x="1350" 
d="M928 1555h-135l-162 296h128l115 -221l191 221h129zM1026 0l-60 333h-635l-178 -333h-200l768 1411h229l272 -1411h-196zM421 500h515l-130 721z" />
    <glyph glyph-name="uni01CE" unicode="&#x1ce;" horiz-adv-x="1231" 
d="M802 1171h-135l-162 296h127l115 -221l192 221h129zM973 987h183l-174 -987h-171l21 176q-62 -92 -160.5 -144.5t-207.5 -52.5q-174 0 -283.5 112.5t-109.5 302.5q0 111 40.5 220.5t110.5 196.5t174.5 141t222.5 54q119 0 204.5 -57t116.5 -153zM512 138q86 0 162 41
t126 104.5t78.5 139t28.5 147.5q0 121 -70.5 200t-188.5 79q-86 0 -161 -39.5t-124.5 -102.5t-78 -141t-28.5 -156q0 -125 70.5 -198.5t185.5 -73.5z" />
    <glyph glyph-name="uni01CF" unicode="&#x1cf;" horiz-adv-x="592" 
d="M413 1555l-162 296h128l115 -221l191 221h129l-266 -296h-135zM113 0l249 1411h190l-248 -1411h-191z" />
    <glyph glyph-name="uni01D0" unicode="&#x1d0;" horiz-adv-x="513" 
d="M309 1171l-162 296h127l115 -221l192 221h129l-266 -296h-135zM72 0l176 990h192l-175 -990h-193z" />
    <glyph glyph-name="uni01D1" unicode="&#x1d1;" horiz-adv-x="1614" 
d="M927 1555l-162 296h128l115 -221l191 221h129l-266 -296h-135zM730 -19q-271 0 -436 155.5t-165 423.5q0 134 37 261.5t109.5 237.5t171.5 193t232 130.5t282 47.5q269 0 434.5 -155t165.5 -422q0 -168 -59.5 -325t-165 -278.5t-264 -195t-342.5 -73.5zM738 160
q113 0 214.5 38t176.5 103.5t130.5 152t83.5 185.5t28 202q0 193 -115 301t-303 108q-113 0 -214.5 -37.5t-177.5 -103.5t-131.5 -152t-84 -185.5t-28.5 -201.5q0 -194 116 -302t305 -108z" />
    <glyph glyph-name="uni01D2" unicode="&#x1d2;" horiz-adv-x="1162" 
d="M631 1168l-162 296h127l115 -221l192 221h129l-266 -296h-135zM502 -19q-194 0 -312.5 111.5t-118.5 301.5q0 117 41 227t115 195.5t186 137.5t245 52q195 0 313.5 -111.5t118.5 -301.5q0 -117 -41.5 -226.5t-115.5 -195.5t-186.5 -138t-244.5 -52zM506 133
q90 0 167 40.5t127.5 105.5t79 145t28.5 161q0 124 -70 197t-187 73q-89 0 -166 -41t-126 -106.5t-77 -145.5t-28 -160q0 -124 68.5 -196.5t183.5 -72.5z" />
    <glyph glyph-name="uni01D3" unicode="&#x1d3;" horiz-adv-x="1381" 
d="M806 1555l-162 296h128l115 -221l191 221h129l-266 -296h-135zM610 -19q-204 0 -328 104.5t-124 290.5q0 56 9 101l166 934h190l-162 -921q-9 -48 -9 -89q0 -124 71.5 -186t191.5 -62q149 0 260.5 91t141.5 259l161 908h191l-167 -948q-41 -229 -205 -355.5t-387 -126.5z
" />
    <glyph glyph-name="uni01D4" unicode="&#x1d4;" horiz-adv-x="1104" 
d="M741 1168h-135l-162 296h127l115 -221l192 221h129zM847 987h184l-175 -987h-175l20 139q-59 -75 -140.5 -116.5t-175.5 -41.5q-130 0 -206 70t-76 196q0 36 8 82l117 658h183l-111 -624q-6 -36 -6 -65q0 -82 44.5 -121t117.5 -39q107 0 186 68.5t100 188.5h1z" />
    <glyph glyph-name="uni01D5" unicode="&#x1d5;" horiz-adv-x="1381" 
d="M615 1925l21 121h650l-21 -121h-650zM687 1555q-46 0 -73.5 33.5t-20.5 79.5q10 47 49 80t85 33t74 -33t19 -80q-7 -46 -47 -79.5t-86 -33.5zM1063 1555q-46 0 -74 33t-20 80q10 47 49 80t85 33t73.5 -33t18.5 -80q-7 -46 -46.5 -79.5t-85.5 -33.5zM610 -19
q-204 0 -328 104.5t-124 290.5q0 56 9 101l166 934h190l-162 -921q-9 -48 -9 -89q0 -124 71.5 -186t191.5 -62q149 0 260.5 91t141.5 259l161 908h191l-167 -948q-41 -229 -205 -355.5t-387 -126.5z" />
    <glyph glyph-name="uni01D6" unicode="&#x1d6;" horiz-adv-x="1104" 
d="M459 1790h650l-22 -121h-649zM503 1236q-52 0 -85 36.5t-27 88.5q5 51 46.5 87.5t92.5 36.5q50 0 82.5 -36t28.5 -88q-6 -52 -47 -88.5t-91 -36.5zM1024 1361q-5 -51 -46 -88t-92 -37t-84.5 37t-27.5 88q5 51 46.5 87.5t92.5 36.5t83.5 -36.5t27.5 -87.5zM743 395
l104 592h184l-175 -987h-175l20 139q-59 -75 -140.5 -116.5t-175.5 -41.5q-130 0 -206 70t-76 196q0 36 8 82l117 658h183l-111 -624q-6 -36 -6 -65q0 -82 44.5 -121t117.5 -39q107 0 186 68.5t100 188.5h1z" />
    <glyph glyph-name="uni01D7" unicode="&#x1d7;" horiz-adv-x="1381" 
d="M870 1925l312 333l87 -73l-270 -260h-129zM687 1555q-46 0 -73.5 33.5t-20.5 79.5q10 47 49 80t85 33t74 -33t19 -80q-7 -46 -47 -79.5t-86 -33.5zM1063 1555q-46 0 -74 33t-20 80q10 47 49 80t85 33t73.5 -33t18.5 -80q-7 -46 -46.5 -79.5t-85.5 -33.5zM610 -19
q-204 0 -328 104.5t-124 290.5q0 56 9 101l166 934h190l-162 -921q-9 -48 -9 -89q0 -124 71.5 -186t191.5 -62q149 0 260.5 91t141.5 259l161 908h191l-167 -948q-41 -229 -205 -355.5t-387 -126.5z" />
    <glyph glyph-name="uni01D8" unicode="&#x1d8;" horiz-adv-x="1104" 
d="M1086 1903l-271 -260h-129l312 333zM503 1236q-52 0 -85 36.5t-27 88.5q5 51 46.5 87.5t92.5 36.5q50 0 82.5 -36t28.5 -88q-6 -52 -47 -88.5t-91 -36.5zM774 1361q5 51 46.5 87.5t92.5 36.5t83.5 -36.5t27.5 -87.5t-46 -88t-92 -37t-84.5 37t-27.5 88zM743 395l104 592
h184l-175 -987h-175l20 139q-59 -75 -140.5 -116.5t-175.5 -41.5q-130 0 -206 70t-76 196q0 36 8 82l117 658h183l-111 -624q-6 -36 -6 -65q0 -82 44.5 -121t117.5 -39q107 0 186 68.5t100 188.5h1z" />
    <glyph glyph-name="uni01D9" unicode="&#x1d9;" horiz-adv-x="1381" 
d="M872 1925l-162 296h128l115 -221l191 221h129l-266 -296h-135zM687 1555q-46 0 -73.5 33.5t-20.5 79.5q10 47 49 80t85 33t74 -33t19 -80q-7 -46 -47 -79.5t-86 -33.5zM1063 1555q-46 0 -74 33t-20 80q10 47 49 80t85 33t73.5 -33t18.5 -80q-7 -46 -46.5 -79.5
t-85.5 -33.5zM610 -19q-204 0 -328 104.5t-124 290.5q0 56 9 101l166 934h190l-162 -921q-9 -48 -9 -89q0 -124 71.5 -186t191.5 -62q149 0 260.5 91t141.5 259l161 908h191l-167 -948q-41 -229 -205 -355.5t-387 -126.5z" />
    <glyph glyph-name="uni01DA" unicode="&#x1da;" horiz-adv-x="1104" 
d="M827 1659h-135l-162 296h127l115 -221l192 221h129zM503 1236q-52 0 -85 36.5t-27 88.5q5 51 46.5 87.5t92.5 36.5q50 0 82.5 -36t28.5 -88q-6 -52 -47 -88.5t-91 -36.5zM774 1361q5 51 46.5 87.5t92.5 36.5t83.5 -36.5t27.5 -87.5t-46 -88t-92 -37t-84.5 37t-27.5 88z
M743 395l104 592h184l-175 -987h-175l20 139q-59 -75 -140.5 -116.5t-175.5 -41.5q-130 0 -206 70t-76 196q0 36 8 82l117 658h183l-111 -624q-6 -36 -6 -65q0 -82 44.5 -121t117.5 -39q107 0 186 68.5t100 188.5h1z" />
    <glyph glyph-name="uni01DB" unicode="&#x1db;" horiz-adv-x="1381" 
d="M876 1925l-179 260l114 73l194 -333h-129zM687 1555q-46 0 -73.5 33.5t-20.5 79.5q10 47 49 80t85 33t74 -33t19 -80q-7 -46 -47 -79.5t-86 -33.5zM1063 1555q-46 0 -74 33t-20 80q10 47 49 80t85 33t73.5 -33t18.5 -80q-7 -46 -46.5 -79.5t-85.5 -33.5zM610 -19
q-204 0 -328 104.5t-124 290.5q0 56 9 101l166 934h190l-162 -921q-9 -48 -9 -89q0 -124 71.5 -186t191.5 -62q149 0 260.5 91t141.5 259l161 908h191l-167 -948q-41 -229 -205 -355.5t-387 -126.5z" />
    <glyph glyph-name="uni01DC" unicode="&#x1dc;" horiz-adv-x="1104" 
d="M821 1643h-128l-179 260l113 73zM503 1236q-52 0 -85 36.5t-27 88.5q5 51 46.5 87.5t92.5 36.5q50 0 82.5 -36t28.5 -88q-6 -52 -47 -88.5t-91 -36.5zM774 1361q5 51 46.5 87.5t92.5 36.5t83.5 -36.5t27.5 -87.5t-46 -88t-92 -37t-84.5 37t-27.5 88zM847 987h184
l-175 -987h-175l20 139q-59 -75 -140.5 -116.5t-175.5 -41.5q-130 0 -206 70t-76 196q0 36 8 82l117 658h183l-111 -624q-6 -36 -6 -65q0 -82 44.5 -121t117.5 -39q107 0 186 68.5t100 188.5h1z" />
    <glyph glyph-name="Scommaaccent" unicode="&#x218;" horiz-adv-x="1244" 
d="M585 -19q-228 0 -372 103.5t-149 279.5l198 35q7 -118 98 -186.5t235 -68.5q150 0 245 67t95 179q0 49 -20.5 88.5t-41 62t-77.5 47.5t-80.5 32.5t-99.5 28.5l-9 3q-50 14 -82.5 24.5t-77.5 28.5t-73.5 36t-60.5 46t-50 59.5t-30 74.5t-12 94q0 119 67 214.5t184 148
t260 52.5q132 0 239 -36.5t178 -117.5t76 -196l-188 -37q-6 112 -90.5 168t-209.5 56q-138 0 -231.5 -68t-93.5 -167q0 -32 8.5 -59.5t20.5 -47t36.5 -37.5t43.5 -29t55.5 -24t58.5 -19.5t66 -18.5q55 -15 88.5 -25t84.5 -29t82 -37.5t68 -48.5t57.5 -63.5t34.5 -81
t14 -102.5q0 -133 -71.5 -231.5t-194 -148t-279.5 -49.5zM287 -561l-92 45l226 367h174z" />
    <glyph glyph-name="scommaaccent" unicode="&#x219;" horiz-adv-x="919" 
d="M390 -19q-166 0 -260.5 74t-94.5 205l171 35q-4 -84 48 -132t143 -48q94 0 157.5 48t63.5 133q0 27 -11 48.5t-25.5 35t-46.5 26.5t-56.5 20.5t-72.5 20.5q-61 16 -101 31.5t-81.5 42.5t-62 68.5t-20.5 97.5q0 149 109.5 233.5t276.5 84.5q147 0 240 -67t94 -197
l-159 -27q4 81 -46 120t-126 39q-89 0 -151.5 -47t-62.5 -125q0 -26 12 -46t25.5 -31.5t47 -24t50 -17t62.5 -15.5q51 -13 86 -24.5t75.5 -32.5t65.5 -46.5t41.5 -64t16.5 -87.5q0 -156 -115 -243.5t-293 -87.5zM128 -560l-92 45l226 367h174z" />
    <glyph glyph-name="uni021A" unicode="&#x21a;" horiz-adv-x="987" 
d="M1109 1411l-30 -172h-359l-219 -1239h-189l219 1239h-361l30 172h909zM66 -516l226 367h174l-308 -412z" />
    <glyph glyph-name="uni021B" unicode="&#x21b;" horiz-adv-x="684" 
d="M400 0q-108 0 -169.5 57t-61.5 158q0 32 7 64l100 563h-202l26 145h66q68 0 114.5 39t59.5 110l32 179h171l-58 -328h225l-26 -145h-225l-99 -557q-2 -15 -2 -39q0 -50 28 -75.5t79 -25.5h96l-26 -145h-135zM189 -561l-92 45l226 367h174z" />
    <glyph glyph-name="uni0237" unicode="&#x237;" horiz-adv-x="514" 
d="M-226 -463l26 160q134 0 188.5 66.5t88.5 261.5l171 965h194l-172 -979q-47 -262 -158 -368t-338 -106z" />
    <glyph glyph-name="circumflex" unicode="&#x2c6;" horiz-adv-x="675" 
d="M315 1240h-127l265 296h135l162 -296h-129l-114 220z" />
    <glyph glyph-name="caron" unicode="&#x2c7;" horiz-adv-x="683" 
d="M405 1240l-162 296h127l115 -221l192 221h129l-266 -296h-135z" />
    <glyph glyph-name="breve" unicode="&#x2d8;" horiz-adv-x="880" 
d="M564 1213q-152 0 -232.5 87t-53.5 236h117q-17 -98 35.5 -161.5t150.5 -63.5q100 0 175.5 63.5t92.5 161.5h116q-26 -149 -137 -236t-264 -87z" />
    <glyph glyph-name="dotaccent" unicode="&#x2d9;" horiz-adv-x="502" 
d="M390 1239q-51 0 -83.5 36.5t-27.5 88.5t46 88t93 36q51 0 84 -36.5t27 -87.5t-47 -88t-92 -37z" />
    <glyph glyph-name="ring" unicode="&#x2da;" horiz-adv-x="646" 
d="M444 1154q-89 0 -145.5 63.5t-48.5 151.5q11 89 81 151.5t159 62.5q88 0 143.5 -63t45.5 -151q-8 -88 -77.5 -151.5t-157.5 -63.5zM455 1245q52 0 91 35.5t44 88.5q6 52 -26 89.5t-83 37.5q-53 0 -92.5 -37.5t-45.5 -89.5q-5 -54 27 -89t85 -35z" />
    <glyph glyph-name="ogonek" unicode="&#x2db;" horiz-adv-x="497" 
d="M91 -393q-86 0 -128 25.5t-34 71.5q18 105 285 324l59 -28q-129 -111 -171 -162q-33 -40 -37 -65q-8 -41 65 -41q55 0 102 31l-24 -136q-54 -20 -117 -20z" />
    <glyph glyph-name="tilde" unicode="&#x2dc;" horiz-adv-x="855" 
d="M666 1147q-103 0 -150 97q-21 50 -66 50q-40 0 -69 -37t-39 -96h-104q18 103 80 168.5t146 65.5q104 0 146 -98q21 -48 71 -48q40 0 67.5 35.5t38.5 95.5h104q-18 -102 -79 -167.5t-146 -65.5z" />
    <glyph glyph-name="hungarumlaut" unicode="&#x2dd;" horiz-adv-x="823" 
d="M160 1224l312 333l88 -73l-271 -260h-129zM523 1224l312 333l88 -73l-272 -260h-128z" />
    <glyph glyph-name="gravecomb" unicode="&#x300;" 
d="M-45 1224l-179 260l113 73l194 -333h-128z" />
    <glyph glyph-name="acutecomb" unicode="&#x301;" 
d="M-288 1224l312 333l88 -73l-271 -260h-129z" />
    <glyph glyph-name="uni0302" unicode="&#x302;" 
d="M-360 1240h-127l265 296h135l162 -296h-129l-114 220z" />
    <glyph glyph-name="tildecomb" unicode="&#x303;" 
d="M-189 1147q-103 0 -150 97q-21 50 -66 50q-40 0 -69 -37t-39 -96h-104q18 103 80 168.5t146 65.5q104 0 146 -98q21 -48 71 -48q40 0 67.5 35.5t38.5 95.5h104q-18 -102 -79 -167.5t-146 -65.5z" />
    <glyph glyph-name="uni0304" unicode="&#x304;" 
d="M-671 1250l21 121h650l-22 -121h-649z" />
    <glyph glyph-name="uni0306" unicode="&#x306;" 
d="M-316 1213q-152 0 -232.5 87t-53.5 236h117q-17 -98 35.5 -161.5t150.5 -63.5q100 0 175.5 63.5t92.5 161.5h116q-26 -149 -137 -236t-264 -87z" />
    <glyph glyph-name="uni0307" unicode="&#x307;" 
d="M-111 1239q-51 0 -83.5 36.5t-27.5 88.5t46 88t93 36q51 0 84 -36.5t27 -87.5t-47 -88t-92 -37z" />
    <glyph glyph-name="uni0308" unicode="&#x308;" 
d="M-493 1239q-52 0 -85 36.5t-27 88.5q5 51 46.5 87.5t92.5 36.5q50 0 82.5 -36t28.5 -88q-6 -52 -47 -88.5t-91 -36.5zM-110 1239q-51 0 -84.5 37t-27.5 88q5 51 46.5 87.5t92.5 36.5t83.5 -36.5t27.5 -87.5t-46 -88t-92 -37z" />
    <glyph glyph-name="hookabovecomb" unicode="&#x309;" 
d="M-212 1153l22 122q121 24 136 107q6 36 -12 59.5t-58 23.5q-46 0 -91 -33l-42 74q72 50 153 50q83 0 126.5 -47t30.5 -122q-21 -116 -156 -157l-15 -77h-94z" />
    <glyph glyph-name="uni030A" unicode="&#x30a;" 
d="M-191 1154q-89 0 -145.5 63.5t-48.5 151.5q11 89 81 151.5t159 62.5q88 0 143.5 -63t45.5 -151q-8 -88 -77.5 -151.5t-157.5 -63.5zM-180 1245q52 0 91 35.5t44 88.5q6 52 -26 89.5t-83 37.5q-53 0 -92.5 -37.5t-45.5 -89.5q-5 -54 27 -89t85 -35z" />
    <glyph glyph-name="uni030B" unicode="&#x30b;" 
d="M-651 1224l312 333l88 -73l-271 -260h-129zM-288 1224l312 333l88 -73l-272 -260h-128z" />
    <glyph glyph-name="uni030C" unicode="&#x30c;" 
d="M-278 1240l-162 296h127l115 -221l192 221h129l-266 -296h-135z" />
    <glyph glyph-name="uni0312" unicode="&#x312;" 
d="M131 1529l-289 -310h-203l349 310h143z" />
    <glyph glyph-name="uni031B" unicode="&#x31b;" 
d="M-257 785q-90 0 -172 57l57 66q46 -28 96 -28q51 0 78.5 36t41.5 114l18 106h115l-21 -118q-41 -233 -213 -233z" />
    <glyph glyph-name="dotbelowcomb" unicode="&#x323;" 
d="M-427 -512q-52 0 -82.5 36.5t-21.5 88.5q9 51 52 87.5t95 36.5q51 0 81.5 -36.5t20.5 -87.5q-8 -52 -51 -88.5t-94 -36.5z" />
    <glyph glyph-name="uni0326" unicode="&#x326;" 
d="M-477 -561l-92 45l226 367h174z" />
    <glyph glyph-name="uni0327" unicode="&#x327;" 
d="M-470 -532q-74 0 -133.5 38.5t-79.5 95.5l99 37q16 -32 52.5 -52.5t75.5 -20.5q48 0 87 32.5t48 82.5q9 51 -19 80.5t-81 29.5q-41 0 -84 -23l-70 51l151 220h101l-118 -174q44 7 55 7q86 0 132.5 -53.5t32.5 -137.5q-16 -90 -87.5 -151.5t-161.5 -61.5z" />
    <glyph glyph-name="uni0328" unicode="&#x328;" 
d="M-394 -393q-86 0 -128 25.5t-34 71.5q18 105 285 324l59 -28q-129 -111 -171 -162q-33 -40 -37 -65q-8 -41 65 -41q55 0 102 31l-24 -136q-54 -20 -117 -20z" />
    <glyph glyph-name="uni0335" unicode="&#x335;" 
d="M-781 466l22 125h620l-22 -125h-620z" />
    <glyph glyph-name="uni0336" unicode="&#x336;" 
d="M-1632 485l17 95h1474l-17 -95h-1474z" />
    <glyph glyph-name="uni0337" unicode="&#x337;" 
d="M-644 270l25 137l629 416l-24 -138z" />
    <glyph glyph-name="uni0338" unicode="&#x338;" 
d="M-758 211l811 1163l90 -55l-810 -1162z" />
    <glyph glyph-name="uni0394" unicode="&#x394;" horiz-adv-x="1518" 
d="M1047 1536l345 -1536h-1442l888 1536h209zM258 179h896l-245 1147z" />
    <glyph glyph-name="uni03A9" unicode="&#x3a9;" horiz-adv-x="1793" 
d="M1709 937q0 -211 -122.5 -428.5t-315.5 -342.5h358l-29 -166h-629l18 138q149 72 265.5 202.5t178.5 285.5t62 307q0 92 -26 171.5t-77 141.5t-133 97.5t-186 35.5q-123 0 -232 -44.5t-187.5 -119.5t-136 -172t-86 -203t-28.5 -212q0 -174 74 -304t190 -193l-18 -131
h-631l29 166h362l7 8q-92 76 -155.5 210t-63.5 298q0 104 27.5 208.5t79 201t129.5 179.5t173 144.5t216 97t253 35.5q154 0 277.5 -51t200 -137t116.5 -194t40 -229z" />
    <glyph glyph-name="uni03BC" unicode="&#x3bc;" horiz-adv-x="1191" 
d="M926 990h192l-175 -990h-191l22 126q-64 -68 -145.5 -106t-167.5 -38q-141 0 -234 91l-91 -519h-143l253 1436h193l-106 -603q-5 -21 -5 -47q0 -83 52.5 -136.5t135.5 -53.5q104 0 192 69t112 167z" />
    <glyph glyph-name="pi" unicode="&#x3c0;" horiz-adv-x="1242" 
d="M53 1q79 144 167 393.5t136 449.5q-171 -1 -250 -29l-11 126q90 49 324 49h891l-42 -147h-174l-95 -561q-34 -204 -22 -283l-170 2q-10 27 -10 79q0 72 22 199l95 564h-389q-46 -207 -133 -468t-161 -376z" />
    <glyph glyph-name="Wgrave" unicode="&#x1e80;" horiz-adv-x="2022" 
d="M1132 1555l-179 260l114 73l194 -333h-129zM365 0l-152 1411h194l123 -1154l555 1154h168l141 -1154l538 1154h200l-649 -1411h-227l-143 1066l-521 -1066h-227z" />
    <glyph glyph-name="wgrave" unicode="&#x1e81;" horiz-adv-x="1585" 
d="M978 1152h-128l-179 260l113 73zM1455 987h195l-515 -988h-167l-131 750l-397 -750h-168l-162 988h190l108 -745l396 745h142l133 -746z" />
    <glyph glyph-name="Wacute" unicode="&#x1e82;" horiz-adv-x="2022" 
d="M1126 1555l312 333l87 -73l-270 -260h-129zM365 0l-152 1411h194l123 -1154l555 1154h168l141 -1154l538 1154h200l-649 -1411h-227l-143 1066l-521 -1066h-227z" />
    <glyph glyph-name="wacute" unicode="&#x1e83;" horiz-adv-x="1585" 
d="M1243 1412l-271 -260h-129l312 333zM1455 987h195l-515 -988h-167l-131 750l-397 -750h-168l-162 988h190l108 -745l396 745h142l133 -746z" />
    <glyph glyph-name="Wdieresis" unicode="&#x1e84;" horiz-adv-x="2022" 
d="M1009 1555q-46 0 -73.5 33.5t-20.5 79.5q10 47 49 80t85 33t74 -33t19 -80q-7 -46 -47 -79.5t-86 -33.5zM1385 1555q-46 0 -74 33t-20 80q10 47 49 80t85 33t73.5 -33t18.5 -80q-7 -46 -46.5 -79.5t-85.5 -33.5zM365 0l-152 1411h194l123 -1154l555 1154h168l141 -1154
l538 1154h200l-649 -1411h-227l-143 1066l-521 -1066h-227z" />
    <glyph glyph-name="wdieresis" unicode="&#x1e85;" horiz-adv-x="1585" 
d="M746 1236q-52 0 -85 36.5t-27 88.5q5 51 46.5 87.5t92.5 36.5q50 0 82.5 -36t28.5 -88q-6 -52 -47 -88.5t-91 -36.5zM1129 1236q-51 0 -84.5 37t-27.5 88q5 51 46.5 87.5t92.5 36.5t83.5 -36.5t27.5 -87.5t-46 -88t-92 -37zM1455 987h195l-515 -988h-167l-131 750
l-397 -750h-168l-162 988h190l108 -745l396 745h142l133 -746z" />
    <glyph glyph-name="uni1EA0" unicode="&#x1ea0;" horiz-adv-x="1350" 
d="M1222 0h-196l-60 333h-635l-178 -333h-200l768 1411h229zM421 500h515l-130 721zM542 -263q51 0 81.5 -36.5t20.5 -87.5q-8 -52 -51 -88.5t-94 -36.5q-52 0 -82.5 36.5t-21.5 88.5q9 51 52 87.5t95 36.5z" />
    <glyph glyph-name="uni1EA1" unicode="&#x1ea1;" horiz-adv-x="1231" 
d="M973 987h183l-174 -987h-171l21 176q-62 -92 -160.5 -144.5t-207.5 -52.5q-174 0 -283.5 112.5t-109.5 302.5q0 111 40.5 220.5t110.5 196.5t174.5 141t222.5 54q119 0 204.5 -57t116.5 -153zM512 138q86 0 162 41t126 104.5t78.5 139t28.5 147.5q0 121 -70.5 200
t-188.5 79q-86 0 -161 -39.5t-124.5 -102.5t-78 -141t-28.5 -156q0 -125 70.5 -198.5t185.5 -73.5zM465 -263q51 0 81.5 -36.5t20.5 -87.5q-8 -52 -51 -88.5t-94 -36.5q-52 0 -82.5 36.5t-21.5 88.5q9 51 52 87.5t95 36.5z" />
    <glyph glyph-name="uni1EA2" unicode="&#x1ea2;" horiz-adv-x="1350" 
d="M900 1845q-46 0 -91 -33l-42 74q72 51 153 51q83 0 126.5 -47.5t30.5 -122.5q-21 -118 -158 -156l-13 -78h-94l22 122q121 24 136 108q5 35 -13 58.5t-57 23.5zM1026 0l-60 333h-635l-178 -333h-200l768 1411h229l272 -1411h-196zM421 500h515l-130 721z" />
    <glyph glyph-name="uni1EA3" unicode="&#x1ea3;" horiz-adv-x="1231" 
d="M762 1396q-46 0 -91 -33l-42 74q72 50 153 50q83 0 126.5 -47t30.5 -122q-21 -116 -156 -157l-15 -77h-94l22 122q121 24 136 107q6 36 -12 59.5t-58 23.5zM973 987h183l-174 -987h-171l21 176q-62 -92 -160.5 -144.5t-207.5 -52.5q-174 0 -283.5 112.5t-109.5 302.5
q0 111 40.5 220.5t110.5 196.5t174.5 141t222.5 54q119 0 204.5 -57t116.5 -153zM512 138q86 0 162 41t126 104.5t78.5 139t28.5 147.5q0 121 -70.5 200t-188.5 79q-86 0 -161 -39.5t-124.5 -102.5t-78 -141t-28.5 -156q0 -125 70.5 -198.5t185.5 -73.5z" />
    <glyph glyph-name="uni1EA4" unicode="&#x1ea4;" horiz-adv-x="1350" 
d="M1267 2255l-270 -260h-129l312 333zM898 1775l-191 -220h-128l266 296h135l162 -296h-129zM721 1411h229l272 -1411h-196l-60 333h-635l-178 -333h-200zM421 500h515l-130 721z" />
    <glyph glyph-name="uni1EA5" unicode="&#x1ea5;" horiz-adv-x="1231" 
d="M1143 1892l-271 -260h-129l312 333zM772 1391l-192 -220h-127l265 296h135l162 -296h-129zM973 987h183l-174 -987h-171l21 176q-62 -92 -160.5 -144.5t-207.5 -52.5q-174 0 -283.5 112.5t-109.5 302.5q0 111 40.5 220.5t110.5 196.5t174.5 141t222.5 54q119 0 204.5 -57
t116.5 -153zM512 138q86 0 162 41t126 104.5t78.5 139t28.5 147.5q0 121 -70.5 200t-188.5 79q-86 0 -161 -39.5t-124.5 -102.5t-78 -141t-28.5 -156q0 -125 70.5 -198.5t185.5 -73.5z" />
    <glyph glyph-name="uni1EA6" unicode="&#x1ea6;" horiz-adv-x="1350" 
d="M1003 1995h-129l-179 260l114 73zM898 1775l-191 -220h-128l266 296h135l162 -296h-129zM1026 0l-60 333h-635l-178 -333h-200l768 1411h229l272 -1411h-196zM421 500h515l-130 721z" />
    <glyph glyph-name="uni1EA7" unicode="&#x1ea7;" horiz-adv-x="1231" 
d="M878 1632h-128l-179 260l113 73zM772 1391l-192 -220h-127l265 296h135l162 -296h-129zM973 987h183l-174 -987h-171l21 176q-62 -92 -160.5 -144.5t-207.5 -52.5q-174 0 -283.5 112.5t-109.5 302.5q0 111 40.5 220.5t110.5 196.5t174.5 141t222.5 54q119 0 204.5 -57
t116.5 -153zM512 138q86 0 162 41t126 104.5t78.5 139t28.5 147.5q0 121 -70.5 200t-188.5 79q-86 0 -161 -39.5t-124.5 -102.5t-78 -141t-28.5 -156q0 -125 70.5 -198.5t185.5 -73.5z" />
    <glyph glyph-name="uni1EA8" unicode="&#x1ea8;" horiz-adv-x="1350" 
d="M977 2285q-46 0 -91 -33l-42 74q72 51 153 51q83 0 126.5 -47.5t30.5 -122.5q-21 -118 -158 -156l-13 -78h-94l22 122q121 24 136 108q5 35 -13 58.5t-57 23.5zM898 1775l-191 -220h-128l266 296h135l162 -296h-129zM1026 0l-60 333h-635l-178 -333h-200l768 1411h229
l272 -1411h-196zM421 500h515l-130 721z" />
    <glyph glyph-name="uni1EA9" unicode="&#x1ea9;" horiz-adv-x="1231" 
d="M844 1873q-46 0 -91 -33l-42 74q72 50 153 50q83 0 126.5 -47t30.5 -122q-21 -116 -156 -157l-15 -77h-94l22 122q121 24 136 107q6 36 -12 59.5t-58 23.5zM772 1391l-192 -220h-127l265 296h135l162 -296h-129zM973 987h183l-174 -987h-171l21 176
q-62 -92 -160.5 -144.5t-207.5 -52.5q-174 0 -283.5 112.5t-109.5 302.5q0 111 40.5 220.5t110.5 196.5t174.5 141t222.5 54q119 0 204.5 -57t116.5 -153zM512 138q86 0 162 41t126 104.5t78.5 139t28.5 147.5q0 121 -70.5 200t-188.5 79q-86 0 -161 -39.5t-124.5 -102.5
t-78 -141t-28.5 -156q0 -125 70.5 -198.5t185.5 -73.5z" />
    <glyph glyph-name="uni1EAA" unicode="&#x1eaa;" horiz-adv-x="1350" 
d="M1234 2244h106q-21 -114 -89.5 -187t-164.5 -73q-118 0 -168 112q-27 61 -85 61q-48 0 -84.5 -44t-49.5 -113h-105q20 115 90.5 188t163.5 73q115 0 167 -112q26 -59 87 -59q49 0 84 41.5t48 112.5zM1013 1555l-115 220l-191 -220h-128l266 296h135l162 -296h-129z
M721 1411h229l272 -1411h-196l-60 333h-635l-178 -333h-200zM421 500h515l-130 721z" />
    <glyph glyph-name="uni1EAB" unicode="&#x1eab;" horiz-adv-x="1231" 
d="M726 1771q-40 0 -69 -37t-39 -96h-104q18 103 80 168.5t146 65.5q104 0 146 -98q21 -48 71 -48q40 0 67.5 35.5t38.5 95.5h104q-18 -102 -79 -167.5t-146 -65.5q-103 0 -150 97q-21 50 -66 50zM772 1391l-192 -220h-127l265 296h135l162 -296h-129zM940 796l33 191h183
l-174 -987h-171l21 176q-62 -92 -160.5 -144.5t-207.5 -52.5q-174 0 -283.5 112.5t-109.5 302.5q0 111 40.5 220.5t110.5 196.5t174.5 141t222.5 54q119 0 204.5 -57t116.5 -153zM512 138q86 0 162 41t126 104.5t78.5 139t28.5 147.5q0 121 -70.5 200t-188.5 79
q-86 0 -161 -39.5t-124.5 -102.5t-78 -141t-28.5 -156q0 -125 70.5 -198.5t185.5 -73.5z" />
    <glyph glyph-name="uni1EAC" unicode="&#x1eac;" horiz-adv-x="1350" 
d="M898 1775l-191 -220h-128l266 296h135l162 -296h-129zM1222 0h-196l-60 333h-635l-178 -333h-200l768 1411h229zM421 500h515l-130 721zM542 -263q51 0 81.5 -36.5t20.5 -87.5q-8 -52 -51 -88.5t-94 -36.5q-52 0 -82.5 36.5t-21.5 88.5q9 51 52 87.5t95 36.5z" />
    <glyph glyph-name="uni1EAD" unicode="&#x1ead;" horiz-adv-x="1231" 
d="M772 1391l-192 -220h-127l265 296h135l162 -296h-129zM973 987h183l-174 -987h-171l21 176q-62 -92 -160.5 -144.5t-207.5 -52.5q-174 0 -283.5 112.5t-109.5 302.5q0 111 40.5 220.5t110.5 196.5t174.5 141t222.5 54q119 0 204.5 -57t116.5 -153zM512 138q86 0 162 41
t126 104.5t78.5 139t28.5 147.5q0 121 -70.5 200t-188.5 79q-86 0 -161 -39.5t-124.5 -102.5t-78 -141t-28.5 -156q0 -125 70.5 -198.5t185.5 -73.5zM465 -263q51 0 81.5 -36.5t20.5 -87.5q-8 -52 -51 -88.5t-94 -36.5q-52 0 -82.5 36.5t-21.5 88.5q9 51 52 87.5t95 36.5z
" />
    <glyph glyph-name="uni1EAE" unicode="&#x1eae;" horiz-adv-x="1350" 
d="M1265 2233l-270 -260h-129l312 333zM878 1653q105 0 174 43.5t85 132.5h117q-25 -139 -130 -206.5t-264 -67.5q-157 0 -238 67.5t-56 206.5h117q-17 -88 37 -132t158 -44zM721 1411h229l272 -1411h-196l-60 333h-635l-178 -333h-200zM421 500h515l-130 721z" />
    <glyph glyph-name="uni1EAF" unicode="&#x1eaf;" horiz-adv-x="1231" 
d="M1145 1892l-271 -260h-129l312 333zM729 1144q-152 0 -232.5 87t-53.5 236h117q-17 -98 35.5 -161.5t150.5 -63.5q100 0 175.5 63.5t92.5 161.5h116q-26 -149 -137 -236t-264 -87zM973 987h183l-174 -987h-171l21 176q-62 -92 -160.5 -144.5t-207.5 -52.5
q-174 0 -283.5 112.5t-109.5 302.5q0 111 40.5 220.5t110.5 196.5t174.5 141t222.5 54q119 0 204.5 -57t116.5 -153zM512 138q86 0 162 41t126 104.5t78.5 139t28.5 147.5q0 121 -70.5 200t-188.5 79q-86 0 -161 -39.5t-124.5 -102.5t-78 -141t-28.5 -156
q0 -125 70.5 -198.5t185.5 -73.5z" />
    <glyph glyph-name="uni1EB0" unicode="&#x1eb0;" horiz-adv-x="1350" 
d="M1001 1973h-129l-179 260l114 73zM860 1555q-157 0 -238 67.5t-56 206.5h117q-17 -88 37 -132t158 -44q105 0 174 43.5t85 132.5h117q-25 -139 -130 -206.5t-264 -67.5zM721 1411h229l272 -1411h-196l-60 333h-635l-178 -333h-200zM421 500h515l-130 721z" />
    <glyph glyph-name="uni1EB1" unicode="&#x1eb1;" horiz-adv-x="1231" 
d="M880 1632h-128l-179 260l113 73zM729 1144q-152 0 -232.5 87t-53.5 236h117q-17 -98 35.5 -161.5t150.5 -63.5q100 0 175.5 63.5t92.5 161.5h116q-26 -149 -137 -236t-264 -87zM973 987h183l-174 -987h-171l21 176q-62 -92 -160.5 -144.5t-207.5 -52.5
q-174 0 -283.5 112.5t-109.5 302.5q0 111 40.5 220.5t110.5 196.5t174.5 141t222.5 54q119 0 204.5 -57t116.5 -153zM512 138q86 0 162 41t126 104.5t78.5 139t28.5 147.5q0 121 -70.5 200t-188.5 79q-86 0 -161 -39.5t-124.5 -102.5t-78 -141t-28.5 -156
q0 -125 70.5 -198.5t185.5 -73.5z" />
    <glyph glyph-name="uni1EB2" unicode="&#x1eb2;" horiz-adv-x="1350" 
d="M975 2263q-46 0 -91 -33l-42 74q72 51 153 51q83 0 126.5 -47.5t30.5 -122.5q-21 -118 -158 -156l-13 -78h-94l22 122q121 24 136 108q5 35 -13 58.5t-57 23.5zM860 1555q-157 0 -238 67.5t-56 206.5h117q-17 -88 37 -132t158 -44q105 0 174 43.5t85 132.5h117
q-25 -139 -130 -206.5t-264 -67.5zM721 1411h229l272 -1411h-196l-60 333h-635l-178 -333h-200zM421 500h515l-130 721z" />
    <glyph glyph-name="uni1EB3" unicode="&#x1eb3;" horiz-adv-x="1231" 
d="M846 1873q-46 0 -91 -33l-42 74q72 50 153 50q83 0 126.5 -47t30.5 -122q-21 -116 -156 -157l-15 -77h-94l22 122q121 24 136 107q6 36 -12 59.5t-58 23.5zM729 1144q-152 0 -232.5 87t-53.5 236h117q-17 -98 35.5 -161.5t150.5 -63.5q100 0 175.5 63.5t92.5 161.5h116
q-26 -149 -137 -236t-264 -87zM973 987h183l-174 -987h-171l21 176q-62 -92 -160.5 -144.5t-207.5 -52.5q-174 0 -283.5 112.5t-109.5 302.5q0 111 40.5 220.5t110.5 196.5t174.5 141t222.5 54q119 0 204.5 -57t116.5 -153zM512 138q86 0 162 41t126 104.5t78.5 139
t28.5 147.5q0 121 -70.5 200t-188.5 79q-86 0 -161 -39.5t-124.5 -102.5t-78 -141t-28.5 -156q0 -125 70.5 -198.5t185.5 -73.5z" />
    <glyph glyph-name="uni1EB4" unicode="&#x1eb4;" horiz-adv-x="1350" 
d="M831 2135q-48 0 -84.5 -44t-49.5 -113h-105q20 115 90.5 188t163.5 73q115 0 167 -112q26 -59 87 -59q49 0 84 41.5t48 112.5h106q-21 -114 -89.5 -187t-164.5 -73q-118 0 -168 112q-27 61 -85 61zM878 1653q105 0 174 43.5t85 132.5h117q-25 -139 -130 -206.5
t-264 -67.5q-157 0 -238 67.5t-56 206.5h117q-17 -88 37 -132t158 -44zM721 1411h229l272 -1411h-196l-60 333h-635l-178 -333h-200zM421 500h515l-130 721z" />
    <glyph glyph-name="uni1EB5" unicode="&#x1eb5;" horiz-adv-x="1231" 
d="M728 1771q-40 0 -69 -37t-39 -96h-104q18 103 80 168.5t146 65.5q104 0 146 -98q21 -48 71 -48q40 0 67.5 35.5t38.5 95.5h104q-18 -102 -79 -167.5t-146 -65.5q-103 0 -150 97q-21 50 -66 50zM729 1144q-152 0 -232.5 87t-53.5 236h117q-17 -98 35.5 -161.5t150.5 -63.5
q100 0 175.5 63.5t92.5 161.5h116q-26 -149 -137 -236t-264 -87zM940 796l33 191h183l-174 -987h-171l21 176q-62 -92 -160.5 -144.5t-207.5 -52.5q-174 0 -283.5 112.5t-109.5 302.5q0 111 40.5 220.5t110.5 196.5t174.5 141t222.5 54q119 0 204.5 -57t116.5 -153zM512 138
q86 0 162 41t126 104.5t78.5 139t28.5 147.5q0 121 -70.5 200t-188.5 79q-86 0 -161 -39.5t-124.5 -102.5t-78 -141t-28.5 -156q0 -125 70.5 -198.5t185.5 -73.5z" />
    <glyph glyph-name="uni1EB6" unicode="&#x1eb6;" horiz-adv-x="1350" 
d="M860 1555q-157 0 -238 67.5t-56 206.5h117q-17 -88 37 -132t158 -44q105 0 174 43.5t85 132.5h117q-25 -139 -130 -206.5t-264 -67.5zM721 1411h229l272 -1411h-196l-60 333h-635l-178 -333h-200zM421 500h515l-130 721zM542 -263q51 0 81.5 -36.5t20.5 -87.5
q-8 -52 -51 -88.5t-94 -36.5q-52 0 -82.5 36.5t-21.5 88.5q9 51 52 87.5t95 36.5z" />
    <glyph glyph-name="uni1EB7" unicode="&#x1eb7;" horiz-adv-x="1231" 
d="M729 1144q-152 0 -232.5 87t-53.5 236h117q-17 -98 35.5 -161.5t150.5 -63.5q100 0 175.5 63.5t92.5 161.5h116q-26 -149 -137 -236t-264 -87zM973 987h183l-174 -987h-171l21 176q-62 -92 -160.5 -144.5t-207.5 -52.5q-174 0 -283.5 112.5t-109.5 302.5
q0 111 40.5 220.5t110.5 196.5t174.5 141t222.5 54q119 0 204.5 -57t116.5 -153zM512 138q86 0 162 41t126 104.5t78.5 139t28.5 147.5q0 121 -70.5 200t-188.5 79q-86 0 -161 -39.5t-124.5 -102.5t-78 -141t-28.5 -156q0 -125 70.5 -198.5t185.5 -73.5zM465 -263
q51 0 81.5 -36.5t20.5 -87.5q-8 -52 -51 -88.5t-94 -36.5q-52 0 -82.5 36.5t-21.5 88.5q9 51 52 87.5t95 36.5z" />
    <glyph glyph-name="uni1EB8" unicode="&#x1eb8;" horiz-adv-x="1070" 
d="M1095 1239h-568l-79 -449h500l-30 -170h-500l-79 -448h568l-31 -172h-763l249 1411h763zM452 -263q51 0 81.5 -36.5t20.5 -87.5q-8 -52 -51 -88.5t-94 -36.5q-52 0 -82.5 36.5t-21.5 88.5q9 51 52 87.5t95 36.5z" />
    <glyph glyph-name="uni1EB9" unicode="&#x1eb9;" horiz-adv-x="1109" 
d="M647 1007q182 0 289 -97.5t107 -281.5q0 -68 -11 -121l-10 -44h-771q-5 -45 -5 -80q0 -123 69.5 -186.5t182.5 -63.5q91 0 173.5 48t137.5 130l162 -44q-76 -135 -202.5 -210.5t-271.5 -75.5q-196 0 -310.5 107t-114.5 298q0 95 24.5 185.5t73.5 169.5t117 138.5
t161 93.5t199 34zM646 869q-133 0 -226 -76t-138 -199h584q4 27 4 55q0 109 -60.5 164.5t-163.5 55.5zM449 -264q51 0 81.5 -36.5t20.5 -87.5q-8 -52 -51 -88.5t-94 -36.5q-52 0 -82.5 36.5t-21.5 88.5q9 51 52 87.5t95 36.5z" />
    <glyph glyph-name="uni1EBA" unicode="&#x1eba;" horiz-adv-x="1070" 
d="M811 1845q-46 0 -91 -33l-42 74q72 51 153 51q83 0 126.5 -47.5t30.5 -122.5q-21 -118 -158 -156l-13 -78h-94l22 122q121 24 136 108q5 35 -13 58.5t-57 23.5zM1095 1239h-568l-79 -449h500l-30 -170h-500l-79 -448h568l-31 -172h-763l249 1411h763z" />
    <glyph glyph-name="uni1EBB" unicode="&#x1ebb;" horiz-adv-x="1109" 
d="M722 1397q-46 0 -91 -33l-42 74q72 50 153 50q83 0 126.5 -47t30.5 -122q-21 -116 -156 -157l-15 -77h-94l22 122q121 24 136 107q6 36 -12 59.5t-58 23.5zM647 1007q182 0 289 -97.5t107 -281.5q0 -68 -11 -121l-10 -44h-771q-5 -45 -5 -80q0 -123 69.5 -186.5
t182.5 -63.5q91 0 173.5 48t137.5 130l162 -44q-76 -135 -202.5 -210.5t-271.5 -75.5q-196 0 -310.5 107t-114.5 298q0 95 24.5 185.5t73.5 169.5t117 138.5t161 93.5t199 34zM646 869q-133 0 -226 -76t-138 -199h584q4 27 4 55q0 109 -60.5 164.5t-163.5 55.5z" />
    <glyph glyph-name="uni1EBC" unicode="&#x1ebc;" horiz-adv-x="1070" 
d="M667 1717q-48 0 -84.5 -44t-49.5 -113h-105q20 115 90.5 188t163.5 73q115 0 167 -112q26 -59 87 -59q49 0 84 41.5t48 112.5h106q-21 -114 -89.5 -187t-164.5 -73q-118 0 -168 112q-27 61 -85 61zM113 0l249 1411h763l-30 -172h-568l-79 -449h500l-30 -170h-500
l-79 -448h568l-31 -172h-763z" />
    <glyph glyph-name="uni1EBD" unicode="&#x1ebd;" horiz-adv-x="1109" 
d="M604 1295q-40 0 -69 -37t-39 -96h-104q18 103 80 168.5t146 65.5q104 0 146 -98q21 -48 71 -48q40 0 67.5 35.5t38.5 95.5h104q-18 -102 -79 -167.5t-146 -65.5q-103 0 -150 97q-21 50 -66 50zM647 1007q182 0 289 -97.5t107 -281.5q0 -68 -11 -121l-10 -44h-771
q-5 -45 -5 -80q0 -123 69.5 -186.5t182.5 -63.5q91 0 173.5 48t137.5 130l162 -44q-76 -135 -202.5 -210.5t-271.5 -75.5q-196 0 -310.5 107t-114.5 298q0 95 24.5 185.5t73.5 169.5t117 138.5t161 93.5t199 34zM646 869q-133 0 -226 -76t-138 -199h584q4 27 4 55
q0 109 -60.5 164.5t-163.5 55.5z" />
    <glyph glyph-name="uni1EBE" unicode="&#x1ebe;" horiz-adv-x="1070" 
d="M1178 2255l-270 -260h-129l312 333zM809 1775l-191 -220h-128l266 296h135l162 -296h-129zM113 0l249 1411h763l-30 -172h-568l-79 -449h500l-30 -170h-500l-79 -448h568l-31 -172h-763z" />
    <glyph glyph-name="uni1EBF" unicode="&#x1ebf;" horiz-adv-x="1109" 
d="M1103 1893l-271 -260h-129l312 333zM732 1392l-192 -220h-127l265 296h135l162 -296h-129zM647 1007q182 0 289 -97.5t107 -281.5q0 -68 -11 -121l-10 -44h-771q-5 -45 -5 -80q0 -123 69.5 -186.5t182.5 -63.5q91 0 173.5 48t137.5 130l162 -44q-76 -135 -202.5 -210.5
t-271.5 -75.5q-196 0 -310.5 107t-114.5 298q0 95 24.5 185.5t73.5 169.5t117 138.5t161 93.5t199 34zM646 869q-133 0 -226 -76t-138 -199h584q4 27 4 55q0 109 -60.5 164.5t-163.5 55.5z" />
    <glyph glyph-name="uni1EC0" unicode="&#x1ec0;" horiz-adv-x="1070" 
d="M914 1995h-129l-179 260l114 73zM809 1775l-191 -220h-128l266 296h135l162 -296h-129zM1095 1239h-568l-79 -449h500l-30 -170h-500l-79 -448h568l-31 -172h-763l249 1411h763z" />
    <glyph glyph-name="uni1EC1" unicode="&#x1ec1;" horiz-adv-x="1109" 
d="M838 1633h-128l-179 260l113 73zM732 1392l-192 -220h-127l265 296h135l162 -296h-129zM647 1007q182 0 289 -97.5t107 -281.5q0 -68 -11 -121l-10 -44h-771q-5 -45 -5 -80q0 -123 69.5 -186.5t182.5 -63.5q91 0 173.5 48t137.5 130l162 -44q-76 -135 -202.5 -210.5
t-271.5 -75.5q-196 0 -310.5 107t-114.5 298q0 95 24.5 185.5t73.5 169.5t117 138.5t161 93.5t199 34zM646 869q-133 0 -226 -76t-138 -199h584q4 27 4 55q0 109 -60.5 164.5t-163.5 55.5z" />
    <glyph glyph-name="uni1EC2" unicode="&#x1ec2;" horiz-adv-x="1070" 
d="M888 2285q-46 0 -91 -33l-42 74q72 51 153 51q83 0 126.5 -47.5t30.5 -122.5q-21 -118 -158 -156l-13 -78h-94l22 122q121 24 136 108q5 35 -13 58.5t-57 23.5zM809 1775l-191 -220h-128l266 296h135l162 -296h-129zM1095 1239h-568l-79 -449h500l-30 -170h-500l-79 -448
h568l-31 -172h-763l249 1411h763z" />
    <glyph glyph-name="uni1EC3" unicode="&#x1ec3;" horiz-adv-x="1109" 
d="M804 1874q-46 0 -91 -33l-42 74q72 50 153 50q83 0 126.5 -47t30.5 -122q-21 -116 -156 -157l-15 -77h-94l22 122q121 24 136 107q6 36 -12 59.5t-58 23.5zM732 1392l-192 -220h-127l265 296h135l162 -296h-129zM647 1007q182 0 289 -97.5t107 -281.5q0 -68 -11 -121
l-10 -44h-771q-5 -45 -5 -80q0 -123 69.5 -186.5t182.5 -63.5q91 0 173.5 48t137.5 130l162 -44q-76 -135 -202.5 -210.5t-271.5 -75.5q-196 0 -310.5 107t-114.5 298q0 95 24.5 185.5t73.5 169.5t117 138.5t161 93.5t199 34zM646 869q-133 0 -226 -76t-138 -199h584
q4 27 4 55q0 109 -60.5 164.5t-163.5 55.5z" />
    <glyph glyph-name="uni1EC4" unicode="&#x1ec4;" horiz-adv-x="1070" 
d="M1145 2244h106q-21 -114 -89.5 -187t-164.5 -73q-118 0 -168 112q-27 61 -85 61q-48 0 -84.5 -44t-49.5 -113h-105q20 115 90.5 188t163.5 73q115 0 167 -112q26 -59 87 -59q49 0 84 41.5t48 112.5zM924 1555l-115 220l-191 -220h-128l266 296h135l162 -296h-129zM113 0
l249 1411h763l-30 -172h-568l-79 -449h500l-30 -170h-500l-79 -448h568l-31 -172h-763z" />
    <glyph glyph-name="uni1EC5" unicode="&#x1ec5;" horiz-adv-x="1109" 
d="M1023 1858h104q-18 -102 -79 -167.5t-146 -65.5q-103 0 -150 97q-21 50 -66 50q-40 0 -69 -37t-39 -96h-104q18 103 80 168.5t146 65.5q104 0 146 -98q21 -48 71 -48q40 0 67.5 35.5t38.5 95.5zM846 1172l-114 220l-192 -220h-127l265 296h135l162 -296h-129zM647 1007
q182 0 289 -97.5t107 -281.5q0 -68 -11 -121l-10 -44h-771q-5 -45 -5 -80q0 -123 69.5 -186.5t182.5 -63.5q91 0 173.5 48t137.5 130l162 -44q-76 -135 -202.5 -210.5t-271.5 -75.5q-196 0 -310.5 107t-114.5 298q0 95 24.5 185.5t73.5 169.5t117 138.5t161 93.5t199 34z
M646 869q-133 0 -226 -76t-138 -199h584q4 27 4 55q0 109 -60.5 164.5t-163.5 55.5z" />
    <glyph glyph-name="uni1EC6" unicode="&#x1ec6;" horiz-adv-x="1070" 
d="M809 1775l-191 -220h-128l266 296h135l162 -296h-129zM1095 1239h-568l-79 -449h500l-30 -170h-500l-79 -448h568l-31 -172h-763l249 1411h763zM452 -263q51 0 81.5 -36.5t20.5 -87.5q-8 -52 -51 -88.5t-94 -36.5q-52 0 -82.5 36.5t-21.5 88.5q9 51 52 87.5t95 36.5z" />
    <glyph glyph-name="uni1EC7" unicode="&#x1ec7;" horiz-adv-x="1109" 
d="M732 1392l-192 -220h-127l265 296h135l162 -296h-129zM647 1007q182 0 289 -97.5t107 -281.5q0 -68 -11 -121l-10 -44h-771q-5 -45 -5 -80q0 -123 69.5 -186.5t182.5 -63.5q91 0 173.5 48t137.5 130l162 -44q-76 -135 -202.5 -210.5t-271.5 -75.5q-196 0 -310.5 107
t-114.5 298q0 95 24.5 185.5t73.5 169.5t117 138.5t161 93.5t199 34zM646 869q-133 0 -226 -76t-138 -199h584q4 27 4 55q0 109 -60.5 164.5t-163.5 55.5zM449 -264q51 0 81.5 -36.5t20.5 -87.5q-8 -52 -51 -88.5t-94 -36.5q-52 0 -82.5 36.5t-21.5 88.5q9 51 52 87.5
t95 36.5z" />
    <glyph glyph-name="uni1EC8" unicode="&#x1ec8;" horiz-adv-x="592" 
d="M432 1533l22 122q121 24 136 108q5 35 -13 58.5t-57 23.5q-46 0 -91 -33l-42 74q72 51 153 51q83 0 126.5 -47.5t30.5 -122.5q-21 -118 -158 -156l-13 -78h-94zM113 0l249 1411h190l-248 -1411h-191z" />
    <glyph glyph-name="uni1EC9" unicode="&#x1ec9;" horiz-adv-x="513" 
d="M316 1084l22 122q121 24 136 107q6 36 -12 59.5t-58 23.5q-46 0 -91 -33l-42 74q72 50 153 50q83 0 126.5 -47t30.5 -122q-21 -116 -156 -157l-15 -77h-94zM72 0l176 990h192l-175 -990h-193z" />
    <glyph glyph-name="uni1ECA" unicode="&#x1eca;" horiz-adv-x="592" 
d="M113 0l249 1411h190l-248 -1411h-191zM119 -512q-52 0 -82.5 36.5t-21.5 88.5q9 51 52 87.5t95 36.5q51 0 81.5 -36.5t20.5 -87.5q-8 -52 -51 -88.5t-94 -36.5z" />
    <glyph glyph-name="uni1ECB" unicode="&#x1ecb;" horiz-adv-x="513" 
d="M397 1239q-51 0 -83.5 36.5t-27.5 88.5t46 88t93 36q51 0 84 -36.5t27 -87.5t-47 -88t-92 -37zM72 0l176 990h192l-175 -990h-193zM81 -512q-52 0 -82.5 36.5t-21.5 88.5q9 51 52 87.5t95 36.5q51 0 81.5 -36.5t20.5 -87.5q-8 -52 -51 -88.5t-94 -36.5z" />
    <glyph glyph-name="uni1ECC" unicode="&#x1ecc;" horiz-adv-x="1614" 
d="M730 -19q-271 0 -436 155.5t-165 423.5q0 134 37 261.5t109.5 237.5t171.5 193t232 130.5t282 47.5q269 0 434.5 -155t165.5 -422q0 -168 -59.5 -325t-165 -278.5t-264 -195t-342.5 -73.5zM738 160q113 0 214.5 38t176.5 103.5t130.5 152t83.5 185.5t28 202
q0 193 -115 301t-303 108q-113 0 -214.5 -37.5t-177.5 -103.5t-131.5 -152t-84 -185.5t-28.5 -201.5q0 -194 116 -302t305 -108zM632 -512q-52 0 -82.5 36.5t-21.5 88.5q9 51 52 87.5t95 36.5q51 0 81.5 -36.5t20.5 -87.5q-8 -52 -51 -88.5t-94 -36.5z" />
    <glyph glyph-name="uni1ECD" unicode="&#x1ecd;" horiz-adv-x="1162" 
d="M502 -19q-194 0 -312.5 111.5t-118.5 301.5q0 117 41 227t115 195.5t186 137.5t245 52q195 0 313.5 -111.5t118.5 -301.5q0 -117 -41.5 -226.5t-115.5 -195.5t-186.5 -138t-244.5 -52zM506 133q90 0 167 40.5t127.5 105.5t79 145t28.5 161q0 124 -70 197t-187 73
q-89 0 -166 -41t-126 -106.5t-77 -145.5t-28 -160q0 -124 68.5 -196.5t183.5 -72.5zM404 -512q-52 0 -82.5 36.5t-21.5 88.5q9 51 52 87.5t95 36.5q51 0 81.5 -36.5t20.5 -87.5q-8 -52 -51 -88.5t-94 -36.5z" />
    <glyph glyph-name="uni1ECE" unicode="&#x1ece;" horiz-adv-x="1614" 
d="M946 1533l22 122q121 24 136 108q5 35 -13 58.5t-57 23.5q-46 0 -91 -33l-42 74q72 51 153 51q83 0 126.5 -47.5t30.5 -122.5q-21 -118 -158 -156l-13 -78h-94zM730 -19q-271 0 -436 155.5t-165 423.5q0 134 37 261.5t109.5 237.5t171.5 193t232 130.5t282 47.5
q269 0 434.5 -155t165.5 -422q0 -168 -59.5 -325t-165 -278.5t-264 -195t-342.5 -73.5zM738 160q113 0 214.5 38t176.5 103.5t130.5 152t83.5 185.5t28 202q0 193 -115 301t-303 108q-113 0 -214.5 -37.5t-177.5 -103.5t-131.5 -152t-84 -185.5t-28.5 -201.5
q0 -194 116 -302t305 -108z" />
    <glyph glyph-name="uni1ECF" unicode="&#x1ecf;" horiz-adv-x="1162" 
d="M638 1081l22 122q121 24 136 107q6 36 -12 59.5t-58 23.5q-46 0 -91 -33l-42 74q72 50 153 50q83 0 126.5 -47t30.5 -122q-21 -116 -156 -157l-15 -77h-94zM502 -19q-194 0 -312.5 111.5t-118.5 301.5q0 117 41 227t115 195.5t186 137.5t245 52q195 0 313.5 -111.5
t118.5 -301.5q0 -117 -41.5 -226.5t-115.5 -195.5t-186.5 -138t-244.5 -52zM506 133q90 0 167 40.5t127.5 105.5t79 145t28.5 161q0 124 -70 197t-187 73q-89 0 -166 -41t-126 -106.5t-77 -145.5t-28 -160q0 -124 68.5 -196.5t183.5 -72.5z" />
    <glyph glyph-name="uni1ED0" unicode="&#x1ed0;" horiz-adv-x="1614" 
d="M1002 1995l312 333l87 -73l-270 -260h-129zM841 1555h-128l266 296h135l162 -296h-129l-115 220zM730 -19q-271 0 -436 155.5t-165 423.5q0 134 37 261.5t109.5 237.5t171.5 193t232 130.5t282 47.5q269 0 434.5 -155t165.5 -422q0 -168 -59.5 -325t-165 -278.5
t-264 -195t-342.5 -73.5zM738 160q113 0 214.5 38t176.5 103.5t130.5 152t83.5 185.5t28 202q0 193 -115 301t-303 108q-113 0 -214.5 -37.5t-177.5 -103.5t-131.5 -152t-84 -185.5t-28.5 -201.5q0 -194 116 -302t305 -108z" />
    <glyph glyph-name="uni1ED1" unicode="&#x1ed1;" horiz-adv-x="1162" 
d="M707 1629l312 333l88 -73l-271 -260h-129zM544 1168h-127l265 296h135l162 -296h-129l-114 220zM502 -19q-194 0 -312.5 111.5t-118.5 301.5q0 117 41 227t115 195.5t186 137.5t245 52q195 0 313.5 -111.5t118.5 -301.5q0 -117 -41.5 -226.5t-115.5 -195.5t-186.5 -138
t-244.5 -52zM506 133q90 0 167 40.5t127.5 105.5t79 145t28.5 161q0 124 -70 197t-187 73q-89 0 -166 -41t-126 -106.5t-77 -145.5t-28 -160q0 -124 68.5 -196.5t183.5 -72.5z" />
    <glyph glyph-name="uni1ED2" unicode="&#x1ed2;" horiz-adv-x="1614" 
d="M1008 1995l-179 260l114 73l194 -333h-129zM841 1555h-128l266 296h135l162 -296h-129l-115 220zM730 -19q-271 0 -436 155.5t-165 423.5q0 134 37 261.5t109.5 237.5t171.5 193t232 130.5t282 47.5q269 0 434.5 -155t165.5 -422q0 -168 -59.5 -325t-165 -278.5
t-264 -195t-342.5 -73.5zM738 160q113 0 214.5 38t176.5 103.5t130.5 152t83.5 185.5t28 202q0 193 -115 301t-303 108q-113 0 -214.5 -37.5t-177.5 -103.5t-131.5 -152t-84 -185.5t-28.5 -201.5q0 -194 116 -302t305 -108z" />
    <glyph glyph-name="uni1ED3" unicode="&#x1ed3;" horiz-adv-x="1162" 
d="M714 1629l-179 260l113 73l194 -333h-128zM544 1168h-127l265 296h135l162 -296h-129l-114 220zM502 -19q-194 0 -312.5 111.5t-118.5 301.5q0 117 41 227t115 195.5t186 137.5t245 52q195 0 313.5 -111.5t118.5 -301.5q0 -117 -41.5 -226.5t-115.5 -195.5t-186.5 -138
t-244.5 -52zM506 133q90 0 167 40.5t127.5 105.5t79 145t28.5 161q0 124 -70 197t-187 73q-89 0 -166 -41t-126 -106.5t-77 -145.5t-28 -160q0 -124 68.5 -196.5t183.5 -72.5z" />
    <glyph glyph-name="uni1ED4" unicode="&#x1ed4;" horiz-adv-x="1614" 
d="M1023 1973l22 122q121 24 136 108q5 35 -13 58.5t-57 23.5q-46 0 -91 -33l-42 74q72 51 153 51q83 0 126.5 -47.5t30.5 -122.5q-21 -118 -158 -156l-13 -78h-94zM841 1555h-128l266 296h135l162 -296h-129l-115 220zM730 -19q-271 0 -436 155.5t-165 423.5
q0 134 37 261.5t109.5 237.5t171.5 193t232 130.5t282 47.5q269 0 434.5 -155t165.5 -422q0 -168 -59.5 -325t-165 -278.5t-264 -195t-342.5 -73.5zM738 160q113 0 214.5 38t176.5 103.5t130.5 152t83.5 185.5t28 202q0 193 -115 301t-303 108q-113 0 -214.5 -37.5
t-177.5 -103.5t-131.5 -152t-84 -185.5t-28.5 -201.5q0 -194 116 -302t305 -108z" />
    <glyph glyph-name="uni1ED5" unicode="&#x1ed5;" horiz-adv-x="1162" 
d="M720 1558l22 122q121 24 136 107q6 36 -12 59.5t-58 23.5q-46 0 -91 -33l-42 74q72 50 153 50q83 0 126.5 -47t30.5 -122q-21 -116 -156 -157l-15 -77h-94zM544 1168h-127l265 296h135l162 -296h-129l-114 220zM502 -19q-194 0 -312.5 111.5t-118.5 301.5q0 117 41 227
t115 195.5t186 137.5t245 52q195 0 313.5 -111.5t118.5 -301.5q0 -117 -41.5 -226.5t-115.5 -195.5t-186.5 -138t-244.5 -52zM506 133q90 0 167 40.5t127.5 105.5t79 145t28.5 161q0 124 -70 197t-187 73q-89 0 -166 -41t-126 -106.5t-77 -145.5t-28 -160
q0 -124 68.5 -196.5t183.5 -72.5z" />
    <glyph glyph-name="uni1ED6" unicode="&#x1ed6;" horiz-adv-x="1614" 
d="M1220 1984q-118 0 -168 112q-27 61 -85 61q-48 0 -84.5 -44t-49.5 -113h-105q20 115 90.5 188t163.5 73q115 0 167 -112q26 -59 87 -59q49 0 84 41.5t48 112.5h106q-21 -114 -89.5 -187t-164.5 -73zM841 1555h-128l266 296h135l162 -296h-129l-115 220zM730 -19
q-271 0 -436 155.5t-165 423.5q0 134 37 261.5t109.5 237.5t171.5 193t232 130.5t282 47.5q269 0 434.5 -155t165.5 -422q0 -168 -59.5 -325t-165 -278.5t-264 -195t-342.5 -73.5zM738 160q113 0 214.5 38t176.5 103.5t130.5 152t83.5 185.5t28 202q0 193 -115 301t-303 108
q-113 0 -214.5 -37.5t-177.5 -103.5t-131.5 -152t-84 -185.5t-28.5 -201.5q0 -194 116 -302t305 -108z" />
    <glyph glyph-name="uni1ED7" unicode="&#x1ed7;" horiz-adv-x="1162" 
d="M906 1621q-103 0 -150 97q-21 50 -66 50q-40 0 -69 -37t-39 -96h-104q18 103 80 168.5t146 65.5q104 0 146 -98q21 -48 71 -48q40 0 67.5 35.5t38.5 95.5h104q-18 -102 -79 -167.5t-146 -65.5zM544 1168h-127l265 296h135l162 -296h-129l-114 220zM502 -19
q-194 0 -312.5 111.5t-118.5 301.5q0 117 41 227t115 195.5t186 137.5t245 52q195 0 313.5 -111.5t118.5 -301.5q0 -117 -41.5 -226.5t-115.5 -195.5t-186.5 -138t-244.5 -52zM506 133q90 0 167 40.5t127.5 105.5t79 145t28.5 161q0 124 -70 197t-187 73q-89 0 -166 -41
t-126 -106.5t-77 -145.5t-28 -160q0 -124 68.5 -196.5t183.5 -72.5z" />
    <glyph glyph-name="uni1ED8" unicode="&#x1ed8;" horiz-adv-x="1614" 
d="M841 1555h-128l266 296h135l162 -296h-129l-115 220zM730 -19q-271 0 -436 155.5t-165 423.5q0 134 37 261.5t109.5 237.5t171.5 193t232 130.5t282 47.5q269 0 434.5 -155t165.5 -422q0 -168 -59.5 -325t-165 -278.5t-264 -195t-342.5 -73.5zM738 160q113 0 214.5 38
t176.5 103.5t130.5 152t83.5 185.5t28 202q0 193 -115 301t-303 108q-113 0 -214.5 -37.5t-177.5 -103.5t-131.5 -152t-84 -185.5t-28.5 -201.5q0 -194 116 -302t305 -108zM632 -512q-52 0 -82.5 36.5t-21.5 88.5q9 51 52 87.5t95 36.5q51 0 81.5 -36.5t20.5 -87.5
q-8 -52 -51 -88.5t-94 -36.5z" />
    <glyph glyph-name="uni1ED9" unicode="&#x1ed9;" horiz-adv-x="1162" 
d="M544 1168h-127l265 296h135l162 -296h-129l-114 220zM502 -19q-194 0 -312.5 111.5t-118.5 301.5q0 117 41 227t115 195.5t186 137.5t245 52q195 0 313.5 -111.5t118.5 -301.5q0 -117 -41.5 -226.5t-115.5 -195.5t-186.5 -138t-244.5 -52zM506 133q90 0 167 40.5
t127.5 105.5t79 145t28.5 161q0 124 -70 197t-187 73q-89 0 -166 -41t-126 -106.5t-77 -145.5t-28 -160q0 -124 68.5 -196.5t183.5 -72.5zM404 -512q-52 0 -82.5 36.5t-21.5 88.5q9 51 52 87.5t95 36.5q51 0 81.5 -36.5t20.5 -87.5q-8 -52 -51 -88.5t-94 -36.5z" />
    <glyph glyph-name="uni1EDA" unicode="&#x1eda;" horiz-adv-x="1614" 
d="M1324 1815l-270 -260h-129l312 333zM1647 1488h115l-21 -118q-41 -233 -213 -233q-9 0 -31 2q64 -126 64 -286q0 -168 -59.5 -325t-165 -278.5t-264 -195t-342.5 -73.5q-271 0 -436 155.5t-165 423.5q0 134 37 261.5t109.5 237.5t171.5 193t232 130.5t282 47.5
q285 0 451 -171l1 1q46 -28 96 -28q51 0 78.5 36t41.5 114zM738 160q113 0 214.5 38t176.5 103.5t130.5 152t83.5 185.5t28 202q0 193 -115 301t-303 108q-113 0 -214.5 -37.5t-177.5 -103.5t-131.5 -152t-84 -185.5t-28.5 -201.5q0 -194 116 -302t305 -108z" />
    <glyph glyph-name="uni1EDB" unicode="&#x1edb;" horiz-adv-x="1162" 
d="M1025 1412l-271 -260h-129l312 333zM1190 1129h115l-21 -118q-41 -233 -213 -233q-12 0 -18 1q37 -83 37 -186q0 -117 -41.5 -226.5t-115.5 -195.5t-186.5 -138t-244.5 -52q-194 0 -312.5 111.5t-118.5 301.5q0 117 41 227t115 195.5t186 137.5t245 52q200 0 318 -116
q38 -17 76 -17q51 0 78.5 36t41.5 114zM506 133q90 0 167 40.5t127.5 105.5t79 145t28.5 161q0 124 -70 197t-187 73q-89 0 -166 -41t-126 -106.5t-77 -145.5t-28 -160q0 -124 68.5 -196.5t183.5 -72.5z" />
    <glyph glyph-name="uni1EDC" unicode="&#x1edc;" horiz-adv-x="1614" 
d="M1060 1555h-129l-179 260l114 73zM1647 1488h115l-21 -118q-41 -233 -213 -233q-9 0 -31 2q64 -126 64 -286q0 -168 -59.5 -325t-165 -278.5t-264 -195t-342.5 -73.5q-271 0 -436 155.5t-165 423.5q0 134 37 261.5t109.5 237.5t171.5 193t232 130.5t282 47.5
q285 0 451 -171l1 1q46 -28 96 -28q51 0 78.5 36t41.5 114zM738 160q113 0 214.5 38t176.5 103.5t130.5 152t83.5 185.5t28 202q0 193 -115 301t-303 108q-113 0 -214.5 -37.5t-177.5 -103.5t-131.5 -152t-84 -185.5t-28.5 -201.5q0 -194 116 -302t305 -108z" />
    <glyph glyph-name="uni1EDD" unicode="&#x1edd;" horiz-adv-x="1162" 
d="M760 1152h-128l-179 260l113 73zM1190 1129h115l-21 -118q-41 -233 -213 -233q-12 0 -18 1q37 -83 37 -186q0 -117 -41.5 -226.5t-115.5 -195.5t-186.5 -138t-244.5 -52q-194 0 -312.5 111.5t-118.5 301.5q0 117 41 227t115 195.5t186 137.5t245 52q200 0 318 -116
q38 -17 76 -17q51 0 78.5 36t41.5 114zM506 133q90 0 167 40.5t127.5 105.5t79 145t28.5 161q0 124 -70 197t-187 73q-89 0 -166 -41t-126 -106.5t-77 -145.5t-28 -160q0 -124 68.5 -196.5t183.5 -72.5z" />
    <glyph glyph-name="uni1EDE" unicode="&#x1ede;" horiz-adv-x="1614" 
d="M1034 1845q-46 0 -91 -33l-42 74q72 51 153 51q83 0 126.5 -47.5t30.5 -122.5q-21 -118 -158 -156l-13 -78h-94l22 122q121 24 136 108q5 35 -13 58.5t-57 23.5zM1647 1488h115l-21 -118q-41 -233 -213 -233q-9 0 -31 2q64 -126 64 -286q0 -168 -59.5 -325t-165 -278.5
t-264 -195t-342.5 -73.5q-271 0 -436 155.5t-165 423.5q0 134 37 261.5t109.5 237.5t171.5 193t232 130.5t282 47.5q285 0 451 -171l1 1q46 -28 96 -28q51 0 78.5 36t41.5 114zM738 160q113 0 214.5 38t176.5 103.5t130.5 152t83.5 185.5t28 202q0 193 -115 301t-303 108
q-113 0 -214.5 -37.5t-177.5 -103.5t-131.5 -152t-84 -185.5t-28.5 -201.5q0 -194 116 -302t305 -108z" />
    <glyph glyph-name="uni1EDF" unicode="&#x1edf;" horiz-adv-x="1162" 
d="M726 1393q-46 0 -91 -33l-42 74q72 50 153 50q83 0 126.5 -47t30.5 -122q-21 -116 -156 -157l-15 -77h-94l22 122q121 24 136 107q6 36 -12 59.5t-58 23.5zM1190 1129h115l-21 -118q-41 -233 -213 -233q-12 0 -18 1q37 -83 37 -186q0 -117 -41.5 -226.5t-115.5 -195.5
t-186.5 -138t-244.5 -52q-194 0 -312.5 111.5t-118.5 301.5q0 117 41 227t115 195.5t186 137.5t245 52q200 0 318 -116q38 -17 76 -17q51 0 78.5 36t41.5 114zM506 133q90 0 167 40.5t127.5 105.5t79 145t28.5 161q0 124 -70 197t-187 73q-89 0 -166 -41t-126 -106.5
t-77 -145.5t-28 -160q0 -124 68.5 -196.5t183.5 -72.5z" />
    <glyph glyph-name="uni1EE0" unicode="&#x1ee0;" horiz-adv-x="1614" 
d="M890 1717q-48 0 -84.5 -44t-49.5 -113h-105q20 115 90.5 188t163.5 73q115 0 167 -112q26 -59 87 -59q49 0 84 41.5t48 112.5h106q-21 -114 -89.5 -187t-164.5 -73q-118 0 -168 112q-27 61 -85 61zM1647 1488h115l-21 -118q-41 -233 -213 -233q-9 0 -31 2
q64 -126 64 -286q0 -168 -59.5 -325t-165 -278.5t-264 -195t-342.5 -73.5q-271 0 -436 155.5t-165 423.5q0 134 37 261.5t109.5 237.5t171.5 193t232 130.5t282 47.5q285 0 451 -171l1 1q46 -28 96 -28q51 0 78.5 36t41.5 114zM738 160q113 0 214.5 38t176.5 103.5
t130.5 152t83.5 185.5t28 202q0 193 -115 301t-303 108q-113 0 -214.5 -37.5t-177.5 -103.5t-131.5 -152t-84 -185.5t-28.5 -201.5q0 -194 116 -302t305 -108z" />
    <glyph glyph-name="uni1EE1" unicode="&#x1ee1;" horiz-adv-x="1162" 
d="M608 1291q-40 0 -69 -37t-39 -96h-104q18 103 80 168.5t146 65.5q104 0 146 -98q21 -48 71 -48q40 0 67.5 35.5t38.5 95.5h104q-18 -102 -79 -167.5t-146 -65.5q-103 0 -150 97q-21 50 -66 50zM1190 1129h115l-21 -118q-41 -233 -213 -233q-12 0 -18 1q37 -83 37 -186
q0 -117 -41.5 -226.5t-115.5 -195.5t-186.5 -138t-244.5 -52q-194 0 -312.5 111.5t-118.5 301.5q0 117 41 227t115 195.5t186 137.5t245 52q200 0 318 -116q38 -17 76 -17q51 0 78.5 36t41.5 114zM506 133q90 0 167 40.5t127.5 105.5t79 145t28.5 161q0 124 -70 197t-187 73
q-89 0 -166 -41t-126 -106.5t-77 -145.5t-28 -160q0 -124 68.5 -196.5t183.5 -72.5z" />
    <glyph glyph-name="uni1EE2" unicode="&#x1ee2;" horiz-adv-x="1614" 
d="M1647 1488h115l-21 -118q-41 -233 -213 -233q-9 0 -31 2q64 -126 64 -286q0 -168 -59.5 -325t-165 -278.5t-264 -195t-342.5 -73.5q-271 0 -436 155.5t-165 423.5q0 134 37 261.5t109.5 237.5t171.5 193t232 130.5t282 47.5q285 0 451 -171l1 1q46 -28 96 -28
q51 0 78.5 36t41.5 114zM738 160q113 0 214.5 38t176.5 103.5t130.5 152t83.5 185.5t28 202q0 193 -115 301t-303 108q-113 0 -214.5 -37.5t-177.5 -103.5t-131.5 -152t-84 -185.5t-28.5 -201.5q0 -194 116 -302t305 -108zM675 -263q51 0 81.5 -36.5t20.5 -87.5
q-8 -52 -51 -88.5t-94 -36.5q-52 0 -82.5 36.5t-21.5 88.5q9 51 52 87.5t95 36.5z" />
    <glyph glyph-name="uni1EE3" unicode="&#x1ee3;" horiz-adv-x="1162" 
d="M1190 1129h115l-21 -118q-41 -233 -213 -233q-12 0 -18 1q37 -83 37 -186q0 -117 -41.5 -226.5t-115.5 -195.5t-186.5 -138t-244.5 -52q-194 0 -312.5 111.5t-118.5 301.5q0 117 41 227t115 195.5t186 137.5t245 52q200 0 318 -116q38 -17 76 -17q51 0 78.5 36t41.5 114z
M506 133q90 0 167 40.5t127.5 105.5t79 145t28.5 161q0 124 -70 197t-187 73q-89 0 -166 -41t-126 -106.5t-77 -145.5t-28 -160q0 -124 68.5 -196.5t183.5 -72.5zM447 -263q51 0 81.5 -36.5t20.5 -87.5q-8 -52 -51 -88.5t-94 -36.5q-52 0 -82.5 36.5t-21.5 88.5
q9 51 52 87.5t95 36.5z" />
    <glyph glyph-name="uni1EE4" unicode="&#x1ee4;" horiz-adv-x="1381" 
d="M610 -19q-204 0 -328 104.5t-124 290.5q0 56 9 101l166 934h190l-162 -921q-9 -48 -9 -89q0 -124 71.5 -186t191.5 -62q149 0 260.5 91t141.5 259l161 908h191l-167 -948q-41 -229 -205 -355.5t-387 -126.5zM511 -512q-52 0 -82.5 36.5t-21.5 88.5q9 51 52 87.5t95 36.5
q51 0 81.5 -36.5t20.5 -87.5q-8 -52 -51 -88.5t-94 -36.5z" />
    <glyph glyph-name="uni1EE5" unicode="&#x1ee5;" horiz-adv-x="1104" 
d="M847 987h184l-175 -987h-175l20 139q-59 -75 -140.5 -116.5t-175.5 -41.5q-130 0 -206 70t-76 196q0 36 8 82l117 658h183l-111 -624q-6 -36 -6 -65q0 -82 44.5 -121t117.5 -39q107 0 186 68.5t100 188.5h1zM421 -263q51 0 81.5 -36.5t20.5 -87.5q-8 -52 -51 -88.5
t-94 -36.5q-52 0 -82.5 36.5t-21.5 88.5q9 51 52 87.5t95 36.5z" />
    <glyph glyph-name="uni1EE6" unicode="&#x1ee6;" horiz-adv-x="1381" 
d="M825 1533l22 122q121 24 136 108q5 35 -13 58.5t-57 23.5q-46 0 -91 -33l-42 74q72 51 153 51q83 0 126.5 -47.5t30.5 -122.5q-21 -118 -158 -156l-13 -78h-94zM610 -19q-204 0 -328 104.5t-124 290.5q0 56 9 101l166 934h190l-162 -921q-9 -48 -9 -89q0 -124 71.5 -186
t191.5 -62q149 0 260.5 91t141.5 259l161 908h191l-167 -948q-41 -229 -205 -355.5t-387 -126.5z" />
    <glyph glyph-name="uni1EE7" unicode="&#x1ee7;" horiz-adv-x="1104" 
d="M701 1393q-46 0 -91 -33l-42 74q72 50 153 50q83 0 126.5 -47t30.5 -122q-21 -116 -156 -157l-15 -77h-94l22 122q121 24 136 107q6 36 -12 59.5t-58 23.5zM847 987h184l-175 -987h-175l20 139q-59 -75 -140.5 -116.5t-175.5 -41.5q-130 0 -206 70t-76 196q0 36 8 82
l117 658h183l-111 -624q-6 -36 -6 -65q0 -82 44.5 -121t117.5 -39q107 0 186 68.5t100 188.5h1z" />
    <glyph glyph-name="uni1EE8" unicode="&#x1ee8;" horiz-adv-x="1381" 
d="M1203 1815l-270 -260h-129l312 333zM1551 1540h115l-21 -118q-41 -233 -213 -233q-45 0 -99 19l-131 -745q-41 -229 -205 -355.5t-387 -126.5q-204 0 -328 104.5t-124 290.5q0 56 9 101l166 934h190l-162 -921q-9 -48 -9 -89q0 -124 71.5 -186t191.5 -62q149 0 260.5 91
t141.5 259l161 908h191l-20 -115q34 -12 64 -12q51 0 78.5 36t41.5 114z" />
    <glyph glyph-name="uni1EE9" unicode="&#x1ee9;" horiz-adv-x="1104" 
d="M1000 1412l-271 -260h-129l312 333zM1226 1116h115l-21 -118q-41 -233 -213 -233q-52 0 -111 24l-140 -789h-175l20 139q-59 -75 -140.5 -116.5t-175.5 -41.5q-130 0 -206 70t-76 196q0 36 8 82l117 658h183l-111 -624q-6 -36 -6 -65q0 -82 44.5 -121t117.5 -39
q107 0 186 68.5t100 188.5h1l104 592h184l-19 -109q36 -18 76 -18q51 0 78.5 36t41.5 114z" />
    <glyph glyph-name="uni1EEA" unicode="&#x1eea;" horiz-adv-x="1381" 
d="M939 1555h-129l-179 260l114 73zM1551 1540h115l-21 -118q-41 -233 -213 -233q-45 0 -99 19l-131 -745q-41 -229 -205 -355.5t-387 -126.5q-204 0 -328 104.5t-124 290.5q0 56 9 101l166 934h190l-162 -921q-9 -48 -9 -89q0 -124 71.5 -186t191.5 -62q149 0 260.5 91
t141.5 259l161 908h191l-20 -115q34 -12 64 -12q51 0 78.5 36t41.5 114z" />
    <glyph glyph-name="uni1EEB" unicode="&#x1eeb;" horiz-adv-x="1104" 
d="M735 1152h-128l-179 260l113 73zM1226 1116h115l-21 -118q-41 -233 -213 -233q-52 0 -111 24l-140 -789h-175l20 139q-59 -75 -140.5 -116.5t-175.5 -41.5q-130 0 -206 70t-76 196q0 36 8 82l117 658h183l-111 -624q-6 -36 -6 -65q0 -82 44.5 -121t117.5 -39
q107 0 186 68.5t100 188.5h1l104 592h184l-19 -109q36 -18 76 -18q51 0 78.5 36t41.5 114z" />
    <glyph glyph-name="uni1EEC" unicode="&#x1eec;" horiz-adv-x="1381" 
d="M913 1845q-46 0 -91 -33l-42 74q72 51 153 51q83 0 126.5 -47.5t30.5 -122.5q-21 -118 -158 -156l-13 -78h-94l22 122q121 24 136 108q5 35 -13 58.5t-57 23.5zM1551 1540h115l-21 -118q-41 -233 -213 -233q-45 0 -99 19l-131 -745q-41 -229 -205 -355.5t-387 -126.5
q-204 0 -328 104.5t-124 290.5q0 56 9 101l166 934h190l-162 -921q-9 -48 -9 -89q0 -124 71.5 -186t191.5 -62q149 0 260.5 91t141.5 259l161 908h191l-20 -115q34 -12 64 -12q51 0 78.5 36t41.5 114z" />
    <glyph glyph-name="uni1EED" unicode="&#x1eed;" horiz-adv-x="1104" 
d="M701 1393q-46 0 -91 -33l-42 74q72 50 153 50q83 0 126.5 -47t30.5 -122q-21 -116 -156 -157l-15 -77h-94l22 122q121 24 136 107q6 36 -12 59.5t-58 23.5zM1226 1116h115l-21 -118q-41 -233 -213 -233q-52 0 -111 24l-140 -789h-175l20 139q-59 -75 -140.5 -116.5
t-175.5 -41.5q-130 0 -206 70t-76 196q0 36 8 82l117 658h183l-111 -624q-6 -36 -6 -65q0 -82 44.5 -121t117.5 -39q107 0 186 68.5t100 188.5h1l104 592h184l-19 -109q36 -18 76 -18q51 0 78.5 36t41.5 114z" />
    <glyph glyph-name="uni1EEE" unicode="&#x1eee;" horiz-adv-x="1381" 
d="M769 1717q-48 0 -84.5 -44t-49.5 -113h-105q20 115 90.5 188t163.5 73q115 0 167 -112q26 -59 87 -59q49 0 84 41.5t48 112.5h106q-21 -114 -89.5 -187t-164.5 -73q-118 0 -168 112q-27 61 -85 61zM1551 1540h115l-21 -118q-41 -233 -213 -233q-45 0 -99 19l-131 -745
q-41 -229 -205 -355.5t-387 -126.5q-204 0 -328 104.5t-124 290.5q0 56 9 101l166 934h190l-162 -921q-9 -48 -9 -89q0 -124 71.5 -186t191.5 -62q149 0 260.5 91t141.5 259l161 908h191l-20 -115q34 -12 64 -12q51 0 78.5 36t41.5 114z" />
    <glyph glyph-name="uni1EEF" unicode="&#x1eef;" horiz-adv-x="1104" 
d="M583 1291q-40 0 -69 -37t-39 -96h-104q18 103 80 168.5t146 65.5q104 0 146 -98q21 -48 71 -48q40 0 67.5 35.5t38.5 95.5h104q-18 -102 -79 -167.5t-146 -65.5q-103 0 -150 97q-21 50 -66 50zM1226 1116h115l-21 -118q-41 -233 -213 -233q-52 0 -111 24l-140 -789h-175
l20 139q-59 -75 -140.5 -116.5t-175.5 -41.5q-130 0 -206 70t-76 196q0 36 8 82l117 658h183l-111 -624q-6 -36 -6 -65q0 -82 44.5 -121t117.5 -39q107 0 186 68.5t100 188.5h1l104 592h184l-19 -109q36 -18 76 -18q51 0 78.5 36t41.5 114z" />
    <glyph glyph-name="uni1EF0" unicode="&#x1ef0;" horiz-adv-x="1381" 
d="M1551 1540h115l-21 -118q-41 -233 -213 -233q-45 0 -99 19l-131 -745q-41 -229 -205 -355.5t-387 -126.5q-204 0 -328 104.5t-124 290.5q0 56 9 101l166 934h190l-162 -921q-9 -48 -9 -89q0 -124 71.5 -186t191.5 -62q149 0 260.5 91t141.5 259l161 908h191l-20 -115
q34 -12 64 -12q51 0 78.5 36t41.5 114zM554 -263q51 0 81.5 -36.5t20.5 -87.5q-8 -52 -51 -88.5t-94 -36.5q-52 0 -82.5 36.5t-21.5 88.5q9 51 52 87.5t95 36.5z" />
    <glyph glyph-name="uni1EF1" unicode="&#x1ef1;" horiz-adv-x="1104" 
d="M1226 1116h115l-21 -118q-41 -233 -213 -233q-52 0 -111 24l-140 -789h-175l20 139q-59 -75 -140.5 -116.5t-175.5 -41.5q-130 0 -206 70t-76 196q0 36 8 82l117 658h183l-111 -624q-6 -36 -6 -65q0 -82 44.5 -121t117.5 -39q107 0 186 68.5t100 188.5h1l104 592h184
l-19 -109q36 -18 76 -18q51 0 78.5 36t41.5 114zM421 -263q51 0 81.5 -36.5t20.5 -87.5q-8 -52 -51 -88.5t-94 -36.5q-52 0 -82.5 36.5t-21.5 88.5q9 51 52 87.5t95 36.5z" />
    <glyph glyph-name="Ygrave" unicode="&#x1ef2;" horiz-adv-x="1173" 
d="M835 1555h-129l-179 260l114 73zM1308 1411l-598 -742l-117 -669h-193l119 676l-332 735h207l245 -568l445 568h224z" />
    <glyph glyph-name="ygrave" unicode="&#x1ef3;" horiz-adv-x="982" 
d="M669 1152h-128l-179 260l113 73zM856 987h197l-832 -1452h-194l290 499l-214 953h199l141 -753z" />
    <glyph glyph-name="uni1EF4" unicode="&#x1ef4;" horiz-adv-x="1173" 
d="M1308 1411l-598 -742l-117 -669h-193l119 676l-332 735h207l245 -568l445 568h224zM451 -263q51 0 81.5 -36.5t20.5 -87.5q-8 -52 -51 -88.5t-94 -36.5q-52 0 -82.5 36.5t-21.5 88.5q9 51 52 87.5t95 36.5z" />
    <glyph glyph-name="uni1EF5" unicode="&#x1ef5;" horiz-adv-x="982" 
d="M856 987h197l-832 -1452h-194l290 499l-214 953h199l141 -753zM676 -263q51 0 81.5 -36.5t20.5 -87.5q-8 -52 -51 -88.5t-94 -36.5q-52 0 -82.5 36.5t-21.5 88.5q9 51 52 87.5t95 36.5z" />
    <glyph glyph-name="uni1EF6" unicode="&#x1ef6;" horiz-adv-x="1173" 
d="M809 1845q-46 0 -91 -33l-42 74q72 51 153 51q83 0 126.5 -47.5t30.5 -122.5q-21 -118 -158 -156l-13 -78h-94l22 122q121 24 136 108q5 35 -13 58.5t-57 23.5zM1308 1411l-598 -742l-117 -669h-193l119 676l-332 735h207l245 -568l445 568h224z" />
    <glyph glyph-name="uni1EF7" unicode="&#x1ef7;" horiz-adv-x="982" 
d="M635 1393q-46 0 -91 -33l-42 74q72 50 153 50q83 0 126.5 -47t30.5 -122q-21 -116 -156 -157l-15 -77h-94l22 122q121 24 136 107q6 36 -12 59.5t-58 23.5zM856 987h197l-832 -1452h-194l290 499l-214 953h199l141 -753z" />
    <glyph glyph-name="uni1EF8" unicode="&#x1ef8;" horiz-adv-x="1173" 
d="M665 1717q-48 0 -84.5 -44t-49.5 -113h-105q20 115 90.5 188t163.5 73q115 0 167 -112q26 -59 87 -59q49 0 84 41.5t48 112.5h106q-21 -114 -89.5 -187t-164.5 -73q-118 0 -168 112q-27 61 -85 61zM1308 1411l-598 -742l-117 -669h-193l119 676l-332 735h207l245 -568
l445 568h224z" />
    <glyph glyph-name="uni1EF9" unicode="&#x1ef9;" horiz-adv-x="982" 
d="M517 1291q-40 0 -69 -37t-39 -96h-104q18 103 80 168.5t146 65.5q104 0 146 -98q21 -48 71 -48q40 0 67.5 35.5t38.5 95.5h104q-18 -102 -79 -167.5t-146 -65.5q-103 0 -150 97q-21 50 -66 50zM856 987h197l-832 -1452h-194l290 499l-214 953h199l141 -753z" />
    <glyph glyph-name="endash" unicode="&#x2013;" horiz-adv-x="1335" 
d="M147 453l28 159h1024l-28 -159h-1024z" />
    <glyph glyph-name="emdash" unicode="&#x2014;" horiz-adv-x="2359" 
d="M147 453l28 159h2048l-28 -159h-2048z" />
    <glyph glyph-name="quoteleft" unicode="&#x2018;" horiz-adv-x="561" 
d="M155 788l294 626h142l-233 -626h-203z" />
    <glyph glyph-name="quoteright" unicode="&#x2019;" horiz-adv-x="560" 
d="M182 788l234 626h202l-293 -626h-143z" />
    <glyph glyph-name="quotesinglbase" unicode="&#x201a;" horiz-adv-x="559" 
d="M-22 -362l234 626h203l-293 -626h-144z" />
    <glyph glyph-name="quotedblleft" unicode="&#x201c;" horiz-adv-x="953" 
d="M155 788l294 626h142l-233 -626h-203zM546 788l295 626h142l-233 -626h-204z" />
    <glyph glyph-name="quotedblright" unicode="&#x201d;" horiz-adv-x="952" 
d="M182 788l234 626h202l-293 -626h-143zM574 788l234 626h202l-293 -626h-143z" />
    <glyph glyph-name="quotedblbase" unicode="&#x201e;" horiz-adv-x="959" 
d="M-22 -362l234 626h203l-293 -626h-144zM379 -362l233 626h203l-293 -626h-143z" />
    <glyph glyph-name="dagger" unicode="&#x2020;" horiz-adv-x="982" 
d="M998 1018l-22 -127h-356l-211 -1197h-129l211 1197h-345l21 127h346l70 396h129l-70 -396h356z" />
    <glyph glyph-name="daggerdbl" unicode="&#x2021;" horiz-adv-x="1052" 
d="M1011 891h-356l-117 -665h355l-22 -127h-356l-71 -405h-129l71 405h-346l23 127h346l117 665h-345l22 127h345l70 396h129l-70 -396h356z" />
    <glyph glyph-name="bullet" unicode="&#x2022;" horiz-adv-x="857" 
d="M426 402q-113 0 -181.5 80.5t-48.5 196.5q19 102 107 177t190 75q110 0 179 -83.5t49 -194.5q-18 -106 -105.5 -178.5t-189.5 -72.5z" />
    <glyph glyph-name="ellipsis" unicode="&#x2026;" horiz-adv-x="1870" 
d="M236 -20q-56 0 -89.5 40.5t-24.5 96.5q9 46 47.5 79t83.5 33q56 0 90 -41.5t24 -97.5q-9 -46 -47.5 -78t-83.5 -32zM862 -20q-55 0 -88.5 40.5t-24.5 96.5q8 46 47 79t84 33q56 0 89.5 -42t23.5 -97q-8 -46 -46.5 -78t-84.5 -32zM1479 -20q-55 0 -88.5 40.5t-24.5 96.5
q8 46 47 79t84 33q56 0 89.5 -42t23.5 -97q-8 -46 -46.5 -78t-84.5 -32z" />
    <glyph glyph-name="perthousand" unicode="&#x2030;" horiz-adv-x="2218" 
d="M468 838q-120 0 -188.5 72.5t-68.5 182.5q0 82 40.5 159.5t120 129.5t177.5 52q119 0 187.5 -73.5t68.5 -181.5q0 -83 -40 -160t-119 -129t-178 -52zM207 -1l1001 1417h176l-1002 -1417h-175zM476 975q86 0 141 60t55 136q0 54 -35 90.5t-96 36.5q-85 0 -140 -60
t-55 -137q0 -54 34 -90t96 -36zM1056 -18q-120 0 -189 73t-69 182q0 61 24 121.5t66.5 109t107.5 79t140 30.5q118 0 186.5 -72t68.5 -180q0 -83 -39.5 -160.5t-118 -130t-177.5 -52.5zM1750 -18q-120 0 -189 73t-69 182q0 61 24 121.5t66.5 109t107.5 79t140 30.5
q118 0 186.5 -72t68.5 -180q0 -83 -39.5 -160.5t-118 -130t-177.5 -52.5zM1063 118q84 0 140.5 61t56.5 138q0 53 -35.5 89t-96.5 36q-86 0 -141 -60t-55 -137q0 -54 34.5 -90.5t96.5 -36.5zM1757 118q85 0 141 61t56 138q0 53 -35 89t-97 36q-85 0 -140 -60t-55 -137
q0 -54 34 -90.5t96 -36.5z" />
    <glyph glyph-name="guilsinglleft" unicode="&#x2039;" horiz-adv-x="596" 
d="M323 237l-248 377l375 376h167l-380 -376l242 -377h-156z" />
    <glyph glyph-name="guilsinglright" unicode="&#x203a;" horiz-adv-x="593" 
d="M18 237l380 377l-242 376h156l248 -376l-375 -377h-167z" />
    <glyph glyph-name="fraction" unicode="&#x2044;" horiz-adv-x="482" 
d="M-351 0l1139 1536h141l-1137 -1536h-143z" />
    <glyph glyph-name="Euro" unicode="&#x20ac;" horiz-adv-x="1532" 
d="M837 166q109 0 210 53.5t175 146.5l152 -125q-111 -122 -253.5 -191t-290.5 -69q-239 0 -386 133t-156 385h-158l21 118h139q8 90 27 177h-134l22 120h149q41 113 106 206t152.5 164t202 110.5t246.5 39.5q155 0 277.5 -73t193.5 -197l-180 -102q-42 92 -119.5 139
t-180.5 47q-171 0 -296.5 -90.5t-196.5 -243.5h483l-21 -120h-506q-23 -82 -31 -177h505l-21 -118h-487q9 -170 104.5 -251.5t251.5 -81.5z" />
    <glyph glyph-name="uni2113" unicode="&#x2113;" horiz-adv-x="1125" 
d="M546 -12q-151 0 -237.5 94t-73.5 255q-44 -39 -129 -91l-47 112q30 21 95 63t97 66l93 498q23 127 66.5 221t100.5 146t118.5 76.5t129.5 24.5q122 0 182.5 -70t60.5 -183q0 -78 -25.5 -155t-86.5 -170.5t-174 -203.5t-278 -234q-16 -84 -17 -106q-2 -94 45.5 -142
t123.5 -48q93 0 184 60t150 140l80 -96q-191 -257 -458 -257zM462 621q212 178 309 318t97 267q0 114 -103 114q-70 0 -136 -78.5t-95 -245.5z" />
    <glyph glyph-name="uni2116" unicode="&#x2116;" horiz-adv-x="2903" 
d="M1231 319l214 1217h196l-271 -1536h-188l-619 1222l-215 -1222h-196l271 1536h190zM2228 332q-111 0 -198 36.5t-140 99.5t-80 142.5t-27 170.5q0 92 26 184.5t78.5 176t125 148.5t172 103.5t211.5 38.5q111 0 198 -36.5t140 -99.5t80 -142.5t27 -170.5q0 -92 -26 -184.5
t-78.5 -176t-124.5 -148.5t-171.5 -103.5t-212.5 -38.5zM2391 1266q-94 0 -175 -44.5t-133.5 -115.5t-82 -155.5t-29.5 -167.5q0 -124 65.5 -204.5t193.5 -80.5q95 0 176.5 44.5t134.5 114.5t83 154.5t30 167.5q0 124 -66.5 205.5t-196.5 81.5zM1695 0l24 131h924l-24 -131
h-924z" />
    <glyph glyph-name="trademark" unicode="&#x2122;" horiz-adv-x="1608" 
d="M273 1444v92h446v-92h-173v-628h-100v628h-173zM1382 1536h106v-720h-99v550l-236 -390l-236 387v-547h-102v720h109l228 -382z" />
    <glyph glyph-name="estimated" unicode="&#x212e;" horiz-adv-x="1978" 
d="M1056 -18q-178 0 -340 62t-279 167.5t-186 250.5t-69 304q0 215 117 397t318 287.5t439 105.5q179 0 341.5 -62.5t280 -168t186.5 -252t69 -307.5v-21h-1417q-12 0 -12 -8v-430q0 -24 18 -49q106 -109 245 -171t292 -62q167 0 313.5 69.5t251.5 192.5h125
q-119 -141 -301.5 -223t-391.5 -82zM516 788h1087q8 0 8 15v430q0 34 -20 51q-106 105 -243.5 165t-288.5 60t-289 -61.5t-246 -169.5q-20 -23 -20 -53v-422q0 -15 12 -15z" />
    <glyph glyph-name="partialdiff" unicode="&#x2202;" horiz-adv-x="1165" 
d="M520 1448q112 18 209.5 -11.5t166.5 -99t114.5 -172.5t53 -231.5t-18.5 -275.5q-53 -282 -224.5 -464t-383.5 -182q-96 0 -168.5 30.5t-114.5 87t-55.5 132.5t8.5 171.5t77 199.5q64 114 151 195.5t181 121t192.5 39.5t187.5 -43q-12 189 -113.5 287t-276.5 69zM443 142
q132 0 257 150.5t174 392.5q15 75 18 118q-139 94 -292.5 26.5t-256.5 -268.5q-51 -92 -67 -171.5t0.5 -133t59.5 -84t107 -30.5z" />
    <glyph glyph-name="emptyset" unicode="&#x2205;" horiz-adv-x="1519" 
d="M777 -16q-230 0 -403 152l-88 -89l-58 57l89 89q-152 173 -152 403q0 166 82 307t223 223t307 82q232 0 403 -152l89 89l57 -58l-89 -88q153 -172 153 -403q0 -166 -82 -307t-223.5 -223t-307.5 -82zM427 303l643 643q-124 105 -293 105q-124 0 -228.5 -60.5
t-165.5 -165.5t-61 -229q0 -169 105 -293zM777 141q190 0 322.5 132.5t132.5 322.5q0 169 -105 293l-643 -643q124 -105 293 -105z" />
    <glyph glyph-name="product" unicode="&#x220f;" horiz-adv-x="1625" 
d="M172 0l219 1242h-123l31 172h1352l-31 -172h-124l-219 -1242h-169l218 1242h-763l-218 -1242h-173z" />
    <glyph glyph-name="summation" unicode="&#x2211;" horiz-adv-x="1382" 
d="M18 1l21 129l745 637l-516 639l21 130h1168l-28 -157h-903l485 -612l-696 -610h899l-28 -156h-1168z" />
    <glyph glyph-name="minus" unicode="&#x2212;" horiz-adv-x="1257" 
d="M271 608v154h784v-154h-784z" />
    <glyph glyph-name="radical" unicode="&#x221a;" horiz-adv-x="1399" 
d="M367 0l-103 702h-143l28 161h253l91 -606l840 1279h181l-1006 -1536h-141z" />
    <glyph glyph-name="infinity" unicode="&#x221e;" horiz-adv-x="1688" 
d="M486 289q-123 0 -205.5 86.5t-87.5 220.5q5 134 87.5 220.5t205.5 86.5q179 0 375 -208q92 101 189 154.5t185 53.5q127 0 207 -84.5t85 -222.5q-5 -138 -85 -222.5t-207 -84.5q-89 0 -185.5 53t-188.5 153q-197 -206 -375 -206zM486 424q61 0 135.5 45t148.5 127
q-74 82 -148.5 127t-135.5 45q-64 0 -110.5 -49.5t-48.5 -122.5q2 -73 48.5 -122.5t110.5 -49.5zM1235 424q66 0 111.5 48.5t46.5 123.5q-1 75 -46.5 123.5t-111.5 48.5q-127 0 -286 -172q159 -172 286 -172z" />
    <glyph glyph-name="integral" unicode="&#x222b;" horiz-adv-x="926" 
d="M-88 -457l21 185q160 0 243.5 70t110.5 224l195 1113q24 133 119 216t218 83q124 0 197 -76l-99 -135q-35 39 -88 39q-62 0 -108 -46t-60 -124l-192 -1091q-38 -220 -186.5 -339t-370.5 -119z" />
    <glyph glyph-name="approxequal" unicode="&#x2248;" horiz-adv-x="1396" 
d="M941 672q-30 0 -58.5 6.5t-49 13t-46 23.5t-36.5 24.5t-34.5 31.5t-27 28t-25.5 28q-75 80 -140 80q-74 0 -118 -60t-46 -155h-146q2 163 86.5 262t225.5 99q77 0 136 -36.5t122 -113.5q25 -29 40 -44t44 -30t61 -15q69 0 113.5 57.5t47.5 154.5h144
q-2 -155 -81.5 -254.5t-211.5 -99.5zM941 230q-41 0 -79.5 11.5t-64 24.5t-55.5 39t-42 39t-36 40q-39 42 -68.5 62t-71.5 19q-74 -1 -118 -60.5t-46 -154.5h-146q2 164 87.5 263t224.5 99q76 0 134 -36t124 -113q26 -31 40.5 -46t43.5 -30.5t61 -15.5q70 0 114 58.5
t47 156.5h144q-2 -156 -81.5 -256t-211.5 -100z" />
    <glyph glyph-name="notequal" unicode="&#x2260;" horiz-adv-x="1222" 
d="M200 0l213 409h-224v154h303l135 260h-438v154h517l198 379h146l-197 -379h250v-154h-331l-134 -260h465v-154h-544l-213 -409h-146z" />
    <glyph glyph-name="lessequal" unicode="&#x2264;" horiz-adv-x="1471" 
d="M1294 1435v-171l-962 -442l962 -443v-174l-1130 525v185zM164 0v136h1130v-136h-1130z" />
    <glyph glyph-name="greaterequal" unicode="&#x2265;" horiz-adv-x="1535" 
d="M239 1435l1131 -520v-185l-1131 -525v174l962 443l-962 442v171zM239 0v136h1131v-136h-1131z" />
    <glyph glyph-name="lozenge" unicode="&#x25ca;" horiz-adv-x="1383" 
d="M731 106l-619 617l619 618l616 -616zM732 322l400 403l-400 400l-403 -402z" />
    <glyph glyph-name="uniF8FF" unicode="&#xf8ff;" horiz-adv-x="1834" 
d="M967 0q-158 0 -302 62t-248 166t-166 248t-62 302t62 302.5t166 248.5t248 165.5t302 61.5t302.5 -61.5t248.5 -165.5t165.5 -248.5t61.5 -302.5t-61.5 -302t-165.5 -248t-248.5 -166t-302.5 -62zM967 74q143 0 273.5 56t225 150.5t150 224.5t55.5 273t-55.5 273.5
t-150 225t-225 150.5t-273.5 56q-190 0 -352.5 -94.5t-257.5 -257t-95 -353.5q0 -190 95 -352.5t257.5 -257t352.5 -94.5zM1375 444q-13 0 -24 13l-297 295q-11 12 -11.5 27.5t10.5 25.5l297 297q10 10 25 10t26 -10q11 -11 11 -26.5t-11 -26.5l-270 -271l270 -270
q22 -22 0 -51q-10 -13 -26 -13zM559 444q-15 0 -25.5 11t-10.5 26v594q0 16 10.5 26.5t25.5 10.5q16 0 26.5 -10.5t10.5 -26.5v-594q0 -15 -10.5 -26t-26.5 -11zM967 444q-16 0 -26.5 11t-10.5 26v594q0 16 10.5 26.5t26.5 10.5q15 0 26 -10.5t11 -26.5v-594q0 -15 -11 -26
t-26 -11zM670 741q-15 0 -26 11t-11 26q0 16 11 26.5t26 10.5h186q16 0 26.5 -10.5t10.5 -26.5q0 -15 -10.5 -26t-26.5 -11h-186z" />
    <glyph glyph-name="G.ss02" horiz-adv-x="1564" 
d="M736 -19q-155 0 -279 51t-204 144.5t-110.5 233t-0.5 307.5q38 219 158.5 383t292 248.5t369.5 84.5q201 0 347 -87.5t209 -247.5l-185 -83q-43 120 -141.5 178.5t-236.5 58.5q-226 0 -398.5 -149t-218.5 -408q-44 -250 70.5 -392.5t336.5 -142.5q130 0 246 53t195.5 147
t104.5 210l-464 -7l30 166l656 -7q-11 -85 -33 -169q-73 -271 -274.5 -421.5t-469.5 -150.5z" />
    <glyph glyph-name="Gbreve.ss02" horiz-adv-x="1564" 
d="M988 1558q-157 0 -238 67.5t-56 206.5h117q-17 -88 37 -132t158 -44q105 0 174 43.5t85 132.5h117q-25 -139 -130 -206.5t-264 -67.5zM736 -19q-155 0 -279 51t-204 144.5t-110.5 233t-0.5 307.5q38 219 158.5 383t292 248.5t369.5 84.5q201 0 347 -87.5t209 -247.5
l-185 -83q-43 120 -141.5 178.5t-236.5 58.5q-226 0 -398.5 -149t-218.5 -408q-44 -250 70.5 -392.5t336.5 -142.5q130 0 246 53t195.5 147t104.5 210l-464 -7l30 166l656 -7q-11 -85 -33 -169q-73 -271 -274.5 -421.5t-469.5 -150.5z" />
    <glyph glyph-name="Gcommaaccent.ss02" horiz-adv-x="1564" 
d="M736 -19q-155 0 -279 51t-204 144.5t-110.5 233t-0.5 307.5q38 219 158.5 383t292 248.5t369.5 84.5q201 0 347 -87.5t209 -247.5l-185 -83q-43 120 -141.5 178.5t-236.5 58.5q-226 0 -398.5 -149t-218.5 -408q-44 -250 70.5 -392.5t336.5 -142.5q130 0 246 53t195.5 147
t104.5 210l-464 -7l30 166l656 -7q-11 -85 -33 -169q-73 -271 -274.5 -421.5t-469.5 -150.5zM465 -561l-92 45l226 367h174z" />
    <glyph glyph-name="Gdotaccent.ss02" horiz-adv-x="1564" 
d="M989 1558q-51 0 -81.5 36.5t-22.5 88.5q10 52 54 88t95 36t81 -36.5t20 -87.5q-7 -51 -51 -88t-95 -37zM736 -19q-155 0 -279 51t-204 144.5t-110.5 233t-0.5 307.5q38 219 158.5 383t292 248.5t369.5 84.5q201 0 347 -87.5t209 -247.5l-185 -83q-43 120 -141.5 178.5
t-236.5 58.5q-226 0 -398.5 -149t-218.5 -408q-44 -250 70.5 -392.5t336.5 -142.5q130 0 246 53t195.5 147t104.5 210l-464 -7l30 166l656 -7q-11 -85 -33 -169q-73 -271 -274.5 -421.5t-469.5 -150.5z" />
    <glyph glyph-name="i.loclTRK" horiz-adv-x="513" 
d="M397 1239q-51 0 -83.5 36.5t-27.5 88.5t46 88t93 36q51 0 84 -36.5t27 -87.5t-47 -88t-92 -37zM72 0l176 990h192l-175 -990h-193z" />
    <glyph glyph-name="f_t" horiz-adv-x="1268" 
d="M126 0l149 839h-192l27 151h191l47 262q25 149 106.5 226.5t209.5 77.5q74 0 144 -26l-14 -142q-41 14 -86 14q-63 0 -111 -42.5t-60 -116.5l-45 -253h250q69 0 117 39.5t61 111.5l30 178h178l-57 -329h224l-27 -151h-224l-98 -550q-22 -138 104 -138h94l-27 -151h-137
q-126 0 -188 76t-39 207l98 556h-386l-148 -839h-191z" />
    <glyph glyph-name="t_t" horiz-adv-x="1304" 
d="M404 0q-126 0 -188.5 76t-39.5 207l99 556h-201l26 151h73q62 0 105.5 37t54.5 99l25 139h185l-48 -275h291q62 0 105.5 37t54.5 99l25 139h185l-48 -275h224l-27 -151h-224l-98 -550q-12 -69 16 -103.5t88 -34.5h94l-27 -151h-137q-126 0 -188.5 76t-39.5 207l99 556
h-420l-98 -550q-12 -69 16 -103.5t88 -34.5h94l-27 -151h-137z" />
    <glyph glyph-name="uni0308.case" 
d="M-430 1558q-46 0 -73.5 33.5t-20.5 79.5q10 47 49 80t85 33t74 -33t19 -80q-7 -46 -47 -79.5t-86 -33.5zM-54 1558q-46 0 -74 33t-20 80q10 47 49 80t85 33t73.5 -33t18.5 -80q-7 -46 -46.5 -79.5t-85.5 -33.5z" />
    <glyph glyph-name="uni0307.case" 
d="M-64 1558q-51 0 -81.5 36.5t-22.5 88.5q10 52 54 88t95 36t81 -36.5t20 -87.5q-7 -51 -51 -88t-95 -37z" />
    <glyph glyph-name="gravecomb.case" 
d="M14 1558l-179 260l114 73l194 -333h-129z" />
    <glyph glyph-name="acutecomb.case" 
d="M-230 1558l312 333l87 -73l-270 -260h-129z" />
    <glyph glyph-name="uni030B.case" 
d="M-592 1558l312 333l87 -73l-270 -260h-129zM-229 1558l312 333l87 -73l-270 -260h-129z" />
    <glyph glyph-name="uni0302.case" 
d="M-304 1558h-128l266 296h135l162 -296h-129l-115 220z" />
    <glyph glyph-name="uni030C.case" 
d="M-223 1558l-162 296h128l115 -221l191 221h129l-266 -296h-135z" />
    <glyph glyph-name="uni0306.case" 
d="M-262 1558q-157 0 -238 67.5t-56 206.5h117q-17 -88 37 -132t158 -44q105 0 174 43.5t85 132.5h117q-25 -139 -130 -206.5t-264 -67.5z" />
    <glyph glyph-name="uni030A.case" 
d="M-126 1558q-83 0 -134.5 50t-53.5 131q-2 99 70 173.5t177 74.5q84 0 134 -50t52 -129q2 -98 -69 -174t-176 -76zM-116 1649q61 0 103.5 43.5t42.5 101.5q0 45 -29 75.5t-76 30.5q-61 0 -104 -46t-43 -103q0 -47 28.5 -74.5t77.5 -27.5z" />
    <glyph glyph-name="tildecomb.case" 
d="M-140 1547q-118 0 -168 112q-27 61 -85 61q-48 0 -84.5 -44t-49.5 -113h-105q20 115 90.5 188t163.5 73q115 0 167 -112q26 -59 87 -59q49 0 84 41.5t48 112.5h106q-21 -114 -89.5 -187t-164.5 -73z" />
    <glyph glyph-name="uni0304.case" 
d="M-618 1558l21 121h650l-21 -121h-650z" />
    <glyph glyph-name="hookabovecomb.case" 
d="M-144 1536l22 122q121 24 136 108q5 35 -13 58.5t-57 23.5q-46 0 -91 -33l-42 74q72 51 153 51q83 0 126.5 -47.5t30.5 -122.5q-21 -118 -158 -156l-13 -78h-94z" />
    <glyph glyph-name="uni0312.case" 
d="M1 1868h139l-177 -310h-200z" />
    <glyph glyph-name="uni0338.case" 
d="M-1006 -2l1103 1585l95 -59l-1103 -1582z" />
    <glyph glyph-name="uni03060301" 
d="M-300 1701l312 333l88 -73l-271 -260h-129zM-316 1213q-152 0 -232.5 87t-53.5 236h117q-17 -98 35.5 -161.5t150.5 -63.5q100 0 175.5 63.5t92.5 161.5h116q-26 -149 -137 -236t-264 -87z" />
    <glyph glyph-name="uni03060300" 
d="M-293 1701l-179 260l113 73l194 -333h-128zM-316 1213q-152 0 -232.5 87t-53.5 236h117q-17 -98 35.5 -161.5t150.5 -63.5q100 0 175.5 63.5t92.5 161.5h116q-26 -149 -137 -236t-264 -87z" />
    <glyph glyph-name="uni03060309" 
d="M-287 1630l22 122q121 24 136 107q6 36 -12 59.5t-58 23.5q-46 0 -91 -33l-42 74q72 50 153 50q83 0 126.5 -47t30.5 -122q-21 -116 -156 -157l-15 -77h-94zM-316 1213q-152 0 -232.5 87t-53.5 236h117q-17 -98 35.5 -161.5t150.5 -63.5q100 0 175.5 63.5t92.5 161.5h116
q-26 -149 -137 -236t-264 -87z" />
    <glyph glyph-name="uni03060303" 
d="M-101 1693q-103 0 -150 97q-21 50 -66 50q-40 0 -69 -37t-39 -96h-104q18 103 80 168.5t146 65.5q104 0 146 -98q21 -48 71 -48q40 0 67.5 35.5t38.5 95.5h104q-18 -102 -79 -167.5t-146 -65.5zM-316 1213q-152 0 -232.5 87t-53.5 236h117q-17 -98 35.5 -161.5
t150.5 -63.5q100 0 175.5 63.5t92.5 161.5h116q-26 -149 -137 -236t-264 -87z" />
    <glyph glyph-name="uni03020301" 
d="M-197 1701l312 333l88 -73l-271 -260h-129zM-360 1240h-127l265 296h135l162 -296h-129l-114 220z" />
    <glyph glyph-name="uni03020300" 
d="M-190 1701l-179 260l113 73l194 -333h-128zM-360 1240h-127l265 296h135l162 -296h-129l-114 220z" />
    <glyph glyph-name="uni03020309" 
d="M-184 1630l22 122q121 24 136 107q6 36 -12 59.5t-58 23.5q-46 0 -91 -33l-42 74q72 50 153 50q83 0 126.5 -47t30.5 -122q-21 -116 -156 -157l-15 -77h-94zM-360 1240h-127l265 296h135l162 -296h-129l-114 220z" />
    <glyph glyph-name="uni03020303" 
d="M2 1693q-103 0 -150 97q-21 50 -66 50q-40 0 -69 -37t-39 -96h-104q18 103 80 168.5t146 65.5q104 0 146 -98q21 -48 71 -48q40 0 67.5 35.5t38.5 95.5h104q-18 -102 -79 -167.5t-146 -65.5zM-360 1240h-127l265 296h135l162 -296h-129l-114 220z" />
    <glyph glyph-name="uni03060301.case" 
d="M-256 1976l312 333l87 -73l-270 -260h-129zM-262 1558q-157 0 -238 67.5t-56 206.5h117q-17 -88 37 -132t158 -44q105 0 174 43.5t85 132.5h117q-25 -139 -130 -206.5t-264 -67.5z" />
    <glyph glyph-name="uni03060300.case" 
d="M-250 1976l-179 260l114 73l194 -333h-129zM-262 1558q-157 0 -238 67.5t-56 206.5h117q-17 -88 37 -132t158 -44q105 0 174 43.5t85 132.5h117q-25 -139 -130 -206.5t-264 -67.5z" />
    <glyph glyph-name="uni03060309.case" 
d="M-235 1954l22 122q121 24 136 108q5 35 -13 58.5t-57 23.5q-46 0 -91 -33l-42 74q72 51 153 51q83 0 126.5 -47.5t30.5 -122.5q-21 -118 -158 -156l-13 -78h-94zM-262 1558q-157 0 -238 67.5t-56 206.5h117q-17 -88 37 -132t158 -44q105 0 174 43.5t85 132.5h117
q-25 -139 -130 -206.5t-264 -67.5z" />
    <glyph glyph-name="uni03060303.case" 
d="M-38 1965q-118 0 -168 112q-27 61 -85 61q-48 0 -84.5 -44t-49.5 -113h-105q20 115 90.5 188t163.5 73q115 0 167 -112q26 -59 87 -59q49 0 84 41.5t48 112.5h106q-21 -114 -89.5 -187t-164.5 -73zM-262 1558q-157 0 -238 67.5t-56 206.5h117q-17 -88 37 -132t158 -44
q105 0 174 43.5t85 132.5h117q-25 -139 -130 -206.5t-264 -67.5z" />
    <glyph glyph-name="uni03020301.case" 
d="M-143 1998l312 333l87 -73l-270 -260h-129zM-304 1558h-128l266 296h135l162 -296h-129l-115 220z" />
    <glyph glyph-name="uni03020300.case" 
d="M-137 1998l-179 260l114 73l194 -333h-129zM-304 1558h-128l266 296h135l162 -296h-129l-115 220z" />
    <glyph glyph-name="uni03020309.case" 
d="M-122 1976l22 122q121 24 136 108q5 35 -13 58.5t-57 23.5q-46 0 -91 -33l-42 74q72 51 153 51q83 0 126.5 -47.5t30.5 -122.5q-21 -118 -158 -156l-13 -78h-94zM-304 1558h-128l266 296h135l162 -296h-129l-115 220z" />
    <glyph glyph-name="uni03020303.case" 
d="M75 1987q-118 0 -168 112q-27 61 -85 61q-48 0 -84.5 -44t-49.5 -113h-105q20 115 90.5 188t163.5 73q115 0 167 -112q26 -59 87 -59q49 0 84 41.5t48 112.5h106q-21 -114 -89.5 -187t-164.5 -73zM-304 1558h-128l266 296h135l162 -296h-129l-115 220z" />
    </font>
</defs>
</svg>
