<?xml version="1.0" standalone="no"?>
<!DOCTYPE svg PUBLIC "-//W3C//DTD SVG 1.1//EN" "http://www.w3.org/Graphics/SVG/1.1/DTD/svg11.dtd" >
<svg xmlns="http://www.w3.org/2000/svg" xmlns:xlink="http://www.w3.org/1999/xlink" version="1.1">
<metadata>
Created by FontForge 20161013 at Sun Jul 23 14:12:04 2017
 By ,,,
Copyright (c)2016. Cerebri Sans is a trademark of Alfredo Marco Pradil. All rights reserved.
</metadata>
<defs>
<font id="CerebriSans-HeavyItalic" horiz-adv-x="0" >
  <font-face 
    font-family="Cerebri Sans Heavy Italic"
    font-weight="900"
    font-style="italic"
    font-stretch="normal"
    units-per-em="2048"
    panose-1="0 0 10 0 0 0 0 0 0 0"
    ascent="1536"
    descent="-512"
    x-height="1051"
    cap-height="1462"
    bbox="-1689 -639 2968 2442"
    underline-thickness="82"
    underline-position="-348"
    slope="-10"
    unicode-range="U+0020-FB02"
  />
<missing-glyph horiz-adv-x="1378" 
d="M240 0v1536h983v-1536h-983zM514 274h434v988h-434v-988z" />
    <glyph glyph-name="fi" unicode="fi" horiz-adv-x="1403" 
d="M815 791h-216l-140 -791h-340l139 791h-207l47 260h206l20 114q37 206 134 298.5t273 92.5q98 0 203 -34l-19 -232q-34 2 -90 2q-62 0 -106.5 -35t-54.5 -98l-19 -108h217zM1260 1556q80 0 131.5 -57.5t42.5 -138.5q-8 -83 -72.5 -141t-144.5 -58q-83 0 -136 58t-45 141
q10 81 75.5 138.5t148.5 57.5zM811 0l188 1059h367l-189 -1059h-366z" />
    <glyph glyph-name="fl" unicode="fl" horiz-adv-x="1380" 
d="M815 791h-216l-140 -791h-340l139 791h-207l47 260h206l20 114q37 206 134 298.5t273 92.5q98 0 203 -34l-19 -232q-34 2 -90 2q-62 0 -106.5 -35t-54.5 -98l-19 -108h217zM1083 1536h346l-272 -1536h-346z" />
    <glyph glyph-name="f_f" unicode="ff" horiz-adv-x="1540" 
d="M121 0l139 782h-209l49 277h209l17 92q36 215 135.5 310t283.5 95q106 0 213 -36l-20 -244h-90q-62 0 -106 -34t-54 -95l-14 -88h375l16 92q37 216 136 310.5t284 94.5q105 0 213 -36l-21 -244h-90q-62 0 -105.5 -34t-54.5 -95l-14 -88h221l-49 -277h-221l-139 -782h-365
l139 782h-374l-140 -782h-364z" />
    <glyph glyph-name=".notdef" horiz-adv-x="1378" 
d="M240 0v1536h983v-1536h-983zM514 274h434v988h-434v-988z" />
    <glyph glyph-name=".null" 
 />
    <glyph glyph-name="nonmarkingreturn" horiz-adv-x="682" 
 />
    <glyph glyph-name="space" unicode=" " horiz-adv-x="532" 
 />
    <glyph glyph-name="exclam" unicode="!" horiz-adv-x="678" 
d="M188 502l129 968h369l-211 -968h-287zM262 -20q-91 0 -144 65.5t-36 157.5q12 72 71 122t132 50q92 0 145.5 -66t36.5 -159q-12 -71 -71.5 -120.5t-133.5 -49.5z" />
    <glyph glyph-name="quotedbl" unicode="&#x22;" horiz-adv-x="1128" 
d="M260 813l62 657h346l-156 -657h-252zM719 813l74 657h344l-166 -657h-252z" />
    <glyph glyph-name="numbersign" unicode="#" horiz-adv-x="1612" 
d="M205 0l98 315h-278l75 248h281l111 338h-285l86 246h274l105 323h250l-101 -323h305l103 323h252l-103 -323h283l-82 -246h-279l-106 -338h279l-80 -248h-277l-104 -315h-248l100 315h-313l-96 -315h-250zM635 563h305l109 338h-310z" />
    <glyph glyph-name="dollar" unicode="$" horiz-adv-x="1374" 
d="M844 885q75 -23 130 -45t119 -62t101.5 -87.5t56 -120t2.5 -160.5q-19 -108 -75 -191t-137 -133.5t-175 -77t-199 -30.5l-26 -146h-123l26 149q-222 21 -353.5 141.5t-124.5 317.5l405 66q-21 -190 128 -218l57 323l-44 18q-73 23 -124 43.5t-111.5 58.5t-93.5 81.5
t-50 111t-2 149.5q33 191 192 302.5t388 113.5l23 127h122l-24 -134q89 -11 164 -40.5t136.5 -78t97 -123.5t38.5 -169l-375 -65q1 84 -26.5 125.5t-87.5 49.5l-51 -290zM608 1030q-6 -30 21 -51.5t84 -43.5l43 239q-59 -15 -98.5 -52t-49.5 -92zM862 440q8 40 -16 69
t-76 54l-48 -272q57 15 94 54t46 95z" />
    <glyph glyph-name="percent" unicode="%" horiz-adv-x="1819" 
d="M496 754q-145 0 -237.5 93t-92.5 234q0 73 31.5 146.5t85 132t131.5 95t164 36.5q144 0 236.5 -94t92.5 -234q0 -73 -31 -146t-84 -131.5t-131.5 -95t-164.5 -36.5zM281 0l1019 1470h306l-1022 -1470h-303zM508 989q69 0 116.5 47.5t47.5 116.5q0 42 -31.5 72t-75.5 30
q-67 0 -114.5 -48.5t-47.5 -119.5q0 -42 30 -70t75 -28zM1317 -16q-144 0 -237 92.5t-93 232.5q0 100 52.5 194.5t149.5 156t212 61.5q142 0 233.5 -92t91.5 -232q0 -99 -50 -193t-146 -157t-213 -63zM1331 221q66 0 114 47.5t48 114.5q0 41 -30.5 71.5t-73.5 30.5
q-69 0 -117.5 -47t-48.5 -116q0 -43 31 -72t77 -29z" />
    <glyph glyph-name="ampersand" unicode="&#x26;" horiz-adv-x="1628" 
d="M547 -20q-225 0 -361.5 104.5t-136.5 288.5q0 65 9.5 112t36 98t77 98.5t129.5 102.5t195 121q-48 74 -68 128.5t-20 111.5q0 160 124.5 253t333.5 93q193 0 300.5 -79.5t107.5 -209.5q0 -108 -74.5 -198.5t-269.5 -192.5l166 -252q138 173 170 344l321 -24
q-27 -159 -110 -310t-207 -274l196 -295h-401l-61 98q-220 -118 -457 -118zM784 1030q80 41 128.5 93.5t48.5 90.5q0 50 -74 50q-63 0 -103.5 -37.5t-40.5 -91.5q0 -11 1.5 -21t3 -16t6.5 -16.5t7.5 -14.5t11 -18t11.5 -19zM569 274q139 0 277 74l-201 320
q-159 -87 -211.5 -142.5t-52.5 -134.5q0 -57 49 -87t139 -30z" />
    <glyph glyph-name="quotesingle" unicode="'" horiz-adv-x="664" 
d="M254 813l74 657h344l-166 -657h-252z" />
    <glyph glyph-name="parenleft" unicode="(" horiz-adv-x="721" 
d="M305 -623q-176 161 -240.5 475t3.5 709q67 375 233 681.5t393 465.5l189 -266q-161 -104 -298.5 -360.5t-193.5 -573.5q-54 -303 -12 -549.5t168 -347.5z" />
    <glyph glyph-name="parenright" unicode=")" horiz-adv-x="721" 
d="M29 -639l-189 266q161 104 298.5 360.5t193.5 573.5q54 303 12 549.5t-166 347.5l240 234q176 -161 240.5 -475t-3.5 -709q-67 -375 -233 -681.5t-393 -465.5z" />
    <glyph glyph-name="asterisk" unicode="*" horiz-adv-x="1012" 
d="M420 741l-158 101l199 205q8 8 14.5 15t11 13.5t6.5 11.5t1.5 8.5t-3.5 6t-8 4t-13 1t-19 -2.5l-275 -47l33 194l235 -49q41 -8 69 21t9 61l-145 184l178 101l41 -260q7 -41 38 -29q27 12 46 53l129 236l162 -101l-203 -204q-35 -32 -33 -48.5t45 -9.5l273 45l-33 -194
l-236 51q-42 8 -68.5 -20.5t-6.5 -61.5l147 -184l-182 -101l-43 258q-6 39 -35 30q-30 -11 -49 -54z" />
    <glyph glyph-name="plus" unicode="+" horiz-adv-x="1210" 
d="M502 205v373h-373v270h373v373h270v-373h373v-270h-373v-373h-270z" />
    <glyph glyph-name="comma" unicode="," horiz-adv-x="692" 
d="M-41 -373l248 676h377l-361 -676h-264z" />
    <glyph glyph-name="hyphen" unicode="-" horiz-adv-x="975" 
d="M102 379l54 307h716l-53 -307h-717z" />
    <glyph glyph-name="period" unicode="." horiz-adv-x="662" 
d="M256 -20q-89 0 -142.5 66t-37.5 157q12 71 72 121.5t131 50.5q90 0 144 -67t38 -158q-13 -70 -73 -120t-132 -50z" />
    <glyph glyph-name="slash" unicode="/" horiz-adv-x="936" 
d="M-199 -430l1000 1966h342l-1000 -1966h-342z" />
    <glyph glyph-name="zero" unicode="0" horiz-adv-x="1270" 
d="M563 -20q-282 0 -398 196.5t-48 585.5q65 369 233.5 549t431.5 180q280 0 397 -196.5t48 -585.5q-65 -368 -233.5 -548.5t-430.5 -180.5zM573 305q102 0 180 112.5t119 344.5q72 403 -100 403q-103 0 -181.5 -112t-119.5 -344q-70 -404 102 -404z" />
    <glyph glyph-name="one" unicode="1" horiz-adv-x="1270" 
d="M723 1470h354l-260 -1470h-364l194 1099l-379 -317l58 371z" />
    <glyph glyph-name="two" unicode="2" horiz-adv-x="1270" 
d="M1233 1038q-18 -98 -74.5 -183.5t-163.5 -180.5l-416 -352h549l-57 -322h-1063l43 274l684 600q68 61 109 127t41 117q0 40 -29 64t-88 24q-192 0 -227 -215q-11 -55 -11 -135l-356 62q4 73 12 118q39 218 193 337.5t389 119.5q240 0 370.5 -122t94.5 -333z" />
    <glyph glyph-name="three" unicode="3" horiz-adv-x="1270" 
d="M563 -20q-78 0 -146 11.5t-130 37t-107 64.5t-76 94.5t-38 128t8 163.5q5 32 16 72l381 -8q-29 -75 -37 -117q-7 -40 1.5 -68t30.5 -41.5t47 -18.5t58 -5q105 0 165 54t75 140q13 77 -17 109.5t-108 32.5h-57l47 276h31q61 0 111.5 49.5t64.5 126.5q9 55 -21.5 78
t-93.5 23q-80 0 -134 -40.5t-69 -125.5q-4 -8 -4 -47l-358 45q0 30 6 59q34 194 193 306t368 112q227 0 352 -124t95 -306q-18 -102 -84 -174.5t-138 -102.5q37 -10 70.5 -34t65.5 -69t41.5 -109t-3.5 -154q-35 -202 -196.5 -320t-409.5 -118z" />
    <glyph glyph-name="four" unicode="4" horiz-adv-x="1270" 
d="M1233 1470l-156 -880h146l-56 -322h-147l-47 -268h-365l47 268h-657l51 324l619 878h565zM379 590h333l118 665z" />
    <glyph glyph-name="five" unicode="5" horiz-adv-x="1270" 
d="M1229 1149h-593l-39 -191h75q296 0 425.5 -122t86.5 -365q-42 -231 -203.5 -362.5t-394.5 -131.5q-159 0 -278.5 61t-176.5 174.5t-31 258.5q13 51 15 57l360 -12q-16 -40 -20 -70q-14 -69 24 -103t111 -34q97 0 158 50.5t75 129.5q17 93 -34 133t-211 40h-406l184 808
h930z" />
    <glyph glyph-name="six" unicode="6" horiz-adv-x="1270" 
d="M811 1016q207 -32 311.5 -173.5t63.5 -373.5q-26 -139 -122 -252t-231.5 -175t-279.5 -62q-161 0 -281.5 73.5t-174.5 199t-27 275.5q27 161 182 346l549 596h416l-414 -452q1 0 4 -0.5t4 -1.5zM840 532q17 79 -25 134t-135 55q-104 0 -179.5 -65.5t-97.5 -166.5
q-19 -80 19.5 -133t130.5 -53q106 0 186 65.5t101 163.5z" />
    <glyph glyph-name="seven" unicode="7" horiz-adv-x="1270" 
d="M285 1470h1054l-45 -274l-841 -1196h-420l829 1149h-635z" />
    <glyph glyph-name="eight" unicode="8" horiz-adv-x="1270" 
d="M563 -20q-227 0 -364.5 105t-137.5 290q0 288 275 444q-98 88 -98 232q0 133 75.5 234.5t198 153.5t270.5 52q204 0 326.5 -95.5t122.5 -254.5q0 -209 -195 -353q67 -43 106.5 -116.5t39.5 -169.5q0 -157 -84 -277t-224 -182.5t-311 -62.5zM696 905q81 0 140 50.5
t59 136.5q0 51 -38 84.5t-95 33.5q-82 0 -140.5 -50.5t-58.5 -139.5q0 -51 37 -83t96 -32zM580 303q110 0 179.5 68.5t69.5 171.5q0 62 -41 96.5t-108 34.5q-111 0 -180.5 -68.5t-69.5 -171.5q0 -63 41 -97t109 -34z" />
    <glyph glyph-name="nine" unicode="9" horiz-adv-x="1270" 
d="M788 1491q160 0 282.5 -73.5t177.5 -200t26 -275.5q-36 -170 -187 -346l-546 -596h-420l416 453q-1 0 -2.5 0.5t-2.5 1.5q-201 31 -308.5 186t-67.5 363q26 137 122 250t231.5 175t278.5 62zM936 981q20 80 -18.5 133t-131.5 53q-104 0 -184 -66t-98 -163
q-18 -79 22.5 -133.5t135.5 -54.5q103 0 177.5 65t96.5 166z" />
    <glyph glyph-name="colon" unicode=":" horiz-adv-x="641" 
d="M356 608q-88 0 -141.5 67t-38.5 159q13 69 73 119.5t130 50.5q91 0 145.5 -66.5t38.5 -157.5q-14 -71 -74.5 -121.5t-132.5 -50.5zM246 -20q-89 0 -142.5 66t-37.5 157q12 70 71.5 121t130.5 51q91 0 145 -67t38 -158q-13 -70 -73 -120t-132 -50z" />
    <glyph glyph-name="semicolon" unicode=";" horiz-adv-x="678" 
d="M408 608q-89 0 -142.5 67t-38.5 159q13 69 73 119.5t130 50.5q91 0 145.5 -66.5t38.5 -157.5q-14 -71 -74 -121.5t-132 -50.5zM-80 -373l248 676h377l-361 -676h-264z" />
    <glyph glyph-name="less" unicode="&#x3c;" horiz-adv-x="1397" 
d="M1264 1518v-299l-852 -431l852 -432v-303l-1131 572v325z" />
    <glyph glyph-name="equal" unicode="=" horiz-adv-x="1333" 
d="M207 807v270h962v-270h-962zM207 348v270h962v-270h-962z" />
    <glyph glyph-name="greater" unicode="&#x3e;" horiz-adv-x="1395" 
d="M223 1518l1131 -568v-325l-1131 -572v303l852 432l-852 431v299z" />
    <glyph glyph-name="question" unicode="?" horiz-adv-x="1094" 
d="M391 481l19 109q17 93 65.5 145.5t151.5 108.5q149 52 178 203q24 145 -127 145q-90 0 -153 -50t-79 -132q-5 -36 -2 -78l-311 69q5 55 10 82q32 183 178 295.5t357 112.5q111 0 201 -33.5t150 -94.5t84 -153.5t5 -205.5q-49 -274 -325 -386q-43 -7 -71 -32.5t-36 -61.5
l-6 -43h-289zM473 -20q-92 0 -145.5 65.5t-36.5 157.5q12 72 72 121t133 49q89 0 141.5 -65.5t36.5 -157.5q-13 -71 -71 -120.5t-130 -49.5z" />
    <glyph glyph-name="at" unicode="@" horiz-adv-x="1763" 
d="M776 -231q-149 0 -278 51.5t-219 141t-141.5 215t-51.5 269.5q0 126 41.5 256.5t123 249t191.5 211.5t258.5 148t311.5 55q154 0 284.5 -52.5t219.5 -142.5t138.5 -213t49.5 -262q0 -133 -44 -249t-134.5 -191.5t-210.5 -75.5q-101 0 -166 21.5t-109 91.5h-26
q-94 -125 -256 -125q-104 0 -177 53t-73 146q0 42 12.5 77t37.5 60t50.5 43t63 32.5t62.5 22t61 16.5l223 50q1 7 4 20t4 21q6 39 -19 60.5t-65 21.5q-56 0 -102 -35t-47 -94l-199 73q25 102 115.5 155.5t234.5 53.5q62 0 116 -11.5t102 -37t76 -74.5t28 -116
q0 -38 -20.5 -144t-20.5 -133q0 -38 18 -53t62 -15q48 0 85 22t58 55.5t34.5 80.5t18 89.5t4.5 88.5q0 207 -131 338t-350 131q-109 0 -207 -28t-171.5 -75t-135.5 -109.5t-103.5 -130t-70.5 -137.5t-42 -132t-13 -113q0 -205 136 -339t349 -134q180 0 367 109l81 -191
q-196 -116 -438 -116zM842 338q59 0 108.5 48t63.5 116l6 30l-137 -47q-55 -16 -90 -46t-35 -58q0 -43 84 -43z" />
    <glyph glyph-name="A" unicode="A" horiz-adv-x="1536" 
d="M1073 0l-48 281h-593l-147 -281h-369l795 1462h438l283 -1462h-359zM587 575h387l-96 556z" />
    <glyph glyph-name="B" unicode="B" horiz-adv-x="1300" 
d="M1048 762q177 -76 177 -279q0 -42 -5.5 -82.5t-21.5 -90t-41.5 -92t-69.5 -83.5t-102.5 -70t-143.5 -47t-188 -18h-583l258 1462h434q238 0 354.5 -87t116.5 -249q0 -258 -185 -364zM688 887q66 0 113.5 16t70.5 42t33 51.5t10 52.5q0 57 -37.5 88.5t-140.5 31.5h-120
l-48 -282h119zM635 301q61 0 108 12t74.5 30t45 43t24 48t6.5 47q0 65 -40.5 100t-154.5 35h-175l-54 -315h166z" />
    <glyph glyph-name="C" unicode="C" horiz-adv-x="1579" 
d="M748 -20q-299 0 -477.5 167t-178.5 449q0 135 38 265t113.5 242t179.5 197t245 134t301 49q262 0 435 -131t212 -351l-346 -94q-18 121 -102.5 186.5t-213.5 65.5q-112 0 -209.5 -47.5t-163 -124.5t-102.5 -174t-37 -197q0 -145 87.5 -228t232.5 -83q142 0 261 75
t181 200l318 -142q-113 -217 -319 -337.5t-455 -120.5z" />
    <glyph glyph-name="D" unicode="D" horiz-adv-x="1499" 
d="M70 0l258 1462h544q297 0 450 -149.5t153 -413.5q0 -133 -27.5 -257.5t-92 -242.5t-158.5 -205.5t-238.5 -140.5t-321.5 -53h-567zM481 313h170q98 0 176.5 35.5t129 93t85 134.5t48.5 155.5t14 159.5q0 131 -68.5 195.5t-214.5 64.5h-192z" />
    <glyph glyph-name="E" unicode="E" horiz-adv-x="1159" 
d="M1149 1151h-518l-47 -266h463l-54 -307h-463l-47 -265h518l-55 -313h-876l258 1462h876z" />
    <glyph glyph-name="F" unicode="F" horiz-adv-x="1118" 
d="M1167 1151h-536l-47 -266h463l-54 -307h-464l-103 -578h-356l258 1462h895z" />
    <glyph glyph-name="G" unicode="G" horiz-adv-x="1632" 
d="M725 -20q-289 0 -462 165.5t-173 444.5q0 135 37.5 265t113 243t179 199.5t245 136t302.5 49.5q222 0 381 -95.5t229 -261.5l-330 -145q-64 197 -291 197q-96 0 -180.5 -34.5t-145 -93.5t-104 -135.5t-65 -161.5t-21.5 -171q0 -143 82 -219t246 -76q146 0 257.5 64
t166.5 194l-356 -13l51 283h692l-145 -815h-277l37 162q-176 -182 -469 -182z" />
    <glyph glyph-name="H" unicode="H" horiz-adv-x="1604" 
d="M1249 1462h357l-260 -1462h-357l103 580h-563l-103 -580h-356l258 1462h358l-102 -575h563z" />
    <glyph glyph-name="I" unicode="I" horiz-adv-x="684" 
d="M70 0l258 1462h356l-258 -1462h-356z" />
    <glyph glyph-name="J" unicode="J" horiz-adv-x="1016" 
d="M344 -20q-205 0 -414 112l185 279q90 -72 194 -72q86 0 135.5 53.5t71.5 173.5l164 936h358l-182 -1028q-38 -224 -175.5 -339t-336.5 -115z" />
    <glyph glyph-name="K" unicode="K" horiz-adv-x="1499" 
d="M953 756l-4 -21l421 -735h-418l-332 612h-86l-108 -612h-356l258 1462h356l-95 -540h103l518 540h443z" />
    <glyph glyph-name="L" unicode="L" horiz-adv-x="987" 
d="M485 313h435l-56 -313h-794l258 1462h356z" />
    <glyph glyph-name="M" unicode="M" horiz-adv-x="1999" 
d="M1415 1462h522l-135 -1462h-354l89 1046l-511 -1046h-233l-142 1063l-284 -1063h-361l385 1462h516l112 -798z" />
    <glyph glyph-name="N" unicode="N" horiz-adv-x="1690" 
d="M1333 1462h357l-258 -1462h-416l-415 986l-175 -986h-356l258 1462h413l421 -978z" />
    <glyph glyph-name="O" unicode="O" horiz-adv-x="1645" 
d="M748 -20q-299 0 -477.5 167t-178.5 449q0 135 38 265t113.5 242t179.5 197t245 134t301 49q297 0 476 -166.5t179 -448.5q0 -170 -61.5 -329t-171.5 -283.5t-278 -200t-365 -75.5zM762 305q114 0 212 48t162.5 125.5t101 174t36.5 195.5q0 144 -87 227.5t-233 83.5
q-112 0 -209.5 -47.5t-163 -124.5t-102.5 -174t-37 -197q0 -145 87.5 -228t232.5 -83z" />
    <glyph glyph-name="P" unicode="P" horiz-adv-x="1323" 
d="M907 1462q219 0 335 -116.5t116 -311.5q0 -81 -21.5 -157t-66.5 -144t-110 -119t-158 -80.5t-203 -29.5h-285l-88 -504h-356l258 1462h579zM768 801q60 0 107 14.5t74.5 36t45 50.5t23.5 54.5t6 51.5q0 159 -168 159h-226l-64 -366h202z" />
    <glyph glyph-name="Q" unicode="Q" horiz-adv-x="1681" 
d="M1649 866q0 -190 -76 -365t-216 -301l171 -255l-303 -113l-143 203q-152 -55 -322 -55q-304 0 -486 167.5t-182 450.5q0 113 28 222.5t80 207.5t130 181.5t174.5 144t218.5 95t256 34.5q304 0 487 -167t183 -450zM442 606q0 -151 89 -235t237 -84q119 0 221 49.5
t167.5 130t102.5 180t37 201.5q0 144 -89.5 227.5t-239.5 83.5q-117 0 -218 -48t-167 -126.5t-103 -177t-37 -201.5z" />
    <glyph glyph-name="R" unicode="R" horiz-adv-x="1352" 
d="M1290 1094q0 -172 -92.5 -293.5t-271.5 -153.5l327 -647h-395l-292 637h-28l-112 -637h-356l258 1462h540q213 0 317.5 -99.5t104.5 -268.5zM631 1169l-56 -317h127q68 0 119.5 18.5t77.5 48.5t38.5 60.5t12.5 60.5q0 65 -38.5 97t-131.5 32h-149z" />
    <glyph glyph-name="S" unicode="S" horiz-adv-x="1298" 
d="M612 -20q-166 0 -297 52t-207.5 156t-72.5 244l379 62q2 -109 56.5 -168.5t164.5 -59.5q92 0 150.5 50t58.5 116q0 32 -13 57.5t-35.5 44t-54 34.5t-67 29t-76.5 27q-11 3 -16 5q-48 16 -81 28.5t-77 33t-73.5 41t-61.5 50.5t-51 63.5t-31 78t-12 96.5q0 137 74.5 243.5
t202.5 163t288 56.5q105 0 200 -23.5t176 -70.5t130.5 -128.5t52.5 -187.5l-350 -61q1 97 -50.5 140.5t-142.5 43.5q-95 0 -159 -40.5t-64 -104.5q0 -34 16.5 -60t50.5 -45t70 -32.5t91 -30.5q3 -1 5 -1.5t4.5 -1t4.5 -1.5q49 -16 85 -29t82.5 -34.5t79.5 -43.5t67.5 -54
t56 -68t35 -84t13.5 -103q0 -147 -80 -258t-215.5 -168t-306.5 -57z" />
    <glyph glyph-name="T" unicode="T" horiz-adv-x="1081" 
d="M1219 1462l-56 -311h-335l-203 -1151h-353l203 1151h-338l56 311h1026z" />
    <glyph glyph-name="U" unicode="U" horiz-adv-x="1452" 
d="M649 -20q-157 0 -273 44.5t-185.5 143.5t-69.5 244q0 60 12 125l164 925h356l-157 -901q-11 -55 -11 -94q0 -95 46 -134.5t128 -39.5q116 0 199 70.5t111 220.5l155 878h357l-168 -950q-25 -142 -87.5 -246.5t-152.5 -166t-195.5 -90.5t-228.5 -29z" />
    <glyph glyph-name="V" unicode="V" horiz-adv-x="1499" 
d="M1266 1462h387l-801 -1462h-399l-279 1462h371l175 -1051z" />
    <glyph glyph-name="W" unicode="W" horiz-adv-x="2226" 
d="M299 0l-109 1462h361l67 -1063l500 1063h299l117 -1063l451 1063h378l-622 -1462h-469l-109 805l-395 -805h-469z" />
    <glyph glyph-name="X" unicode="X" horiz-adv-x="1581" 
d="M-86 0l709 762l-430 700h425l254 -440l418 440h441l-687 -700l433 -762h-445l-239 469l-414 -469h-465z" />
    <glyph glyph-name="Y" unicode="Y" horiz-adv-x="1319" 
d="M1485 1462l-622 -771l-122 -691h-358l125 701l-346 761h375l188 -452l352 452h408z" />
    <glyph glyph-name="Z" unicode="Z" horiz-adv-x="1225" 
d="M1300 1462l-45 -278l-780 -871h629l-55 -313h-1059l47 279l781 872h-625l55 311h1052z" />
    <glyph glyph-name="bracketleft" unicode="[" horiz-adv-x="750" 
d="M-53 -512l362 2048h584l-45 -254h-264l-273 -1540h264l-45 -254h-583z" />
    <glyph glyph-name="backslash" unicode="\" horiz-adv-x="1604" 
d="M1135 -430l-1000 1966h342l1000 -1966h-342z" />
    <glyph glyph-name="bracketright" unicode="]" horiz-adv-x="748" 
d="M-150 -512l46 254h264l272 1540h-264l45 254h584l-363 -2048h-584z" />
    <glyph glyph-name="asciicircum" unicode="^" horiz-adv-x="1444" 
d="M1366 340h-297l-228 819l-515 -819h-314l711 1130h330z" />
    <glyph glyph-name="underscore" unicode="_" horiz-adv-x="1282" 
d="M-18 -307l53 307h1024l-53 -307h-1024z" />
    <glyph glyph-name="grave" unicode="`" horiz-adv-x="489" 
d="M375 1182l-178 272l194 123l201 -395h-217z" />
    <glyph glyph-name="a" unicode="a" horiz-adv-x="1333" 
d="M952 1051h342l-186 -1051h-303l2 112q-49 -69 -135 -104t-189 -35q-196 0 -320 120.5t-124 334.5q0 122 43 237t118.5 205t188 144.5t242.5 54.5q106 0 186 -35.5t116 -98.5zM586 256q69 0 128.5 29.5t98 76t60.5 103.5t22 113q0 91 -53.5 150.5t-155.5 59.5
q-89 0 -159.5 -48t-106 -121.5t-35.5 -155.5q0 -99 54 -153t147 -54z" />
    <glyph glyph-name="b" unicode="b" horiz-adv-x="1333" 
d="M848 1069q195 0 318.5 -118.5t123.5 -325.5q0 -125 -42.5 -242.5t-117.5 -208.5t-188 -146t-244 -55q-109 0 -192 39.5t-116 110.5l-28 -123h-325l272 1536h342l-97 -567q103 100 294 100zM631 256q95 0 169.5 51.5t111 127.5t36.5 157q0 94 -52.5 145t-141.5 51
q-93 0 -168 -50.5t-113.5 -127t-38.5 -159.5q0 -92 54.5 -143.5t142.5 -51.5z" />
    <glyph glyph-name="c" unicode="c" horiz-adv-x="1194" 
d="M549 -20q-236 0 -374 125t-138 333q0 97 28.5 189.5t85 172.5t134.5 140t184 94.5t227 34.5q221 0 350 -110t128 -304l-314 -6q-3 85 -45.5 120.5t-124.5 35.5q-59 0 -110.5 -23t-88.5 -60.5t-63.5 -86t-39.5 -101t-13 -102.5q0 -86 45 -135t129 -49q95 0 165 45.5
t103 132.5l309 -53q-66 -190 -221 -291.5t-356 -101.5z" />
    <glyph glyph-name="d" unicode="d" horiz-adv-x="1331" 
d="M1038 1536h342l-272 -1536h-322l9 95q-52 -60 -134 -91t-178 -31q-196 0 -320 120t-124 329q0 100 27 195.5t79 177t123.5 143t165.5 96.5t199 35q104 0 185 -36.5t116 -100.5zM594 256q91 0 160.5 48t103 119t33.5 150q0 103 -57 159t-152 56q-132 0 -214.5 -95
t-82.5 -220q0 -103 57 -160t152 -57z" />
    <glyph glyph-name="e" unicode="e" horiz-adv-x="1198" 
d="M688 1071q217 0 344 -105t127 -313q0 -59 -12 -127l-14 -69h-763q-1 -14 -1 -41q0 -85 49.5 -127.5t134.5 -42.5q76 0 138 34.5t100 96.5l309 -64q-77 -162 -222.5 -247.5t-326.5 -85.5q-242 0 -377 116t-135 326q0 128 42.5 243.5t122 206.5t205 145t279.5 54zM684 838
q-180 0 -260 -158h419q1 5 1 16q0 70 -44.5 106t-115.5 36z" />
    <glyph glyph-name="f" unicode="f" horiz-adv-x="774" 
d="M825 1292q-62 0 -106.5 -35t-54.5 -98l-19 -108h217l-47 -260h-216l-140 -791h-340l139 791h-207l47 260h206l20 114q37 206 134 298.5t273 92.5q98 0 203 -34l-19 -232q-34 2 -90 2z" />
    <glyph glyph-name="g" unicode="g" horiz-adv-x="1292" 
d="M928 1051h325l-172 -973q-22 -127 -65.5 -224.5t-101.5 -163t-135.5 -107t-163 -59.5t-187.5 -18q-447 0 -514 340l293 93q28 -93 75 -131.5t134 -38.5q135 0 216.5 79.5t104.5 225.5l11 67q-51 -47 -128 -74.5t-163 -27.5q-181 0 -297.5 116.5t-116.5 311.5
q0 164 73.5 302t201 219t280.5 81q108 0 187.5 -41t113.5 -107zM569 313q118 0 205.5 87t87.5 210q0 85 -53.5 139t-140.5 54q-123 0 -209 -90.5t-86 -208.5q0 -85 54 -138t142 -53z" />
    <glyph glyph-name="h" unicode="h" horiz-adv-x="1266" 
d="M891 1069q144 0 223.5 -75t79.5 -208q0 -26 -8 -92l-125 -694h-340l117 664q4 28 4 41q0 94 -107 94q-35 0 -69.5 -9.5t-71 -31.5t-66 -64t-46.5 -100l-105 -594h-340l272 1536h340l-111 -625q148 158 353 158z" />
    <glyph glyph-name="i" unicode="i" horiz-adv-x="629" 
d="M443 1161q-83 0 -136 58t-45 141q10 81 75.5 138.5t148.5 57.5q80 0 131.5 -57.5t42.5 -138.5q-8 -83 -72.5 -141t-144.5 -58zM37 0l188 1059h367l-189 -1059h-366z" />
    <glyph glyph-name="j" unicode="j" horiz-adv-x="633" 
d="M445 1161q-83 0 -136 58t-45 141q10 81 75.5 138.5t148.5 57.5q80 0 131.5 -57.5t42.5 -138.5q-8 -83 -72.5 -141t-144.5 -58zM-236 -498l46 279q64 0 105.5 16.5t67.5 56.5t39 84t27 123l176 998h371l-180 -1022q-49 -275 -201.5 -405t-450.5 -130z" />
    <glyph glyph-name="k" unicode="k" horiz-adv-x="1231" 
d="M1315 1051l-505 -497l341 -554h-399l-248 430h-45l-76 -430h-346l272 1536h346l-154 -872h51l372 387h391z" />
    <glyph glyph-name="l" unicode="l" horiz-adv-x="606" 
d="M37 0l272 1536h346l-272 -1536h-346z" />
    <glyph glyph-name="m" unicode="m" horiz-adv-x="1898" 
d="M1507 1069q149 0 235.5 -69.5t86.5 -194.5q0 -37 -6 -74l-129 -731h-340l114 655q5 42 5 45q0 53 -29 76t-86 23q-71 0 -135 -57t-82 -169h-1l-102 -573h-344l115 655q4 34 4 45q0 52 -29 75.5t-86 23.5q-71 0 -135.5 -57t-83.5 -169h-1l-101 -573h-340l186 1051h340
l-26 -145q143 163 327 163q117 0 194.5 -44t105.5 -124q150 168 343 168z" />
    <glyph glyph-name="n" unicode="n" horiz-adv-x="1266" 
d="M891 1069q145 0 224 -74.5t79 -208.5q0 -26 -8 -92l-125 -694h-342l119 664q4 28 4 38q0 52 -31 74.5t-92 22.5q-71 0 -139 -50t-98 -155l-105 -594h-340l186 1051h340l-25 -141q147 159 353 159z" />
    <glyph glyph-name="o" unicode="o" horiz-adv-x="1284" 
d="M565 -20q-241 0 -383.5 119.5t-142.5 332.5q0 130 45.5 245t129.5 202.5t213.5 138.5t287.5 51q243 0 385.5 -119.5t142.5 -331.5q0 -130 -46 -245.5t-131 -203t-214.5 -138.5t-286.5 -51zM573 248q78 0 143 32.5t104.5 84.5t61 113.5t21.5 123.5q0 92 -54 147.5
t-151 55.5q-75 0 -137.5 -33t-101 -86t-59.5 -114t-21 -121q0 -95 51 -149t143 -54z" />
    <glyph glyph-name="p" unicode="p" horiz-adv-x="1331" 
d="M846 1069q195 0 318.5 -118.5t123.5 -325.5q0 -125 -42.5 -242.5t-117.5 -208.5t-188 -146t-244 -55q-104 0 -185 36t-117 101l-105 -612h-342l274 1553h322l-10 -102q51 60 133.5 90t179.5 30zM637 256q70 0 129.5 29t97.5 75.5t59 104.5t21 117q0 98 -55 152t-148 54
q-90 0 -162 -48.5t-108.5 -122t-36.5 -154.5q0 -98 56 -152.5t147 -54.5z" />
    <glyph glyph-name="q" unicode="q" horiz-adv-x="1335" 
d="M971 1051h325l-274 -1553h-342l99 579q-104 -104 -294 -104q-196 0 -320 120t-124 329q0 100 27 195.5t79 177t123.5 143t165.5 96.5t199 35q108 0 191 -39t116 -107zM586 256q93 0 165.5 49.5t108 122.5t35.5 152q0 98 -56 153t-147 55q-136 0 -220.5 -97t-84.5 -226
q0 -101 53 -155t146 -54z" />
    <glyph glyph-name="r" unicode="r" horiz-adv-x="811" 
d="M523 887q55 70 156.5 122t209.5 52l-60 -326q-158 0 -249 -68.5t-117 -213.5l-80 -453h-346l186 1051h328z" />
    <glyph glyph-name="s" unicode="s" horiz-adv-x="999" 
d="M424 -20q-198 0 -307.5 79t-114.5 224l313 57q-1 -67 36.5 -102t97.5 -35q51 0 88.5 29t37.5 85q0 23 -8.5 40.5t-20 28.5t-39.5 22t-49 17.5t-67 18.5q-51 14 -87.5 27.5t-76.5 36.5t-64.5 50.5t-40.5 70.5t-16 96q0 84 36 150.5t98.5 108.5t143 63.5t173.5 21.5
q82 0 153.5 -17t129 -50.5t92 -91t37.5 -132.5l-279 -37q-2 107 -127 107q-60 0 -97.5 -26t-37.5 -72q0 -15 4.5 -27.5t15 -21.5t21 -15.5t30 -12.5t33.5 -9.5l40 -10l42 -10.5q68 -18 116.5 -39t92 -55t66 -85.5t22.5 -119.5q0 -90 -37.5 -160.5t-104 -114.5t-154 -66.5
t-191.5 -22.5z" />
    <glyph glyph-name="t" unicode="t" horiz-adv-x="831" 
d="M463 0q-141 0 -218 72t-77 202q0 32 10 82l78 435h-205l47 260h49q86 0 146.5 48.5t77.5 141.5l24 141h310l-58 -331h205l-45 -260h-207l-74 -418q-4 -19 -4 -45q0 -41 20 -56.5t64 -15.5h107l-47 -256h-203z" />
    <glyph glyph-name="u" unicode="u" horiz-adv-x="1266" 
d="M887 1051h340l-187 -1051h-319l17 153q-70 -81 -162.5 -127t-198.5 -46q-149 0 -228 74.5t-79 209.5q0 47 8 90l125 697h340l-111 -627q-6 -32 -6 -53q0 -109 111 -109q93 0 160 54.5t85 150.5h2z" />
    <glyph glyph-name="v" unicode="v" horiz-adv-x="1176" 
d="M915 1051h367l-641 -1051h-299l-264 1051h352l124 -668z" />
    <glyph glyph-name="w" unicode="w" horiz-adv-x="1817" 
d="M1556 1051h359l-555 -1053h-320l-110 642l-340 -642h-324l-178 1053h346l87 -630l341 630h264l119 -628z" />
    <glyph glyph-name="x" unicode="x" horiz-adv-x="1280" 
d="M-106 0l538 526l-344 525h418l164 -301l278 301h434l-540 -527l346 -524h-416l-164 297l-276 -297h-438z" />
    <glyph glyph-name="y" unicode="y" horiz-adv-x="1167" 
d="M922 1051h352l-936 -1545h-350l352 559l-262 986h362l118 -633z" />
    <glyph glyph-name="z" unicode="z" horiz-adv-x="965" 
d="M1022 1051l-551 -791h385l-45 -260h-881l550 791h-367l47 260h862z" />
    <glyph glyph-name="braceleft" unicode="{" horiz-adv-x="731" 
d="M371 -483q-169 0 -254.5 91.5t-63.5 221.5l68 387q6 35 9.5 59.5t4 45t0.5 33t-6.5 23.5t-10.5 16t-17.5 11.5t-21.5 8.5t-29 8t-34 10l13 195q10 3 29 8q33 9 47.5 13.5t36.5 15.5t32 24t23 36.5t21.5 56t17.5 79.5l67 387q23 129 127.5 209t274.5 80h159l-47 -258h-63
q-40 0 -77 -27t-44 -73l-60 -332q-9 -51 -18 -84.5t-24.5 -69.5t-38 -60t-57 -46t-82 -37.5t-111.5 -26.5q106 -21 160 -67.5t62 -114t-7 -158.5l-60 -336q-9 -49 4 -61t64 -12h88l-45 -256h-137z" />
    <glyph glyph-name="bar" unicode="|" horiz-adv-x="616" 
d="M49 -307l326 1843h223l-326 -1843h-223z" />
    <glyph glyph-name="braceright" unicode="}" horiz-adv-x="731" 
d="M-133 -483l45 256h63q107 0 121 98l60 336q14 76 29.5 121t50.5 88.5t95.5 70t155.5 43.5q-106 20 -160 66t-61.5 114t6.5 160l60 332q8 46 -9 61t-59 15h-88l47 258h135q169 0 256 -91.5t64 -221.5l-70 -387q-6 -35 -9.5 -60t-4 -45.5t-0.5 -33.5t6.5 -24t10 -16.5
t17.5 -11.5t22 -8.5t29 -8.5t34 -10l-13 -194q-88 -25 -106 -33q-49 -24 -72 -90q-14 -40 -26 -108l-68 -388q-24 -129 -129 -208.5t-274 -79.5h-158z" />
    <glyph glyph-name="asciitilde" unicode="~" horiz-adv-x="1343" 
d="M870 295q-49 0 -93.5 12t-80 34.5t-57.5 39.5t-48.5 43.5t-31.5 30.5q-35 30 -67 30q-40 0 -66 -28t-36 -66t-11 -84h-252q-9 194 90 312t283 118q93 0 152.5 -33.5t115.5 -111.5q37 -53 80 -53q48 0 80 48t26 128h248q20 -178 -75.5 -299t-256.5 -121z" />
    <glyph glyph-name="exclamdown" unicode="&#xa1;" horiz-adv-x="678" 
d="M385 680q-90 0 -143 66t-37 159q14 71 72.5 120.5t132.5 49.5q90 0 143.5 -65.5t38.5 -157.5q-14 -73 -73.5 -122.5t-133.5 -49.5zM-16 -416l213 969h286l-131 -969h-368z" />
    <glyph glyph-name="cent" unicode="&#xa2;" horiz-adv-x="1110" 
d="M801 631l221 -244q-149 -145 -361 -164l-40 -223h-209l42 239q-179 47 -265 196.5t-50 361.5q36 204 173.5 342t331.5 171l40 226h209l-40 -226q186 -34 290 -177l-273 -199q-36 82 -127 82t-167 -75t-99 -198q-18 -101 20.5 -160t112.5 -59q56 0 106.5 30t84.5 77z" />
    <glyph glyph-name="sterling" unicode="&#xa3;" horiz-adv-x="1329" 
d="M25 0l36 211l52 20q49 14 83 52t44 90l34 205h-147l45 256h147l23 120q41 242 205.5 391.5t388.5 149.5q59 0 113 -11t105 -36t88.5 -62t60 -94t22.5 -127q0 -54 -22 -149l-326 -47q43 100 43 153q0 78 -98 78t-164 -69.5t-90 -200.5l-17 -96h254l-45 -256h-254l-47 -271
h580l-56 -307h-1058z" />
    <glyph glyph-name="currency" unicode="&#xa4;" horiz-adv-x="1393" 
d="M270 176l-164 201l138 123q-33 83 -33 174q0 187 115 338l-88 96l217 201l94 -109q121 62 252 62q145 0 254 -74l139 119l168 -195l-137 -123q30 -80 30 -172q0 -200 -114 -344l90 -96l-217 -201l-94 109q-120 -60 -254 -60q-142 0 -254 72zM694 496q65 0 120 26t90.5 68
t55 93t19.5 103q0 86 -52.5 144.5t-152.5 58.5q-66 0 -121.5 -26t-91 -68.5t-55 -93.5t-19.5 -103q0 -87 53 -144.5t154 -57.5z" />
    <glyph glyph-name="yen" unicode="&#xa5;" horiz-adv-x="1444" 
d="M436 0l33 182h-303l37 209h303l31 178h-304l37 209h258l-315 692h410l176 -434l342 434h424l-557 -692h245l-36 -209h-299l-31 -178h299l-37 -209h-299l-33 -182h-381z" />
    <glyph glyph-name="brokenbar" unicode="&#xa6;" horiz-adv-x="616" 
d="M244 799l131 737h223l-131 -737h-223zM49 -307l129 737h223l-129 -737h-223z" />
    <glyph glyph-name="section" unicode="&#xa7;" horiz-adv-x="1270" 
d="M766 918q91 -27 151.5 -53.5t126.5 -74.5t91 -122.5t8 -173.5q-29 -162 -153 -261q88 -105 61 -262q-14 -79 -51 -143t-89 -107t-119 -72t-138.5 -42t-149.5 -13q-228 0 -368 109t-134 297l320 47q-8 -106 43 -156.5t147 -50.5q90 0 154 45t77 125q6 31 -4 55t-45 45.5
t-59.5 32.5t-83.5 33q-11 4 -17 6.5t-15 6t-17 6.5q-86 25 -144.5 50.5t-118 70.5t-81.5 114.5t-6 161.5q28 162 164 259q-100 99 -72 261q30 172 171.5 268.5t344.5 96.5q95 0 179 -21.5t153 -64t110 -115t43 -166.5l-297 -49q0 93 -41 131.5t-125 38.5q-92 0 -158.5 -42
t-80.5 -122q-3 -16 1 -29.5t16 -25t24.5 -20.5t37 -19t42 -17t50 -18.5t52.5 -19.5zM453 547q-3 -16 0.5 -29.5t15.5 -25t24 -20.5t36.5 -19.5t42 -17.5t50.5 -19t52 -19l41 -12q46 16 79 54t42 91q5 30 -5 53.5t-41.5 43.5t-57.5 32t-80 33q-4 1 -6 2t-5.5 2.5t-6.5 2.5
q-69 -7 -119.5 -47t-61.5 -105z" />
    <glyph glyph-name="dieresis" unicode="&#xa8;" horiz-adv-x="952" 
d="M408 1161q-84 0 -137 58t-44 141q10 81 75.5 138.5t148.5 57.5q79 0 130.5 -57.5t43.5 -138.5q-8 -83 -72.5 -141t-144.5 -58zM877 1161q-84 0 -137 58t-44 141q10 81 75.5 138.5t148.5 57.5q79 0 130.5 -57.5t43.5 -138.5q-8 -83 -72.5 -141t-144.5 -58z" />
    <glyph glyph-name="copyright" unicode="&#xa9;" horiz-adv-x="1710" 
d="M891 -20q-153 0 -293 60t-241.5 161t-161.5 241t-60 293t60 293t161.5 241.5t241.5 161.5t293 60t293 -60t241.5 -161.5t161.5 -241.5t60 -293t-60 -293t-161.5 -241t-241.5 -161t-293 -60zM891 162q158 0 289.5 76t207.5 207.5t76 289.5q0 159 -76 290.5t-207.5 207.5
t-289.5 76q-241 0 -407.5 -166.5t-166.5 -407.5q0 -158 76 -289.5t207.5 -207.5t290.5 -76zM897 315q-173 0 -296.5 123.5t-123.5 296.5q0 175 123 297.5t297 122.5q101 0 189.5 -44.5t146.5 -121.5l-158 -119q-60 93 -178 93q-94 0 -156.5 -64.5t-62.5 -163.5
q0 -98 62.5 -161.5t156.5 -63.5q117 0 178 92l158 -119q-58 -78 -146.5 -123t-189.5 -45z" />
    <glyph glyph-name="ordfeminine" unicode="&#xaa;" horiz-adv-x="944" 
d="M760 1536h201l-109 -614h-201l9 52q-76 -65 -177 -65q-118 0 -193 79t-75 200q0 88 41.5 169.5t122 136t180.5 54.5q133 0 189 -81zM526 1083q74 0 127.5 53.5t53.5 123.5q0 57 -31.5 85.5t-81.5 28.5q-90 0 -136 -56t-46 -120q0 -115 114 -115z" />
    <glyph glyph-name="guillemotleft" unicode="&#xab;" horiz-adv-x="1182" 
d="M299 305l-250 377l373 377h297l-383 -377l242 -377h-279zM819 305l-250 377l373 377h299l-383 -377l242 -377h-281z" />
    <glyph glyph-name="logicalnot" unicode="&#xac;" horiz-adv-x="1751" 
d="M1284 242v524h-1112v293h1403v-817h-291z" />
    <glyph glyph-name="uni00AD" unicode="&#xad;" horiz-adv-x="975" 
d="M102 379l54 307h716l-53 -307h-717z" />
    <glyph glyph-name="registered" unicode="&#xae;" horiz-adv-x="1710" 
d="M891 1491q153 0 293 -60t241.5 -161.5t161.5 -241.5t60 -293t-60 -293t-161.5 -241t-241.5 -161t-293 -60t-293 60t-241.5 161t-161.5 241t-60 293t60 293t161.5 241.5t241.5 161.5t293 60zM891 162q158 0 289.5 76t207.5 207.5t76 289.5q0 159 -76 290.5t-207.5 207.5
t-289.5 76q-241 0 -407.5 -166.5t-166.5 -407.5q0 -158 76 -289.5t207.5 -207.5t290.5 -76zM1198 881q0 -64 -30 -115.5t-82 -79.5l133 -321h-201l-107 292h-82v-292h-182v741h326q95 0 160 -65.5t65 -159.5zM829 946v-139h115q33 0 55.5 20.5t22.5 49.5q0 31 -22 50t-56 19
h-115z" />
    <glyph glyph-name="macron" unicode="&#xaf;" horiz-adv-x="930" 
d="M248 1210l37 209h676l-37 -209h-676z" />
    <glyph glyph-name="degree" unicode="&#xb0;" horiz-adv-x="895" 
d="M561 852q-134 0 -226.5 92t-92.5 227q0 134 92.5 227t226.5 93t227 -93t93 -227q0 -135 -93 -227t-227 -92zM561 1049q52 0 86.5 35t34.5 87q0 53 -34 87t-87 34q-52 0 -86.5 -34.5t-34.5 -86.5t34.5 -87t86.5 -35z" />
    <glyph glyph-name="plusminus" unicode="&#xb1;" horiz-adv-x="1321" 
d="M528 387v373h-372v270h372v373h271v-373h372v-270h-372v-373h-271zM143 -2v270h1028v-270h-1028z" />
    <glyph glyph-name="acute" unicode="&#xb4;" horiz-adv-x="487" 
d="M127 1182l340 395l154 -123l-277 -272h-217z" />
    <glyph glyph-name="uni00B5" unicode="&#xb5;" horiz-adv-x="1348" 
d="M987 1059h311l-188 -1059h-311l17 98q-132 -118 -292 -118q-69 0 -132 22l-91 -514h-289l279 1571h311l-113 -637q-13 -76 23 -123t106 -47q88 0 162.5 53t95.5 126z" />
    <glyph glyph-name="paragraph" unicode="&#xb6;" horiz-adv-x="1194" 
d="M297 -307l192 1091h-10q-171 0 -256 98t-55 273q28 155 132.5 235t274.5 80h216l-314 -1777h-180zM668 -307l313 1777h182l-313 -1777h-182z" />
    <glyph glyph-name="periodcentered" unicode="&#xb7;" horiz-adv-x="569" 
d="M319 596q-67 0 -107 49t-28 119q10 47 50.5 81t89.5 34q63 0 104 -50.5t31 -117.5q-10 -49 -51.5 -82t-88.5 -33z" />
    <glyph glyph-name="cedilla" unicode="&#xb8;" horiz-adv-x="575" 
d="M102 -532q-93 0 -148.5 46.5t-64.5 118.5l164 50q4 -28 23 -43t45 -15q31 0 57.5 20t32.5 54q7 36 -12.5 56t-51.5 20q-47 0 -75 -37l-113 69l168 226h166l-117 -146q24 4 39 4q84 0 128.5 -54t29.5 -138q-17 -97 -95.5 -164t-175.5 -67z" />
    <glyph glyph-name="ordmasculine" unicode="&#xba;" horiz-adv-x="866" 
d="M522 909q-137 0 -224 81.5t-87 205.5q0 137 108.5 244.5t268.5 107.5q137 0 225 -83t88 -208q0 -140 -114 -244t-265 -104zM526 1083q72 0 125.5 55.5t53.5 118.5q0 50 -35 83.5t-86 33.5q-46 0 -81.5 -19t-54.5 -47.5t-28.5 -57.5t-9.5 -54q0 -46 34.5 -79.5t81.5 -33.5
z" />
    <glyph glyph-name="guillemotright" unicode="&#xbb;" horiz-adv-x="1180" 
d="M-6 305l381 377l-240 377h277l250 -377l-373 -377h-295zM514 305l381 377l-240 377h279l250 -377l-373 -377h-297z" />
    <glyph glyph-name="onequarter" unicode="&#xbc;" horiz-adv-x="1749" 
d="M1270 1536h229l-1137 -1536h-231zM219 614l132 731l-197 -135l26 193l215 133h195l-164 -922h-207zM1669 922l-102 -576h94l-27 -151h-94l-35 -195h-198l34 195h-413l28 184l439 543h274zM1122 346h246l74 418z" />
    <glyph glyph-name="onehalf" unicode="&#xbd;" horiz-adv-x="1761" 
d="M1266 1536h229l-1137 -1536h-231zM215 614l132 732l-197 -136l32 193l209 133h195l-164 -922h-207zM1704 625q-22 -126 -136.5 -252t-307.5 -213h372l-28 -160h-633l24 201q121 63 212.5 122t145.5 104.5t89 90t48.5 75.5t18.5 64q4 23 4 40.5t-2.5 28.5t-9.5 19
t-12 11.5t-16 5.5t-16 2h-17q-70 0 -108.5 -47.5t-43.5 -106.5l-209 25q19 134 120 217.5t239 83.5q143 0 217 -87.5t49 -223.5z" />
    <glyph glyph-name="threequarters" unicode="&#xbe;" horiz-adv-x="1954" 
d="M648 1107q52 -35 80 -87.5t30 -108t-21.5 -111.5t-66.5 -99.5t-112.5 -71t-154.5 -27.5q-146 0 -231 82.5t-63 200.5l208 -25q-8 -53 9.5 -71.5t58.5 -18.5q88 0 139 66q43 55 27 109q-18 61 -103 67h-14h-43l27 155h6q84 0 136 71q39 56 29 106q-9 45 -57 45
q-114 0 -137 -129l-205 24q23 126 111 195t213 69q91 0 154.5 -33t88.5 -85t24 -110.5t-36.5 -116t-96.5 -96.5zM1477 1536h229l-1137 -1536h-231zM1876 922l-102 -576h94l-27 -151h-94l-35 -195h-199l35 195h-413l28 184l439 543h274zM1329 346h245l75 418z" />
    <glyph glyph-name="questiondown" unicode="&#xbf;" horiz-adv-x="1094" 
d="M584 686q-90 0 -142.5 65t-35.5 158q12 71 70 120.5t130 49.5q92 0 145.5 -65.5t36.5 -157.5q-12 -71 -71.5 -120.5t-132.5 -49.5zM401 -432q-111 0 -201 33.5t-150 94.5t-84 153.5t-5 205.5q49 275 326 385q42 8 70 33.5t36 61.5l6 43h289l-18 -109q-18 -94 -66 -146
t-151 -108q-150 -52 -179 -203q-24 -145 127 -145q90 0 153 50t79 132q5 34 2 78l311 -70q-5 -58 -10 -82q-33 -182 -178.5 -294.5t-356.5 -112.5z" />
    <glyph glyph-name="Agrave" unicode="&#xc0;" horiz-adv-x="1536" 
d="M1066 1589h-218l-180 273l197 123zM1073 0l-48 281h-593l-147 -281h-369l795 1462h438l283 -1462h-359zM587 575h387l-96 556z" />
    <glyph glyph-name="Aacute" unicode="&#xc1;" horiz-adv-x="1536" 
d="M1343 1862l-274 -273h-217l340 396zM1073 0l-48 281h-593l-147 -281h-369l795 1462h438l283 -1462h-359zM587 575h387l-96 556z" />
    <glyph glyph-name="Acircumflex" unicode="&#xc2;" horiz-adv-x="1536" 
d="M988 1766l-154 -177h-217l291 301h205l184 -301h-217zM1073 0l-48 281h-593l-147 -281h-369l795 1462h438l283 -1462h-359zM587 575h387l-96 556z" />
    <glyph glyph-name="Atilde" unicode="&#xc3;" horiz-adv-x="1536" 
d="M879 1745q-65 0 -90 -141h-185q25 142 106.5 231.5t192.5 89.5q130 0 187 -121q7 -12 10.5 -17.5t12.5 -11t22 -5.5q33 0 53.5 36t34.5 105h186q-26 -142 -105 -232t-196 -90q-127 0 -186 121q-17 35 -43 35zM1073 0l-48 281h-593l-147 -281h-369l795 1462h438l283 -1462
h-359zM587 575h387l-96 556z" />
    <glyph glyph-name="Adieresis" unicode="&#xc4;" horiz-adv-x="1536" 
d="M733 1589q-68 0 -108.5 48.5t-28.5 117.5q12 67 69.5 115.5t125.5 48.5t108.5 -48.5t28.5 -115.5q-13 -69 -70 -117.5t-125 -48.5zM1182 1589q-69 0 -109.5 48.5t-27.5 117.5q12 68 68.5 116t125.5 48q68 0 108 -48.5t27 -115.5q-12 -69 -68 -117.5t-124 -48.5zM1073 0
l-48 281h-593l-147 -281h-369l795 1462h438l283 -1462h-359zM587 575h387l-96 556z" />
    <glyph glyph-name="Aring" unicode="&#xc5;" horiz-adv-x="1536" 
d="M970 1589q-99 0 -162.5 60t-68.5 155q-6 118 80.5 210t214.5 92q99 0 159.5 -59.5t65.5 -153.5q6 -119 -78.5 -211.5t-210.5 -92.5zM1018 1964q-59 0 -94 -41.5t-35 -95.5q0 -44 24.5 -68t71.5 -24q63 0 97 39.5t34 91.5q0 42 -25.5 70t-72.5 28zM1073 0l-48 281h-593
l-147 -281h-369l795 1462h438l283 -1462h-359zM587 575h387l-96 556z" />
    <glyph glyph-name="AE" unicode="&#xc6;" horiz-adv-x="1958" 
d="M-84 0l741 1470h1348l-59 -333h-533l-41 -236h457l-60 -332h-456l-41 -235h532l-59 -334h-914l50 272h-435l-127 -272h-403zM602 586h334l96 553h-178z" />
    <glyph glyph-name="Ccedilla" unicode="&#xc7;" horiz-adv-x="1579" 
d="M762 305q142 0 261 75t181 200l318 -142q-107 -205 -298 -324.5t-423 -132.5l-76 -94q24 4 39 4q84 0 128.5 -54t29.5 -138q-17 -97 -95.5 -164t-175.5 -67q-93 0 -148.5 46.5t-64.5 118.5l164 50q4 -28 23 -43t45 -15q31 0 57.5 20t32.5 54q7 36 -12.5 56t-51.5 20
q-47 0 -75 -37l-113 69l133 179q-254 29 -401.5 192t-147.5 418q0 135 38 265t113.5 242t179.5 197t245 134t301 49q262 0 435 -131t212 -351l-346 -94q-18 121 -102.5 186.5t-213.5 65.5q-112 0 -209.5 -47.5t-163 -124.5t-102.5 -174t-37 -197q0 -145 87.5 -228t232.5 -83
z" />
    <glyph glyph-name="Egrave" unicode="&#xc8;" horiz-adv-x="1159" 
d="M908 1589h-218l-180 273l197 123zM1149 1151h-518l-47 -266h463l-54 -307h-463l-47 -265h518l-55 -313h-876l258 1462h876z" />
    <glyph glyph-name="Eacute" unicode="&#xc9;" horiz-adv-x="1159" 
d="M1185 1862l-274 -273h-217l340 396zM1149 1151h-518l-47 -266h463l-54 -307h-463l-47 -265h518l-55 -313h-876l258 1462h876z" />
    <glyph glyph-name="Ecircumflex" unicode="&#xca;" horiz-adv-x="1159" 
d="M830 1766l-154 -177h-217l291 301h205l184 -301h-217zM1149 1151h-518l-47 -266h463l-54 -307h-463l-47 -265h518l-55 -313h-876l258 1462h876z" />
    <glyph glyph-name="Edieresis" unicode="&#xcb;" horiz-adv-x="1159" 
d="M575 1589q-68 0 -108.5 48.5t-28.5 117.5q12 67 69.5 115.5t125.5 48.5t108.5 -48.5t28.5 -115.5q-13 -69 -70 -117.5t-125 -48.5zM1081 1919q68 0 108 -48.5t27 -115.5q-12 -69 -68 -117.5t-124 -48.5q-69 0 -109.5 48.5t-27.5 117.5q12 68 68.5 116t125.5 48zM70 0
l258 1462h876l-55 -311h-518l-47 -266h463l-54 -307h-463l-47 -265h518l-55 -313h-876z" />
    <glyph glyph-name="Igrave" unicode="&#xcc;" horiz-adv-x="684" 
d="M418 1589l-180 273l197 123l201 -396h-218zM70 0l258 1462h356l-258 -1462h-356z" />
    <glyph glyph-name="Iacute" unicode="&#xcd;" horiz-adv-x="684" 
d="M422 1589l340 396l151 -123l-274 -273h-217zM70 0l258 1462h356l-258 -1462h-356z" />
    <glyph glyph-name="Icircumflex" unicode="&#xce;" horiz-adv-x="684" 
d="M404 1589h-217l291 301h205l184 -301h-217l-92 177zM70 0l258 1462h356l-258 -1462h-356z" />
    <glyph glyph-name="Idieresis" unicode="&#xcf;" horiz-adv-x="684" 
d="M303 1589q-68 0 -108.5 48.5t-28.5 117.5q12 67 69.5 115.5t125.5 48.5t108.5 -48.5t28.5 -115.5q-13 -69 -70 -117.5t-125 -48.5zM752 1589q-69 0 -109.5 48.5t-27.5 117.5q12 68 68.5 116t125.5 48q68 0 108 -48.5t27 -115.5q-12 -69 -68 -117.5t-124 -48.5zM70 0
l258 1462h356l-258 -1462h-356z" />
    <glyph glyph-name="Eth" unicode="&#xd0;" horiz-adv-x="1499" 
d="M872 1462q297 0 450 -149.5t153 -413.5q0 -133 -27.5 -257.5t-92 -242.5t-158.5 -205.5t-238.5 -140.5t-321.5 -53h-567l110 622h-158l37 217h159l110 623h544zM651 313q98 0 176.5 35.5t129 93t85 134.5t48.5 155.5t14 159.5q0 131 -68.5 195.5t-214.5 64.5h-192
l-55 -312h231l-37 -217h-232l-55 -309h170z" />
    <glyph glyph-name="Ntilde" unicode="&#xd1;" horiz-adv-x="1690" 
d="M955 1745q-65 0 -90 -141h-185q25 142 106.5 231.5t192.5 89.5q130 0 187 -121q7 -12 10.5 -17.5t12.5 -11t22 -5.5q33 0 53.5 36t34.5 105h186q-26 -142 -105 -232t-196 -90q-127 0 -186 121q-17 35 -43 35zM1333 1462h357l-258 -1462h-416l-415 986l-175 -986h-356
l258 1462h413l421 -978z" />
    <glyph glyph-name="Ograve" unicode="&#xd2;" horiz-adv-x="1645" 
d="M901 1589l-180 273l197 123l201 -396h-218zM748 -20q-299 0 -477.5 167t-178.5 449q0 135 38 265t113.5 242t179.5 197t245 134t301 49q297 0 476 -166.5t179 -448.5q0 -170 -61.5 -329t-171.5 -283.5t-278 -200t-365 -75.5zM762 305q114 0 212 48t162.5 125.5t101 174
t36.5 195.5q0 144 -87 227.5t-233 83.5q-112 0 -209.5 -47.5t-163 -124.5t-102.5 -174t-37 -197q0 -145 87.5 -228t232.5 -83z" />
    <glyph glyph-name="Oacute" unicode="&#xd3;" horiz-adv-x="1645" 
d="M905 1589l340 396l151 -123l-274 -273h-217zM748 -20q-299 0 -477.5 167t-178.5 449q0 135 38 265t113.5 242t179.5 197t245 134t301 49q297 0 476 -166.5t179 -448.5q0 -170 -61.5 -329t-171.5 -283.5t-278 -200t-365 -75.5zM762 305q114 0 212 48t162.5 125.5t101 174
t36.5 195.5q0 144 -87 227.5t-233 83.5q-112 0 -209.5 -47.5t-163 -124.5t-102.5 -174t-37 -197q0 -145 87.5 -228t232.5 -83z" />
    <glyph glyph-name="Ocircumflex" unicode="&#xd4;" horiz-adv-x="1645" 
d="M887 1589h-217l291 301h205l184 -301h-217l-92 177zM748 -20q-299 0 -477.5 167t-178.5 449q0 135 38 265t113.5 242t179.5 197t245 134t301 49q297 0 476 -166.5t179 -448.5q0 -170 -61.5 -329t-171.5 -283.5t-278 -200t-365 -75.5zM762 305q114 0 212 48t162.5 125.5
t101 174t36.5 195.5q0 144 -87 227.5t-233 83.5q-112 0 -209.5 -47.5t-163 -124.5t-102.5 -174t-37 -197q0 -145 87.5 -228t232.5 -83z" />
    <glyph glyph-name="Otilde" unicode="&#xd5;" horiz-adv-x="1645" 
d="M1161 1589q-127 0 -186 121q-17 35 -43 35q-65 0 -90 -141h-185q25 142 106.5 231.5t192.5 89.5q130 0 187 -121q7 -12 10.5 -17.5t12.5 -11t22 -5.5q33 0 53.5 36t34.5 105h186q-26 -142 -105 -232t-196 -90zM748 -20q-299 0 -477.5 167t-178.5 449q0 135 38 265
t113.5 242t179.5 197t245 134t301 49q297 0 476 -166.5t179 -448.5q0 -170 -61.5 -329t-171.5 -283.5t-278 -200t-365 -75.5zM762 305q114 0 212 48t162.5 125.5t101 174t36.5 195.5q0 144 -87 227.5t-233 83.5q-112 0 -209.5 -47.5t-163 -124.5t-102.5 -174t-37 -197
q0 -145 87.5 -228t232.5 -83z" />
    <glyph glyph-name="Odieresis" unicode="&#xd6;" horiz-adv-x="1645" 
d="M786 1589q-68 0 -108.5 48.5t-28.5 117.5q12 67 69.5 115.5t125.5 48.5t108.5 -48.5t28.5 -115.5q-13 -69 -70 -117.5t-125 -48.5zM1235 1589q-69 0 -109.5 48.5t-27.5 117.5q12 68 68.5 116t125.5 48q68 0 108 -48.5t27 -115.5q-12 -69 -68 -117.5t-124 -48.5zM748 -20
q-299 0 -477.5 167t-178.5 449q0 135 38 265t113.5 242t179.5 197t245 134t301 49q297 0 476 -166.5t179 -448.5q0 -170 -61.5 -329t-171.5 -283.5t-278 -200t-365 -75.5zM762 305q114 0 212 48t162.5 125.5t101 174t36.5 195.5q0 144 -87 227.5t-233 83.5
q-112 0 -209.5 -47.5t-163 -124.5t-102.5 -174t-37 -197q0 -145 87.5 -228t232.5 -83z" />
    <glyph glyph-name="multiply" unicode="&#xd7;" horiz-adv-x="1122" 
d="M330 256l-193 193l264 264l-264 264l193 192l264 -264l262 264l193 -192l-265 -264l265 -264l-193 -193l-262 264z" />
    <glyph glyph-name="Oslash" unicode="&#xd8;" horiz-adv-x="1645" 
d="M1391 1361q112 -80 172.5 -206.5t60.5 -286.5q0 -170 -61.5 -329t-171.5 -283.5t-278 -200t-365 -75.5q-155 0 -284 48l-96 -137l-135 80l92 131q-112 81 -172.5 207.5t-60.5 286.5q0 135 38 265t113.5 242t179.5 197t245 134t301 49q154 0 283 -48l95 136l135 -80z
M442 616q0 -141 84 -225l526 757q-47 11 -98 11q-112 0 -209.5 -47.5t-163 -124.5t-102.5 -174t-37 -197zM762 305q114 0 212 48t162.5 125.5t101 174t36.5 195.5q0 142 -84 224l-526 -756q47 -11 98 -11z" />
    <glyph glyph-name="Ugrave" unicode="&#xd9;" horiz-adv-x="1452" 
d="M803 1589l-180 273l197 123l201 -396h-218zM649 -20q-157 0 -273 44.5t-185.5 143.5t-69.5 244q0 60 12 125l164 925h356l-157 -901q-11 -55 -11 -94q0 -95 46 -134.5t128 -39.5q116 0 199 70.5t111 220.5l155 878h357l-168 -950q-25 -142 -87.5 -246.5t-152.5 -166
t-195.5 -90.5t-228.5 -29z" />
    <glyph glyph-name="Uacute" unicode="&#xda;" horiz-adv-x="1452" 
d="M807 1589l340 396l151 -123l-274 -273h-217zM649 -20q-157 0 -273 44.5t-185.5 143.5t-69.5 244q0 60 12 125l164 925h356l-157 -901q-11 -55 -11 -94q0 -95 46 -134.5t128 -39.5q116 0 199 70.5t111 220.5l155 878h357l-168 -950q-25 -142 -87.5 -246.5t-152.5 -166
t-195.5 -90.5t-228.5 -29z" />
    <glyph glyph-name="Ucircumflex" unicode="&#xdb;" horiz-adv-x="1452" 
d="M789 1589h-217l291 301h205l184 -301h-217l-92 177zM649 -20q-157 0 -273 44.5t-185.5 143.5t-69.5 244q0 60 12 125l164 925h356l-157 -901q-11 -55 -11 -94q0 -95 46 -134.5t128 -39.5q116 0 199 70.5t111 220.5l155 878h357l-168 -950q-25 -142 -87.5 -246.5
t-152.5 -166t-195.5 -90.5t-228.5 -29z" />
    <glyph glyph-name="Udieresis" unicode="&#xdc;" horiz-adv-x="1452" 
d="M688 1589q-68 0 -108.5 48.5t-28.5 117.5q12 67 69.5 115.5t125.5 48.5t108.5 -48.5t28.5 -115.5q-13 -69 -70 -117.5t-125 -48.5zM1137 1589q-69 0 -109.5 48.5t-27.5 117.5q12 68 68.5 116t125.5 48q68 0 108 -48.5t27 -115.5q-12 -69 -68 -117.5t-124 -48.5zM649 -20
q-157 0 -273 44.5t-185.5 143.5t-69.5 244q0 60 12 125l164 925h356l-157 -901q-11 -55 -11 -94q0 -95 46 -134.5t128 -39.5q116 0 199 70.5t111 220.5l155 878h357l-168 -950q-25 -142 -87.5 -246.5t-152.5 -166t-195.5 -90.5t-228.5 -29z" />
    <glyph glyph-name="Yacute" unicode="&#xdd;" horiz-adv-x="1319" 
d="M1228 1862l-274 -273h-217l340 396zM1485 1462l-622 -771l-122 -691h-358l125 701l-346 761h375l188 -452l352 452h408z" />
    <glyph glyph-name="Thorn" unicode="&#xde;" horiz-adv-x="1260" 
d="M805 1309q244 0 357.5 -100.5t113.5 -299.5q0 -95 -36.5 -187t-105 -169t-181.5 -124.5t-251 -47.5h-196l-68 -381h-368l67 381l59 331l105 597l41 229h369l-41 -229h135zM748 705q93 0 144.5 50t51.5 124q0 106 -147 106h-184l-50 -280h185z" />
    <glyph glyph-name="germandbls" unicode="&#xdf;" horiz-adv-x="1343" 
d="M37 0l164 928q22 126 62 226.5t92 167.5t110.5 114.5t126.5 72.5t130 36t130 11q219 0 347 -101t128 -263q0 -94 -36.5 -161.5t-110.5 -125.5q-8 -6 -30 -21.5t-30.5 -22.5t-21.5 -20t-18 -24.5t-5 -25.5q0 -23 21.5 -42t52.5 -38.5t62.5 -46t53 -78t21.5 -121.5
q0 -214 -130.5 -339.5t-354.5 -125.5h-217l47 262h82q97 0 155 59t58 148q0 28 -10 50.5t-26.5 38.5t-36 30.5t-39.5 31t-36.5 36t-26.5 48t-10 64.5q0 37 6.5 67t14 49.5t27 41t31 32t40.5 33.5t43 35q84 65 84 160q0 86 -133 86q-51 0 -93 -14t-79.5 -45.5t-65 -89
t-41.5 -138.5l-174 -985h-364z" />
    <glyph glyph-name="agrave" unicode="&#xe0;" horiz-adv-x="1333" 
d="M891 1182h-217l-178 272l194 123zM952 1051h342l-186 -1051h-303l2 112q-49 -69 -135 -104t-189 -35q-196 0 -320 120.5t-124 334.5q0 122 43 237t118.5 205t188 144.5t242.5 54.5q106 0 186 -35.5t116 -98.5zM586 256q69 0 128.5 29.5t98 76t60.5 103.5t22 113
q0 91 -53.5 150.5t-155.5 59.5q-89 0 -159.5 -48t-106 -121.5t-35.5 -155.5q0 -99 54 -153t147 -54z" />
    <glyph glyph-name="aacute" unicode="&#xe1;" horiz-adv-x="1333" 
d="M1172 1454l-277 -272h-217l340 395zM952 1051h342l-186 -1051h-303l2 112q-49 -69 -135 -104t-189 -35q-196 0 -320 120.5t-124 334.5q0 122 43 237t118.5 205t188 144.5t242.5 54.5q106 0 186 -35.5t116 -98.5zM586 256q69 0 128.5 29.5t98 76t60.5 103.5t22 113
q0 91 -53.5 150.5t-155.5 59.5q-89 0 -159.5 -48t-106 -121.5t-35.5 -155.5q0 -99 54 -153t147 -54z" />
    <glyph glyph-name="acircumflex" unicode="&#xe2;" horiz-adv-x="1333" 
d="M823 1411l-154 -176h-217l291 301h205l184 -301h-217zM952 1051h342l-186 -1051h-303l2 112q-49 -69 -135 -104t-189 -35q-196 0 -320 120.5t-124 334.5q0 122 43 237t118.5 205t188 144.5t242.5 54.5q106 0 186 -35.5t116 -98.5zM586 256q69 0 128.5 29.5t98 76
t60.5 103.5t22 113q0 91 -53.5 150.5t-155.5 59.5q-89 0 -159.5 -48t-106 -121.5t-35.5 -155.5q0 -99 54 -153t147 -54z" />
    <glyph glyph-name="atilde" unicode="&#xe3;" horiz-adv-x="1333" 
d="M714 1311q-56 0 -77 -125h-164q21 127 92.5 205.5t171.5 78.5q117 0 166 -106q12 -31 39 -31q29 0 46.5 31.5t29.5 93.5h165q-22 -125 -93 -204.5t-173 -79.5q-118 0 -164 106q-13 31 -39 31zM952 1051h342l-186 -1051h-303l2 112q-49 -69 -135 -104t-189 -35
q-196 0 -320 120.5t-124 334.5q0 122 43 237t118.5 205t188 144.5t242.5 54.5q106 0 186 -35.5t116 -98.5zM586 256q69 0 128.5 29.5t98 76t60.5 103.5t22 113q0 91 -53.5 150.5t-155.5 59.5q-89 0 -159.5 -48t-106 -121.5t-35.5 -155.5q0 -99 54 -153t147 -54z" />
    <glyph glyph-name="adieresis" unicode="&#xe4;" horiz-adv-x="1333" 
d="M562 1161q-84 0 -137 58t-44 141q10 81 75.5 138.5t148.5 57.5q79 0 130.5 -57.5t43.5 -138.5q-8 -83 -72.5 -141t-144.5 -58zM1031 1161q-84 0 -137 58t-44 141q10 81 75.5 138.5t148.5 57.5q79 0 130.5 -57.5t43.5 -138.5q-8 -83 -72.5 -141t-144.5 -58zM952 1051h342
l-186 -1051h-303l2 112q-49 -69 -135 -104t-189 -35q-196 0 -320 120.5t-124 334.5q0 122 43 237t118.5 205t188 144.5t242.5 54.5q106 0 186 -35.5t116 -98.5zM586 256q69 0 128.5 29.5t98 76t60.5 103.5t22 113q0 91 -53.5 150.5t-155.5 59.5q-89 0 -159.5 -48
t-106 -121.5t-35.5 -155.5q0 -99 54 -153t147 -54z" />
    <glyph glyph-name="aring" unicode="&#xe5;" horiz-adv-x="1333" 
d="M797 1157q-108 0 -176.5 76.5t-57.5 183.5q13 105 97.5 180.5t191.5 75.5q106 0 173 -75.5t54 -180.5q-10 -107 -93 -183.5t-189 -76.5zM713 1417q-5 -51 22.5 -82.5t75.5 -31.5t84.5 31.5t40.5 82.5q5 46 -24.5 80.5t-75.5 34.5q-47 0 -82.5 -34.5t-40.5 -80.5z
M952 1051h342l-186 -1051h-303l2 112q-49 -69 -135 -104t-189 -35q-196 0 -320 120.5t-124 334.5q0 122 43 237t118.5 205t188 144.5t242.5 54.5q106 0 186 -35.5t116 -98.5zM586 256q69 0 128.5 29.5t98 76t60.5 103.5t22 113q0 91 -53.5 150.5t-155.5 59.5
q-89 0 -159.5 -48t-106 -121.5t-35.5 -155.5q0 -99 54 -153t147 -54z" />
    <glyph glyph-name="ae" unicode="&#xe6;" horiz-adv-x="1858" 
d="M1337 1081q107 0 194 -25.5t152 -77t100.5 -133t35.5 -188.5q0 -61 -13 -129l-18 -82h-759q-1 -9 -1 -26q0 -79 47.5 -118.5t128.5 -39.5q74 0 132.5 33t93.5 92l331 -68q-82 -171 -228.5 -255t-342.5 -84q-267 0 -404 145h-16q-204 -145 -444 -145q-146 0 -236 60
t-90 185q0 57 13.5 104.5t34.5 82.5t57.5 64.5t72 48.5t88.5 37t95.5 29t105.5 25l141 31q137 31 137 117q0 23 -9 38.5t-27 22t-35 9t-41 2.5q-86 0 -148 -43.5t-86 -133.5l-313 74q65 185 199.5 265.5t369.5 80.5q228 0 327 -88q155 90 355 90zM1331 834q-163 0 -238 -142
h388v13q0 63 -38 96t-112 33zM449 240q55 0 120 27.5t113 76.5q-6 42 -6 86v16l-172 -49q-142 -35 -142 -102q0 -27 24 -41t63 -14z" />
    <glyph glyph-name="ccedilla" unicode="&#xe7;" horiz-adv-x="1194" 
d="M690 805q-59 0 -110.5 -23t-88.5 -60.5t-63.5 -86t-39.5 -101t-13 -102.5q0 -86 45 -135t129 -49q95 0 165 45.5t103 132.5l309 -53q-63 -182 -208.5 -283t-336.5 -109l-75 -94q24 4 39 4q84 0 128.5 -54t29.5 -138q-17 -97 -95.5 -164t-175.5 -67q-93 0 -148.5 46.5
t-64.5 118.5l164 50q4 -28 23 -43t45 -15q31 0 57.5 20t32.5 54q7 36 -12.5 56t-51.5 20q-47 0 -75 -37l-113 69l136 183q-182 32 -285 151t-103 297q0 97 28.5 189.5t85 172.5t134.5 140t184 94.5t227 34.5q221 0 350 -110t128 -304l-314 -6q-3 85 -45.5 120.5t-124.5 35.5
z" />
    <glyph glyph-name="egrave" unicode="&#xe8;" horiz-adv-x="1198" 
d="M846 1176h-217l-178 272l194 123zM688 1071q217 0 344 -105t127 -313q0 -59 -12 -127l-14 -69h-763q-1 -14 -1 -41q0 -85 49.5 -127.5t134.5 -42.5q76 0 138 34.5t100 96.5l309 -64q-77 -162 -222.5 -247.5t-326.5 -85.5q-242 0 -377 116t-135 326q0 128 42.5 243.5
t122 206.5t205 145t279.5 54zM684 838q-180 0 -260 -158h419q1 5 1 16q0 70 -44.5 106t-115.5 36z" />
    <glyph glyph-name="eacute" unicode="&#xe9;" horiz-adv-x="1198" 
d="M1127 1448l-277 -272h-217l340 395zM688 1071q217 0 344 -105t127 -313q0 -59 -12 -127l-14 -69h-763q-1 -14 -1 -41q0 -85 49.5 -127.5t134.5 -42.5q76 0 138 34.5t100 96.5l309 -64q-77 -162 -222.5 -247.5t-326.5 -85.5q-242 0 -377 116t-135 326q0 128 42.5 243.5
t122 206.5t205 145t279.5 54zM684 838q-180 0 -260 -158h419q1 5 1 16q0 70 -44.5 106t-115.5 36z" />
    <glyph glyph-name="ecircumflex" unicode="&#xea;" horiz-adv-x="1198" 
d="M778 1405l-154 -176h-217l291 301h205l184 -301h-217zM688 1071q217 0 344 -105t127 -313q0 -59 -12 -127l-14 -69h-763q-1 -14 -1 -41q0 -85 49.5 -127.5t134.5 -42.5q76 0 138 34.5t100 96.5l309 -64q-77 -162 -222.5 -247.5t-326.5 -85.5q-242 0 -377 116t-135 326
q0 128 42.5 243.5t122 206.5t205 145t279.5 54zM684 838q-180 0 -260 -158h419q1 5 1 16q0 70 -44.5 106t-115.5 36z" />
    <glyph glyph-name="edieresis" unicode="&#xeb;" horiz-adv-x="1198" 
d="M517 1155q-84 0 -137 58t-44 141q10 81 75.5 138.5t148.5 57.5q79 0 130.5 -57.5t43.5 -138.5q-8 -83 -72.5 -141t-144.5 -58zM1029 1550q79 0 130.5 -57.5t43.5 -138.5q-8 -83 -72.5 -141t-144.5 -58q-84 0 -137 58t-44 141q10 81 75.5 138.5t148.5 57.5zM688 1071
q217 0 344 -105t127 -313q0 -59 -12 -127l-14 -69h-763q-1 -14 -1 -41q0 -85 49.5 -127.5t134.5 -42.5q76 0 138 34.5t100 96.5l309 -64q-77 -162 -222.5 -247.5t-326.5 -85.5q-242 0 -377 116t-135 326q0 128 42.5 243.5t122 206.5t205 145t279.5 54zM684 838
q-180 0 -260 -158h419q1 5 1 16q0 70 -44.5 106t-115.5 36z" />
    <glyph glyph-name="igrave" unicode="&#xec;" horiz-adv-x="629" 
d="M322 1182l-178 272l194 123l201 -395h-217zM37 0l188 1059h367l-189 -1059h-366z" />
    <glyph glyph-name="iacute" unicode="&#xed;" horiz-adv-x="629" 
d="M326 1182l340 395l154 -123l-277 -272h-217zM37 0l188 1059h367l-189 -1059h-366z" />
    <glyph glyph-name="icircumflex" unicode="&#xee;" horiz-adv-x="629" 
d="M317 1235h-217l291 301h205l184 -301h-217l-92 176zM37 0l188 1059h367l-189 -1059h-366z" />
    <glyph glyph-name="idieresis" unicode="&#xef;" horiz-adv-x="629" 
d="M210 1161q-84 0 -137 58t-44 141q10 81 75.5 138.5t148.5 57.5q79 0 130.5 -57.5t43.5 -138.5q-8 -83 -72.5 -141t-144.5 -58zM679 1161q-84 0 -137 58t-44 141q10 81 75.5 138.5t148.5 57.5q79 0 130.5 -57.5t43.5 -138.5q-8 -83 -72.5 -141t-144.5 -58zM37 0l188 1059
h367l-189 -1059h-366z" />
    <glyph glyph-name="eth" unicode="&#xf0;" horiz-adv-x="1221" 
d="M1092 887q40 -81 57.5 -157.5t17.5 -176.5q0 -120 -40.5 -223.5t-116 -181.5t-192 -123t-259.5 -45q-249 0 -383.5 128t-134.5 341q0 129 48.5 245t126 196.5t177.5 127.5t201 47q24 0 36 -1l-86 158l-235 -57l-10 97l197 48l-123 226h397l71 -142l191 46l8 -97l-155 -38
zM586 301q55 0 99 19.5t70 48.5t43.5 67t24 72.5t6.5 66.5q0 84 -45.5 136.5t-126.5 52.5q-58 0 -104 -21t-73 -52.5t-45.5 -71.5t-25 -74t-6.5 -64q0 -80 50.5 -130t132.5 -50z" />
    <glyph glyph-name="ntilde" unicode="&#xf1;" horiz-adv-x="1266" 
d="M673 1303q-56 0 -77 -125h-164q21 127 92.5 205.5t171.5 78.5q117 0 166 -106q12 -31 39 -31q29 0 46.5 31.5t29.5 93.5h165q-22 -125 -93 -204.5t-173 -79.5q-118 0 -164 106q-13 31 -39 31zM891 1069q145 0 224 -74.5t79 -208.5q0 -26 -8 -92l-125 -694h-342l119 664
q4 28 4 38q0 52 -31 74.5t-92 22.5q-71 0 -139 -50t-98 -155l-105 -594h-340l186 1051h340l-25 -141q147 159 353 159z" />
    <glyph glyph-name="ograve" unicode="&#xf2;" horiz-adv-x="1284" 
d="M643 1172l-178 272l194 123l201 -395h-217zM565 -20q-241 0 -383.5 119.5t-142.5 332.5q0 130 45.5 245t129.5 202.5t213.5 138.5t287.5 51q243 0 385.5 -119.5t142.5 -331.5q0 -130 -46 -245.5t-131 -203t-214.5 -138.5t-286.5 -51zM573 248q78 0 143 32.5t104.5 84.5
t61 113.5t21.5 123.5q0 92 -54 147.5t-151 55.5q-75 0 -137.5 -33t-101 -86t-59.5 -114t-21 -121q0 -95 51 -149t143 -54z" />
    <glyph glyph-name="oacute" unicode="&#xf3;" horiz-adv-x="1284" 
d="M647 1172l340 395l154 -123l-277 -272h-217zM565 -20q-241 0 -383.5 119.5t-142.5 332.5q0 130 45.5 245t129.5 202.5t213.5 138.5t287.5 51q243 0 385.5 -119.5t142.5 -331.5q0 -130 -46 -245.5t-131 -203t-214.5 -138.5t-286.5 -51zM573 248q78 0 143 32.5t104.5 84.5
t61 113.5t21.5 123.5q0 92 -54 147.5t-151 55.5q-75 0 -137.5 -33t-101 -86t-59.5 -114t-21 -121q0 -95 51 -149t143 -54z" />
    <glyph glyph-name="ocircumflex" unicode="&#xf4;" horiz-adv-x="1284" 
d="M638 1225h-217l291 301h205l184 -301h-217l-92 176zM565 -20q-241 0 -383.5 119.5t-142.5 332.5q0 130 45.5 245t129.5 202.5t213.5 138.5t287.5 51q243 0 385.5 -119.5t142.5 -331.5q0 -130 -46 -245.5t-131 -203t-214.5 -138.5t-286.5 -51zM573 248q78 0 143 32.5
t104.5 84.5t61 113.5t21.5 123.5q0 92 -54 147.5t-151 55.5q-75 0 -137.5 -33t-101 -86t-59.5 -114t-21 -121q0 -95 51 -149t143 -54z" />
    <glyph glyph-name="otilde" unicode="&#xf5;" horiz-adv-x="1284" 
d="M886 1164q-118 0 -164 106q-13 31 -39 31q-56 0 -77 -125h-164q21 127 92.5 205.5t171.5 78.5q117 0 166 -106q12 -31 39 -31q29 0 46.5 31.5t29.5 93.5h165q-22 -125 -93 -204.5t-173 -79.5zM565 -20q-241 0 -383.5 119.5t-142.5 332.5q0 130 45.5 245t129.5 202.5
t213.5 138.5t287.5 51q243 0 385.5 -119.5t142.5 -331.5q0 -130 -46 -245.5t-131 -203t-214.5 -138.5t-286.5 -51zM573 248q78 0 143 32.5t104.5 84.5t61 113.5t21.5 123.5q0 92 -54 147.5t-151 55.5q-75 0 -137.5 -33t-101 -86t-59.5 -114t-21 -121q0 -95 51 -149t143 -54z
" />
    <glyph glyph-name="odieresis" unicode="&#xf6;" horiz-adv-x="1284" 
d="M531 1151q-84 0 -137 58t-44 141q10 81 75.5 138.5t148.5 57.5q79 0 130.5 -57.5t43.5 -138.5q-8 -83 -72.5 -141t-144.5 -58zM1000 1151q-84 0 -137 58t-44 141q10 81 75.5 138.5t148.5 57.5q79 0 130.5 -57.5t43.5 -138.5q-8 -83 -72.5 -141t-144.5 -58zM565 -20
q-241 0 -383.5 119.5t-142.5 332.5q0 130 45.5 245t129.5 202.5t213.5 138.5t287.5 51q243 0 385.5 -119.5t142.5 -331.5q0 -130 -46 -245.5t-131 -203t-214.5 -138.5t-286.5 -51zM573 248q78 0 143 32.5t104.5 84.5t61 113.5t21.5 123.5q0 92 -54 147.5t-151 55.5
q-75 0 -137.5 -33t-101 -86t-59.5 -114t-21 -121q0 -95 51 -149t143 -54z" />
    <glyph glyph-name="divide" unicode="&#xf7;" horiz-adv-x="1145" 
d="M594 928q-70 0 -122 51t-52 123q0 69 52.5 121.5t121.5 52.5t121.5 -52.5t52.5 -121.5q0 -72 -52 -123t-122 -51zM123 578v270h962v-270h-962zM594 150q-70 0 -122 50.5t-52 123.5q0 69 52.5 121.5t121.5 52.5t121.5 -52.5t52.5 -121.5q0 -73 -52 -123.5t-122 -50.5z" />
    <glyph glyph-name="oslash" unicode="&#xf8;" horiz-adv-x="1284" 
d="M1053 984q190 -119 190 -366q0 -130 -46 -245.5t-131 -203t-214.5 -138.5t-286.5 -51q-107 0 -195 24l-67 -96l-135 80l56 80q-185 122 -185 364q0 130 45.5 245t129.5 202.5t213.5 138.5t287.5 51q103 0 190 -23l66 95l135 -80zM379 451q0 -70 29 -119l327 471
q-24 2 -37 2q-75 0 -137.5 -33t-101 -86t-59.5 -114t-21 -121zM573 248q78 0 143 32.5t104.5 84.5t61 113.5t21.5 123.5q0 72 -33 121l-329 -473q20 -2 32 -2z" />
    <glyph glyph-name="ugrave" unicode="&#xf9;" horiz-adv-x="1266" 
d="M858 1174h-217l-178 272l194 123zM887 1051h340l-187 -1051h-319l17 153q-70 -81 -162.5 -127t-198.5 -46q-149 0 -228 74.5t-79 209.5q0 47 8 90l125 697h340l-111 -627q-6 -32 -6 -53q0 -109 111 -109q93 0 160 54.5t85 150.5h2z" />
    <glyph glyph-name="uacute" unicode="&#xfa;" horiz-adv-x="1266" 
d="M1139 1446l-277 -272h-217l340 395zM887 1051h340l-187 -1051h-319l17 153q-70 -81 -162.5 -127t-198.5 -46q-149 0 -228 74.5t-79 209.5q0 47 8 90l125 697h340l-111 -627q-6 -32 -6 -53q0 -109 111 -109q93 0 160 54.5t85 150.5h2z" />
    <glyph glyph-name="ucircumflex" unicode="&#xfb;" horiz-adv-x="1266" 
d="M790 1403l-154 -176h-217l291 301h205l184 -301h-217zM887 1051h340l-187 -1051h-319l17 153q-70 -81 -162.5 -127t-198.5 -46q-149 0 -228 74.5t-79 209.5q0 47 8 90l125 697h340l-111 -627q-6 -32 -6 -53q0 -109 111 -109q93 0 160 54.5t85 150.5h2z" />
    <glyph glyph-name="udieresis" unicode="&#xfc;" horiz-adv-x="1266" 
d="M529 1153q-84 0 -137 58t-44 141q10 81 75.5 138.5t148.5 57.5q79 0 130.5 -57.5t43.5 -138.5q-8 -83 -72.5 -141t-144.5 -58zM998 1153q-84 0 -137 58t-44 141q10 81 75.5 138.5t148.5 57.5q79 0 130.5 -57.5t43.5 -138.5q-8 -83 -72.5 -141t-144.5 -58zM887 1051h340
l-187 -1051h-319l17 153q-70 -81 -162.5 -127t-198.5 -46q-149 0 -228 74.5t-79 209.5q0 47 8 90l125 697h340l-111 -627q-6 -32 -6 -53q0 -109 111 -109q93 0 160 54.5t85 150.5h2z" />
    <glyph glyph-name="yacute" unicode="&#xfd;" horiz-adv-x="1167" 
d="M1084 1446l-277 -272h-217l340 395zM922 1051h352l-936 -1545h-350l352 559l-262 986h362l118 -633z" />
    <glyph glyph-name="thorn" unicode="&#xfe;" horiz-adv-x="1356" 
d="M885 1079q192 0 312 -114t120 -316q0 -130 -46 -252.5t-126.5 -216.5t-199 -150.5t-255.5 -56.5q-93 0 -166 28.5t-109 81.5l-104 -587h-364l360 2040h365l-100 -566q54 53 136.5 81t176.5 28zM657 272q90 0 158 48t100.5 118t32.5 148q0 92 -54.5 143t-145.5 51
q-90 0 -158.5 -48t-100.5 -118t-32 -147q0 -92 55 -143.5t145 -51.5z" />
    <glyph glyph-name="ydieresis" unicode="&#xff;" horiz-adv-x="1167" 
d="M474 1153q-84 0 -137 58t-44 141q10 81 75.5 138.5t148.5 57.5q79 0 130.5 -57.5t43.5 -138.5q-8 -83 -72.5 -141t-144.5 -58zM943 1153q-84 0 -137 58t-44 141q10 81 75.5 138.5t148.5 57.5q79 0 130.5 -57.5t43.5 -138.5q-8 -83 -72.5 -141t-144.5 -58zM922 1051h352
l-936 -1545h-350l352 559l-262 986h362l118 -633z" />
    <glyph glyph-name="Amacron" unicode="&#x100;" horiz-adv-x="1536" 
d="M1331 1798l-37 -209h-676l37 209h676zM1073 0l-48 281h-593l-147 -281h-369l795 1462h438l283 -1462h-359zM587 575h387l-96 556z" />
    <glyph glyph-name="amacron" unicode="&#x101;" horiz-adv-x="1333" 
d="M1164 1419l-37 -209h-676l37 209h676zM952 1051h342l-186 -1051h-303l2 112q-49 -69 -135 -104t-189 -35q-196 0 -320 120.5t-124 334.5q0 122 43 237t118.5 205t188 144.5t242.5 54.5q106 0 186 -35.5t116 -98.5zM586 256q69 0 128.5 29.5t98 76t60.5 103.5t22 113
q0 91 -53.5 150.5t-155.5 59.5q-89 0 -159.5 -48t-106 -121.5t-35.5 -155.5q0 -99 54 -153t147 -54z" />
    <glyph glyph-name="Abreve" unicode="&#x102;" horiz-adv-x="1536" 
d="M957 1589q-89 0 -153.5 16t-110.5 51t-62 97t0 148h205q-13 -75 26 -111.5t124 -36.5q178 0 204 148h205q-31 -168 -142.5 -240t-295.5 -72zM1073 0l-48 281h-593l-147 -281h-369l795 1462h438l283 -1462h-359zM587 575h387l-96 556z" />
    <glyph glyph-name="abreve" unicode="&#x103;" horiz-adv-x="1333" 
d="M780 1163q-177 0 -262.5 93.5t-52.5 279.5h205q-17 -94 20 -151.5t119 -57.5q83 0 140 57.5t75 151.5h205q-33 -186 -152 -279.5t-297 -93.5zM952 1051h342l-186 -1051h-303l2 112q-49 -69 -135 -104t-189 -35q-196 0 -320 120.5t-124 334.5q0 122 43 237t118.5 205
t188 144.5t242.5 54.5q106 0 186 -35.5t116 -98.5zM586 256q69 0 128.5 29.5t98 76t60.5 103.5t22 113q0 91 -53.5 150.5t-155.5 59.5q-89 0 -159.5 -48t-106 -121.5t-35.5 -155.5q0 -99 54 -153t147 -54z" />
    <glyph glyph-name="Aogonek" unicode="&#x104;" horiz-adv-x="1536" 
d="M1221 -215q-3 -16 8.5 -23.5t34.5 -7.5q32 0 70.5 13.5t62.5 33.5l-39 -219q-81 -33 -172 -33q-87 0 -141 30.5t-43 88.5q19 122 290 332h-219l-48 281h-593l-147 -281h-369l795 1462h438l283 -1462q-80 -58 -142.5 -119.5t-68.5 -95.5zM587 575h387l-96 556z" />
    <glyph glyph-name="aogonek" unicode="&#x105;" horiz-adv-x="1333" 
d="M1108 0q-80 -58 -142.5 -119.5t-68.5 -95.5q-3 -16 8.5 -23.5t34.5 -7.5q32 0 70.5 13.5t62.5 33.5l-39 -219q-81 -33 -172 -33q-87 0 -141 30.5t-43 88.5q19 122 290 332h-163l2 112q-49 -69 -135 -104t-189 -35q-196 0 -320 120.5t-124 334.5q0 122 43 237t118.5 205
t188 144.5t242.5 54.5q106 0 186 -35.5t116 -98.5l19 116h342zM586 256q69 0 128.5 29.5t98 76t60.5 103.5t22 113q0 91 -53.5 150.5t-155.5 59.5q-89 0 -159.5 -48t-106 -121.5t-35.5 -155.5q0 -99 54 -153t147 -54z" />
    <glyph glyph-name="Cacute" unicode="&#x106;" horiz-adv-x="1579" 
d="M907 1589l340 396l151 -123l-274 -273h-217zM748 -20q-299 0 -477.5 167t-178.5 449q0 135 38 265t113.5 242t179.5 197t245 134t301 49q262 0 435 -131t212 -351l-346 -94q-18 121 -102.5 186.5t-213.5 65.5q-112 0 -209.5 -47.5t-163 -124.5t-102.5 -174t-37 -197
q0 -145 87.5 -228t232.5 -83q142 0 261 75t181 200l318 -142q-113 -217 -319 -337.5t-455 -120.5z" />
    <glyph glyph-name="cacute" unicode="&#x107;" horiz-adv-x="1194" 
d="M614 1174l340 395l154 -123l-277 -272h-217zM549 -20q-236 0 -374 125t-138 333q0 97 28.5 189.5t85 172.5t134.5 140t184 94.5t227 34.5q221 0 350 -110t128 -304l-314 -6q-3 85 -45.5 120.5t-124.5 35.5q-59 0 -110.5 -23t-88.5 -60.5t-63.5 -86t-39.5 -101t-13 -102.5
q0 -86 45 -135t129 -49q95 0 165 45.5t103 132.5l309 -53q-66 -190 -221 -291.5t-356 -101.5z" />
    <glyph glyph-name="Cdotaccent" unicode="&#x10a;" horiz-adv-x="1579" 
d="M1014 1589q-83 0 -131.5 58t-34.5 141q14 82 83.5 139.5t152.5 57.5q80 0 127.5 -58t33.5 -139q-13 -82 -82 -140.5t-149 -58.5zM748 -20q-299 0 -477.5 167t-178.5 449q0 135 38 265t113.5 242t179.5 197t245 134t301 49q262 0 435 -131t212 -351l-346 -94
q-18 121 -102.5 186.5t-213.5 65.5q-112 0 -209.5 -47.5t-163 -124.5t-102.5 -174t-37 -197q0 -145 87.5 -228t232.5 -83q142 0 261 75t181 200l318 -142q-113 -217 -319 -337.5t-455 -120.5z" />
    <glyph glyph-name="cdotaccent" unicode="&#x10b;" horiz-adv-x="1194" 
d="M731 1153q-83 0 -136 58t-45 141q10 81 75.5 138.5t148.5 57.5q80 0 131.5 -57.5t42.5 -138.5q-8 -83 -72.5 -141t-144.5 -58zM549 -20q-236 0 -374 125t-138 333q0 97 28.5 189.5t85 172.5t134.5 140t184 94.5t227 34.5q221 0 350 -110t128 -304l-314 -6
q-3 85 -45.5 120.5t-124.5 35.5q-59 0 -110.5 -23t-88.5 -60.5t-63.5 -86t-39.5 -101t-13 -102.5q0 -86 45 -135t129 -49q95 0 165 45.5t103 132.5l309 -53q-66 -190 -221 -291.5t-356 -101.5z" />
    <glyph glyph-name="Ccaron" unicode="&#x10c;" horiz-adv-x="1579" 
d="M910 1589l-185 301h217l92 -176l154 176h217l-291 -301h-204zM748 -20q-299 0 -477.5 167t-178.5 449q0 135 38 265t113.5 242t179.5 197t245 134t301 49q262 0 435 -131t212 -351l-346 -94q-18 121 -102.5 186.5t-213.5 65.5q-112 0 -209.5 -47.5t-163 -124.5
t-102.5 -174t-37 -197q0 -145 87.5 -228t232.5 -83q142 0 261 75t181 200l318 -142q-113 -217 -319 -337.5t-455 -120.5z" />
    <glyph glyph-name="ccaron" unicode="&#x10d;" horiz-adv-x="1194" 
d="M626 1227l-184 301h217l92 -176l154 176h217l-291 -301h-205zM549 -20q-236 0 -374 125t-138 333q0 97 28.5 189.5t85 172.5t134.5 140t184 94.5t227 34.5q221 0 350 -110t128 -304l-314 -6q-3 85 -45.5 120.5t-124.5 35.5q-59 0 -110.5 -23t-88.5 -60.5t-63.5 -86
t-39.5 -101t-13 -102.5q0 -86 45 -135t129 -49q95 0 165 45.5t103 132.5l309 -53q-66 -190 -221 -291.5t-356 -101.5z" />
    <glyph glyph-name="Dcaron" unicode="&#x10e;" horiz-adv-x="1499" 
d="M728 1589l-185 301h217l92 -176l154 176h217l-291 -301h-204zM70 0l258 1462h544q297 0 450 -149.5t153 -413.5q0 -133 -27.5 -257.5t-92 -242.5t-158.5 -205.5t-238.5 -140.5t-321.5 -53h-567zM481 313h170q98 0 176.5 35.5t129 93t85 134.5t48.5 155.5t14 159.5
q0 131 -68.5 195.5t-214.5 64.5h-192z" />
    <glyph glyph-name="dcaron" unicode="&#x10f;" horiz-adv-x="1645" 
d="M942 951l100 585h365l-272 -1536h-342l7 87q-49 -57 -129.5 -85.5t-174.5 -28.5q-199 0 -326 121t-127 332q0 127 43.5 245t120 208.5t190.5 145t246 54.5q102 0 182 -34t117 -94zM1546 1536h373l-242 -676h-258zM586 272q94 0 169 52t112.5 127.5t37.5 154.5
q0 83 -50 128.5t-132 45.5q-138 0 -227.5 -101.5t-89.5 -229.5q0 -85 48.5 -131t131.5 -46z" />
    <glyph glyph-name="Dcroat" unicode="&#x110;" horiz-adv-x="1499" 
d="M872 1462q297 0 450 -149.5t153 -413.5q0 -133 -27.5 -257.5t-92 -242.5t-158.5 -205.5t-238.5 -140.5t-321.5 -53h-567l110 622h-158l37 217h159l110 623h544zM651 313q98 0 176.5 35.5t129 93t85 134.5t48.5 155.5t14 159.5q0 131 -68.5 195.5t-214.5 64.5h-192
l-55 -312h231l-37 -217h-232l-55 -309h170z" />
    <glyph glyph-name="dcroat" unicode="&#x111;" horiz-adv-x="1331" 
d="M1491 1398l-37 -217h-137l-209 -1181h-322l9 95q-52 -60 -134 -91t-178 -31q-196 0 -320 120t-124 329q0 100 27 195.5t79 177t123.5 143t165.5 96.5t199 35q104 0 185 -36.5t116 -100.5l43 249h-269l37 217h269l24 138h342l-24 -138h135zM594 256q91 0 160.5 48t103 119
t33.5 150q0 103 -57 159t-152 56q-132 0 -214.5 -95t-82.5 -220q0 -103 57 -160t152 -57z" />
    <glyph glyph-name="Emacron" unicode="&#x112;" horiz-adv-x="1159" 
d="M1173 1798l-37 -209h-676l37 209h676zM1149 1151h-518l-47 -266h463l-54 -307h-463l-47 -265h518l-55 -313h-876l258 1462h876z" />
    <glyph glyph-name="emacron" unicode="&#x113;" horiz-adv-x="1198" 
d="M1119 1413l-37 -209h-676l37 209h676zM688 1071q217 0 344 -105t127 -313q0 -59 -12 -127l-14 -69h-763q-1 -14 -1 -41q0 -85 49.5 -127.5t134.5 -42.5q76 0 138 34.5t100 96.5l309 -64q-77 -162 -222.5 -247.5t-326.5 -85.5q-242 0 -377 116t-135 326q0 128 42.5 243.5
t122 206.5t205 145t279.5 54zM684 838q-180 0 -260 -158h419q1 5 1 16q0 70 -44.5 106t-115.5 36z" />
    <glyph glyph-name="Edotaccent" unicode="&#x116;" horiz-adv-x="1159" 
d="M801 1589q-83 0 -131.5 58t-34.5 141q14 82 83.5 139.5t152.5 57.5q80 0 127.5 -58t33.5 -139q-13 -82 -82 -140.5t-149 -58.5zM1149 1151h-518l-47 -266h463l-54 -307h-463l-47 -265h518l-55 -313h-876l258 1462h876z" />
    <glyph glyph-name="edotaccent" unicode="&#x117;" horiz-adv-x="1198" 
d="M750 1155q-83 0 -136 58t-45 141q10 81 75.5 138.5t148.5 57.5q80 0 131.5 -57.5t42.5 -138.5q-8 -83 -72.5 -141t-144.5 -58zM688 1071q217 0 344 -105t127 -313q0 -59 -12 -127l-14 -69h-763q-1 -14 -1 -41q0 -85 49.5 -127.5t134.5 -42.5q76 0 138 34.5t100 96.5
l309 -64q-77 -162 -222.5 -247.5t-326.5 -85.5q-242 0 -377 116t-135 326q0 128 42.5 243.5t122 206.5t205 145t279.5 54zM684 838q-180 0 -260 -158h419q1 5 1 16q0 70 -44.5 106t-115.5 36z" />
    <glyph glyph-name="Eogonek" unicode="&#x118;" horiz-adv-x="1159" 
d="M1149 1151h-518l-47 -266h463l-54 -307h-463l-47 -265h518l-55 -313q-80 -58 -142.5 -119.5t-68.5 -95.5q-3 -16 8.5 -23.5t34.5 -7.5q32 0 70.5 13.5t62.5 33.5l-39 -219q-81 -33 -172 -33q-87 0 -141 30.5t-43 88.5q19 122 290 332h-736l258 1462h876z" />
    <glyph glyph-name="eogonek" unicode="&#x119;" horiz-adv-x="1198" 
d="M688 1071q217 0 344 -105t127 -313q0 -59 -12 -127l-14 -69h-763q-1 -14 -1 -41q0 -85 49.5 -127.5t134.5 -42.5q76 0 138 34.5t100 96.5l309 -64q-81 -170 -240 -257q-85 -78 -92 -119q-3 -16 8.5 -23.5t34.5 -7.5q32 0 70.5 13.5t62.5 33.5l-39 -219q-81 -33 -172 -33
q-87 0 -141 30.5t-43 88.5q11 68 104 167q-46 -7 -102 -7q-242 0 -377 116t-135 326q0 128 42.5 243.5t122 206.5t205 145t279.5 54zM684 838q-180 0 -260 -158h419q1 5 1 16q0 70 -44.5 106t-115.5 36z" />
    <glyph glyph-name="Ecaron" unicode="&#x11a;" horiz-adv-x="1159" 
d="M901 1589h-204l-185 301h217l92 -176l154 176h217zM1149 1151h-518l-47 -266h463l-54 -307h-463l-47 -265h518l-55 -313h-876l258 1462h876z" />
    <glyph glyph-name="ecaron" unicode="&#x11b;" horiz-adv-x="1198" 
d="M850 1229h-205l-184 301h217l92 -176l154 176h217zM688 1071q217 0 344 -105t127 -313q0 -59 -12 -127l-14 -69h-763q-1 -14 -1 -41q0 -85 49.5 -127.5t134.5 -42.5q76 0 138 34.5t100 96.5l309 -64q-77 -162 -222.5 -247.5t-326.5 -85.5q-242 0 -377 116t-135 326
q0 128 42.5 243.5t122 206.5t205 145t279.5 54zM684 838q-180 0 -260 -158h419q1 5 1 16q0 70 -44.5 106t-115.5 36z" />
    <glyph glyph-name="Gbreve" unicode="&#x11e;" horiz-adv-x="1632" 
d="M1004 1589q-89 0 -153.5 16t-110.5 51t-62 97t0 148h205q-13 -75 26 -111.5t124 -36.5q178 0 204 148h205q-31 -168 -142.5 -240t-295.5 -72zM725 -20q-289 0 -462 165.5t-173 444.5q0 135 37.5 265t113 243t179 199.5t245 136t302.5 49.5q222 0 381 -95.5t229 -261.5
l-330 -145q-64 197 -291 197q-96 0 -180.5 -34.5t-145 -93.5t-104 -135.5t-65 -161.5t-21.5 -171q0 -143 82 -219t246 -76q146 0 257.5 64t166.5 194l-356 -13l51 283h692l-145 -815h-277l37 162q-176 -182 -469 -182z" />
    <glyph glyph-name="gbreve" unicode="&#x11f;" horiz-adv-x="1292" 
d="M753 1155q-177 0 -262.5 93.5t-52.5 279.5h205q-17 -94 20 -151.5t119 -57.5t139.5 57.5t75.5 151.5h205q-33 -186 -152 -279.5t-297 -93.5zM928 1051h325l-172 -973q-22 -127 -65.5 -224.5t-101.5 -163t-135.5 -107t-163 -59.5t-187.5 -18q-447 0 -514 340l293 93
q28 -93 75 -131.5t134 -38.5q135 0 216.5 79.5t104.5 225.5l11 67q-51 -47 -128 -74.5t-163 -27.5q-181 0 -297.5 116.5t-116.5 311.5q0 164 73.5 302t201 219t280.5 81q108 0 187.5 -41t113.5 -107zM569 313q118 0 205.5 87t87.5 210q0 85 -53.5 139t-140.5 54
q-123 0 -209 -90.5t-86 -208.5q0 -85 54 -138t142 -53z" />
    <glyph glyph-name="Gdotaccent" unicode="&#x120;" horiz-adv-x="1632" 
d="M1006 1589q-83 0 -131.5 58t-34.5 141q14 82 83.5 139.5t152.5 57.5q80 0 127.5 -58t33.5 -139q-13 -82 -82 -140.5t-149 -58.5zM725 -20q-289 0 -462 165.5t-173 444.5q0 135 37.5 265t113 243t179 199.5t245 136t302.5 49.5q222 0 381 -95.5t229 -261.5l-330 -145
q-64 197 -291 197q-96 0 -180.5 -34.5t-145 -93.5t-104 -135.5t-65 -161.5t-21.5 -171q0 -143 82 -219t246 -76q146 0 257.5 64t166.5 194l-356 -13l51 283h692l-145 -815h-277l37 162q-176 -182 -469 -182z" />
    <glyph glyph-name="gdotaccent" unicode="&#x121;" horiz-adv-x="1292" 
d="M768 1153q-83 0 -136 58t-45 141q10 81 75.5 138.5t148.5 57.5q80 0 131.5 -57.5t42.5 -138.5q-8 -83 -72.5 -141t-144.5 -58zM928 1051h325l-172 -973q-22 -127 -65.5 -224.5t-101.5 -163t-135.5 -107t-163 -59.5t-187.5 -18q-447 0 -514 340l293 93q28 -93 75 -131.5
t134 -38.5q135 0 216.5 79.5t104.5 225.5l11 67q-51 -47 -128 -74.5t-163 -27.5q-181 0 -297.5 116.5t-116.5 311.5q0 164 73.5 302t201 219t280.5 81q108 0 187.5 -41t113.5 -107zM569 313q118 0 205.5 87t87.5 210q0 85 -53.5 139t-140.5 54q-123 0 -209 -90.5t-86 -208.5
q0 -85 54 -138t142 -53z" />
    <glyph glyph-name="Gcommaaccent" unicode="&#x122;" horiz-adv-x="1632" 
d="M725 -20q-289 0 -462 165.5t-173 444.5q0 135 37.5 265t113 243t179 199.5t245 136t302.5 49.5q222 0 381 -95.5t229 -261.5l-330 -145q-64 197 -291 197q-96 0 -180.5 -34.5t-145 -93.5t-104 -135.5t-65 -161.5t-21.5 -171q0 -143 82 -219t246 -76q146 0 257.5 64
t166.5 194l-356 -13l51 283h692l-145 -815h-277l37 162q-176 -182 -469 -182zM463 -584l-160 82l239 379h314z" />
    <glyph glyph-name="gcommaaccent" unicode="&#x123;" horiz-adv-x="1292" 
d="M1235 1529l-308 -342h-377l421 342h264zM928 1051h325l-172 -973q-22 -127 -65.5 -224.5t-101.5 -163t-135.5 -107t-163 -59.5t-187.5 -18q-447 0 -514 340l293 93q28 -93 75 -131.5t134 -38.5q135 0 216.5 79.5t104.5 225.5l11 67q-51 -47 -128 -74.5t-163 -27.5
q-181 0 -297.5 116.5t-116.5 311.5q0 164 73.5 302t201 219t280.5 81q108 0 187.5 -41t113.5 -107zM569 313q118 0 205.5 87t87.5 210q0 85 -53.5 139t-140.5 54q-123 0 -209 -90.5t-86 -208.5q0 -85 54 -138t142 -53z" />
    <glyph glyph-name="Hbar" unicode="&#x126;" horiz-adv-x="1604" 
d="M1702 1225l-25 -135h-137l-194 -1090h-357l103 580h-563l-103 -580h-356l192 1090h-135l24 135h135l42 237h358l-42 -237h563l42 237h357l-42 -237h138zM1147 887l36 203h-563l-36 -203h563z" />
    <glyph glyph-name="hbar" unicode="&#x127;" horiz-adv-x="1266" 
d="M891 1069q144 0 223.5 -75t79.5 -208q0 -26 -8 -92l-125 -694h-340l117 664q4 28 4 41q0 94 -107 94q-35 0 -69.5 -9.5t-71 -31.5t-66 -64t-46.5 -100l-105 -594h-340l209 1181h-134l37 217h136l24 138h340l-24 -138h270l-37 -217h-272l-48 -270q148 158 353 158z" />
    <glyph glyph-name="Itilde" unicode="&#x128;" horiz-adv-x="684" 
d="M678 1589q-127 0 -186 121q-17 35 -43 35q-65 0 -90 -141h-185q25 142 106.5 231.5t192.5 89.5q130 0 187 -121q7 -12 10.5 -17.5t12.5 -11t22 -5.5q33 0 53.5 36t34.5 105h186q-26 -142 -105 -232t-196 -90zM70 0l258 1462h356l-258 -1462h-356z" />
    <glyph glyph-name="itilde" unicode="&#x129;" horiz-adv-x="629" 
d="M565 1174q-118 0 -164 106q-13 31 -39 31q-56 0 -77 -125h-164q21 127 92.5 205.5t171.5 78.5q117 0 166 -106q12 -31 39 -31q29 0 46.5 31.5t29.5 93.5h165q-22 -125 -93 -204.5t-173 -79.5zM37 0l188 1059h367l-189 -1059h-366z" />
    <glyph glyph-name="Imacron" unicode="&#x12a;" horiz-adv-x="684" 
d="M188 1589l37 209h676l-37 -209h-676zM70 0l258 1462h356l-258 -1462h-356z" />
    <glyph glyph-name="imacron" unicode="&#x12b;" horiz-adv-x="629" 
d="M99 1210l37 209h676l-37 -209h-676zM37 0l188 1059h367l-189 -1059h-366z" />
    <glyph glyph-name="Iogonek" unicode="&#x12e;" horiz-adv-x="684" 
d="M426 0q-80 -58 -142.5 -119.5t-68.5 -95.5q-3 -16 8.5 -23.5t34.5 -7.5q32 0 70.5 13.5t62.5 33.5l-39 -219q-81 -33 -172 -33q-87 0 -141 30.5t-43 88.5q19 122 290 332h-216l258 1462h356z" />
    <glyph glyph-name="iogonek" unicode="&#x12f;" horiz-adv-x="629" 
d="M486 1556q80 0 131.5 -57.5t42.5 -138.5q-8 -83 -72.5 -141t-144.5 -58q-83 0 -136 58t-45 141q10 81 75.5 138.5t148.5 57.5zM37 0l188 1059h367l-189 -1059q-80 -58 -142.5 -119.5t-68.5 -95.5q-3 -16 8.5 -23.5t34.5 -7.5q32 0 70.5 13.5t62.5 33.5l-39 -219
q-81 -33 -172 -33q-87 0 -141 30.5t-43 88.5q19 122 290 332h-226z" />
    <glyph glyph-name="Idotaccent" unicode="&#x130;" horiz-adv-x="684" 
d="M529 1589q-83 0 -131.5 58t-34.5 141q14 82 83.5 139.5t152.5 57.5q80 0 127.5 -58t33.5 -139q-13 -82 -82 -140.5t-149 -58.5zM70 0l258 1462h356l-258 -1462h-356z" />
    <glyph glyph-name="dotlessi" unicode="&#x131;" horiz-adv-x="629" 
d="M37 0l188 1059h367l-189 -1059h-366z" />
    <glyph glyph-name="Kcommaaccent" unicode="&#x136;" horiz-adv-x="1499" 
d="M953 756l-4 -21l421 -735h-418l-332 612h-86l-108 -612h-356l258 1462h356l-95 -540h103l518 540h443zM225 -502l239 379h314l-393 -461z" />
    <glyph glyph-name="kcommaaccent" unicode="&#x137;" horiz-adv-x="1231" 
d="M1315 1051l-505 -497l341 -554h-399l-248 430h-45l-76 -430h-346l272 1536h346l-154 -872h51l372 387h391zM104 -502l239 379h314l-393 -461z" />
    <glyph glyph-name="Lacute" unicode="&#x139;" horiz-adv-x="987" 
d="M915 1862l-274 -273h-217l340 396zM485 313h435l-56 -313h-794l258 1462h356z" />
    <glyph glyph-name="lacute" unicode="&#x13a;" horiz-adv-x="606" 
d="M397 1659l340 395l154 -123l-277 -272h-217zM37 0l272 1536h346l-272 -1536h-346z" />
    <glyph glyph-name="Lcommaaccent" unicode="&#x13b;" horiz-adv-x="987" 
d="M485 313h435l-56 -313h-794l258 1462h356zM51 -502l239 379h314l-393 -461z" />
    <glyph glyph-name="lcommaaccent" unicode="&#x13c;" horiz-adv-x="606" 
d="M37 0l272 1536h346l-272 -1536h-346zM-49 -584l-160 82l239 379h314z" />
    <glyph glyph-name="Lcaron" unicode="&#x13d;" horiz-adv-x="1190" 
d="M969 1471h377l-361 -676h-264zM684 1462l-199 -1149h435l-56 -313h-794l258 1462h356z" />
    <glyph glyph-name="lcaron" unicode="&#x13e;" horiz-adv-x="915" 
d="M37 0l272 1536h369l-272 -1536h-369zM692 860l127 676h373l-242 -676h-258z" />
    <glyph glyph-name="Lslash" unicode="&#x141;" horiz-adv-x="987" 
d="M485 313h435l-56 -313h-794l88 496l-203 -132l39 217l202 132l132 749h356l-84 -484l183 120l-39 -220l-182 -118z" />
    <glyph glyph-name="lslash" unicode="&#x142;" horiz-adv-x="606" 
d="M764 1176l-39 -220l-195 -127l-147 -829h-346l102 574l-203 -132l39 217l202 132l132 745h346l-86 -488z" />
    <glyph glyph-name="Nacute" unicode="&#x143;" horiz-adv-x="1690" 
d="M1419 1862l-274 -273h-217l340 396zM1333 1462h357l-258 -1462h-416l-415 986l-175 -986h-356l258 1462h413l421 -978z" />
    <glyph glyph-name="nacute" unicode="&#x144;" horiz-adv-x="1266" 
d="M1131 1446l-277 -272h-217l340 395zM891 1069q145 0 224 -74.5t79 -208.5q0 -26 -8 -92l-125 -694h-342l119 664q4 28 4 38q0 52 -31 74.5t-92 22.5q-71 0 -139 -50t-98 -155l-105 -594h-340l186 1051h340l-25 -141q147 159 353 159z" />
    <glyph glyph-name="Ncommaaccent" unicode="&#x145;" horiz-adv-x="1690" 
d="M1333 1462h357l-258 -1462h-416l-415 986l-175 -986h-356l258 1462h413l421 -978zM334 -502l239 379h314l-393 -461z" />
    <glyph glyph-name="ncommaaccent" unicode="&#x146;" horiz-adv-x="1266" 
d="M891 1069q145 0 224 -74.5t79 -208.5q0 -26 -8 -92l-125 -694h-342l119 664q4 28 4 38q0 52 -31 74.5t-92 22.5q-71 0 -139 -50t-98 -155l-105 -594h-340l186 1051h340l-25 -141q147 159 353 159zM117 -502l239 379h314l-393 -461z" />
    <glyph glyph-name="Ncaron" unicode="&#x147;" horiz-adv-x="1690" 
d="M1135 1589h-204l-185 301h217l92 -176l154 176h217zM1333 1462h357l-258 -1462h-416l-415 986l-175 -986h-356l258 1462h413l421 -978z" />
    <glyph glyph-name="ncaron" unicode="&#x148;" horiz-adv-x="1266" 
d="M854 1227h-205l-184 301h217l92 -176l154 176h217zM891 1069q145 0 224 -74.5t79 -208.5q0 -26 -8 -92l-125 -694h-342l119 664q4 28 4 38q0 52 -31 74.5t-92 22.5q-71 0 -139 -50t-98 -155l-105 -594h-340l186 1051h340l-25 -141q147 159 353 159z" />
    <glyph glyph-name="Eng" unicode="&#x14a;" horiz-adv-x="1722" 
d="M1724 1470l-215 -1213l2 1l-47 -258q-38 -221 -204 -348t-408 -127l47 278q70 0 109.5 54t3.5 143l-392 954l-169 -954h-381l260 1470h448l398 -947l167 947h381z" />
    <glyph glyph-name="eng" unicode="&#x14b;" horiz-adv-x="1296" 
d="M915 1079q179 0 257 -101t47 -278l-148 -833q-31 -173 -138 -269t-280 -96h-213l43 252h84q53 0 91.5 27.5t48.5 89.5l133 756q29 151 -99 151q-90 0 -155.5 -51.5t-81.5 -144.5h-1l-104 -582h-362l188 1059h363l-25 -140q152 160 352 160z" />
    <glyph glyph-name="Omacron" unicode="&#x14c;" horiz-adv-x="1645" 
d="M671 1589l37 209h676l-37 -209h-676zM748 -20q-299 0 -477.5 167t-178.5 449q0 135 38 265t113.5 242t179.5 197t245 134t301 49q297 0 476 -166.5t179 -448.5q0 -170 -61.5 -329t-171.5 -283.5t-278 -200t-365 -75.5zM762 305q114 0 212 48t162.5 125.5t101 174
t36.5 195.5q0 144 -87 227.5t-233 83.5q-112 0 -209.5 -47.5t-163 -124.5t-102.5 -174t-37 -197q0 -145 87.5 -228t232.5 -83z" />
    <glyph glyph-name="omacron" unicode="&#x14d;" horiz-adv-x="1284" 
d="M420 1200l37 209h676l-37 -209h-676zM565 -20q-241 0 -383.5 119.5t-142.5 332.5q0 130 45.5 245t129.5 202.5t213.5 138.5t287.5 51q243 0 385.5 -119.5t142.5 -331.5q0 -130 -46 -245.5t-131 -203t-214.5 -138.5t-286.5 -51zM573 248q78 0 143 32.5t104.5 84.5
t61 113.5t21.5 123.5q0 92 -54 147.5t-151 55.5q-75 0 -137.5 -33t-101 -86t-59.5 -114t-21 -121q0 -95 51 -149t143 -54z" />
    <glyph glyph-name="Ohungarumlaut" unicode="&#x150;" horiz-adv-x="1645" 
d="M707 1589l340 396l151 -123l-274 -273h-217zM1096 1589l340 396l151 -123l-274 -273h-217zM748 -20q-299 0 -477.5 167t-178.5 449q0 135 38 265t113.5 242t179.5 197t245 134t301 49q297 0 476 -166.5t179 -448.5q0 -170 -61.5 -329t-171.5 -283.5t-278 -200t-365 -75.5
zM762 305q114 0 212 48t162.5 125.5t101 174t36.5 195.5q0 144 -87 227.5t-233 83.5q-112 0 -209.5 -47.5t-163 -124.5t-102.5 -174t-37 -197q0 -145 87.5 -228t232.5 -83z" />
    <glyph glyph-name="ohungarumlaut" unicode="&#x151;" horiz-adv-x="1284" 
d="M448 1172l340 395l154 -123l-277 -272h-217zM837 1172l340 395l154 -123l-277 -272h-217zM565 -20q-241 0 -383.5 119.5t-142.5 332.5q0 130 45.5 245t129.5 202.5t213.5 138.5t287.5 51q243 0 385.5 -119.5t142.5 -331.5q0 -130 -46 -245.5t-131 -203t-214.5 -138.5
t-286.5 -51zM573 248q78 0 143 32.5t104.5 84.5t61 113.5t21.5 123.5q0 92 -54 147.5t-151 55.5q-75 0 -137.5 -33t-101 -86t-59.5 -114t-21 -121q0 -95 51 -149t143 -54z" />
    <glyph glyph-name="OE" unicode="&#x152;" horiz-adv-x="2028" 
d="M702 0q-616 0 -616 526q0 138 26 265t90 251t161 215t250.5 147t347.5 56h1112l-60 -334h-545l-38 -229h458l-59 -334h-459l-41 -229h545l-59 -334h-1113zM782 334h166l139 792h-165q-106 0 -186 -34.5t-126 -87.5t-75 -128.5t-38.5 -146t-9.5 -151.5q0 -124 68 -184
t227 -60z" />
    <glyph glyph-name="oe" unicode="&#x153;" horiz-adv-x="2062" 
d="M1552 1071q217 0 344 -105t127 -313q0 -59 -12 -127l-14 -69h-763q-1 -14 -1 -41q0 -85 49.5 -127.5t134.5 -42.5q76 0 138 34.5t100 96.5l309 -64q-77 -162 -222.5 -247.5t-326.5 -85.5q-269 0 -404 141q-179 -141 -446 -141q-241 0 -383.5 119.5t-142.5 332.5
q0 130 45.5 245t129.5 202.5t213.5 138.5t287.5 51q268 0 410 -142q172 144 427 144zM1548 838q-180 0 -260 -158h419q1 5 1 16q0 70 -44.5 106t-115.5 36zM573 248q78 0 143 32.5t104.5 84.5t61 113.5t21.5 123.5q0 92 -54 147.5t-151 55.5q-75 0 -137.5 -33t-101 -86
t-59.5 -114t-21 -121q0 -95 51 -149t143 -54z" />
    <glyph glyph-name="Racute" unicode="&#x154;" horiz-adv-x="1352" 
d="M1238 1862l-274 -273h-217l340 396zM1290 1094q0 -172 -92.5 -293.5t-271.5 -153.5l327 -647h-395l-292 637h-28l-112 -637h-356l258 1462h540q213 0 317.5 -99.5t104.5 -268.5zM631 1169l-56 -317h127q68 0 119.5 18.5t77.5 48.5t38.5 60.5t12.5 60.5q0 65 -38.5 97
t-131.5 32h-149z" />
    <glyph glyph-name="racute" unicode="&#x155;" horiz-adv-x="811" 
d="M875 1446l-277 -272h-217l340 395zM523 887q55 70 156.5 122t209.5 52l-60 -326q-158 0 -249 -68.5t-117 -213.5l-80 -453h-346l186 1051h328z" />
    <glyph glyph-name="Rcommaaccent" unicode="&#x156;" horiz-adv-x="1352" 
d="M1290 1094q0 -172 -92.5 -293.5t-271.5 -153.5l327 -647h-395l-292 637h-28l-112 -637h-356l258 1462h540q213 0 317.5 -99.5t104.5 -268.5zM631 1169l-56 -317h127q68 0 119.5 18.5t77.5 48.5t38.5 60.5t12.5 60.5q0 65 -38.5 97t-131.5 32h-149zM151 -502l239 379h314
l-393 -461z" />
    <glyph glyph-name="rcommaaccent" unicode="&#x157;" horiz-adv-x="811" 
d="M523 887q55 70 156.5 122t209.5 52l-60 -326q-158 0 -249 -68.5t-117 -213.5l-80 -453h-346l186 1051h328zM-211 -502l239 379h314l-393 -461z" />
    <glyph glyph-name="Rcaron" unicode="&#x158;" horiz-adv-x="1352" 
d="M954 1589h-204l-185 301h217l92 -176l154 176h217zM1290 1094q0 -172 -92.5 -293.5t-271.5 -153.5l327 -647h-395l-292 637h-28l-112 -637h-356l258 1462h540q213 0 317.5 -99.5t104.5 -268.5zM631 1169l-56 -317h127q68 0 119.5 18.5t77.5 48.5t38.5 60.5t12.5 60.5
q0 65 -38.5 97t-131.5 32h-149z" />
    <glyph glyph-name="rcaron" unicode="&#x159;" horiz-adv-x="811" 
d="M598 1227h-205l-184 301h217l92 -176l154 176h217zM523 887q55 70 156.5 122t209.5 52l-60 -326q-158 0 -249 -68.5t-117 -213.5l-80 -453h-346l186 1051h328z" />
    <glyph glyph-name="Sacute" unicode="&#x15a;" horiz-adv-x="1298" 
d="M737 1589l340 396l151 -123l-274 -273h-217zM612 -20q-166 0 -297 52t-207.5 156t-72.5 244l379 62q2 -109 56.5 -168.5t164.5 -59.5q92 0 150.5 50t58.5 116q0 32 -13 57.5t-35.5 44t-54 34.5t-67 29t-76.5 27q-11 3 -16 5q-48 16 -81 28.5t-77 33t-73.5 41t-61.5 50.5
t-51 63.5t-31 78t-12 96.5q0 137 74.5 243.5t202.5 163t288 56.5q105 0 200 -23.5t176 -70.5t130.5 -128.5t52.5 -187.5l-350 -61q1 97 -50.5 140.5t-142.5 43.5q-95 0 -159 -40.5t-64 -104.5q0 -34 16.5 -60t50.5 -45t70 -32.5t91 -30.5q3 -1 5 -1.5t4.5 -1t4.5 -1.5
q49 -16 85 -29t82.5 -34.5t79.5 -43.5t67.5 -54t56 -68t35 -84t13.5 -103q0 -147 -80 -258t-215.5 -168t-306.5 -57z" />
    <glyph glyph-name="sacute" unicode="&#x15b;" horiz-adv-x="999" 
d="M512 1174l340 395l154 -123l-277 -272h-217zM424 -20q-198 0 -307.5 79t-114.5 224l313 57q-1 -67 36.5 -102t97.5 -35q51 0 88.5 29t37.5 85q0 23 -8.5 40.5t-20 28.5t-39.5 22t-49 17.5t-67 18.5q-51 14 -87.5 27.5t-76.5 36.5t-64.5 50.5t-40.5 70.5t-16 96
q0 84 36 150.5t98.5 108.5t143 63.5t173.5 21.5q82 0 153.5 -17t129 -50.5t92 -91t37.5 -132.5l-279 -37q-2 107 -127 107q-60 0 -97.5 -26t-37.5 -72q0 -15 4.5 -27.5t15 -21.5t21 -15.5t30 -12.5t33.5 -9.5l40 -10l42 -10.5q68 -18 116.5 -39t92 -55t66 -85.5t22.5 -119.5
q0 -90 -37.5 -160.5t-104 -114.5t-154 -66.5t-191.5 -22.5z" />
    <glyph glyph-name="Scedilla" unicode="&#x15e;" horiz-adv-x="1298" 
d="M795 879q49 -16 85 -29t82.5 -34.5t79.5 -43.5t67.5 -54t56 -68t35 -84t13.5 -103q0 -144 -77 -254t-209 -168t-298 -61l-75 -93q24 4 39 4q84 0 128.5 -54t29.5 -138q-17 -97 -95.5 -164t-175.5 -67q-93 0 -148.5 46.5t-64.5 118.5l164 50q4 -28 23 -43t45 -15
q31 0 57.5 20t32.5 54q7 36 -12.5 56t-51.5 20q-47 0 -75 -37l-113 69l136 183q-202 31 -323 147t-116 295l379 62q2 -109 56.5 -168.5t164.5 -59.5q92 0 150.5 50t58.5 116q0 32 -13 57.5t-35.5 44t-54 34.5t-67 29t-76.5 27q-11 3 -16 5q-48 16 -81 28.5t-77 33t-73.5 41
t-61.5 50.5t-51 63.5t-31 78t-12 96.5q0 137 74.5 243.5t202.5 163t288 56.5q105 0 200 -23.5t176 -70.5t130.5 -128.5t52.5 -187.5l-350 -61q1 97 -50.5 140.5t-142.5 43.5q-95 0 -159 -40.5t-64 -104.5q0 -34 16.5 -60t50.5 -45t70 -32.5t91 -30.5q3 -1 5 -1.5t4.5 -1
t4.5 -1.5z" />
    <glyph glyph-name="scedilla" unicode="&#x15f;" horiz-adv-x="999" 
d="M614 643q68 -18 116.5 -39t92 -55t66 -85.5t22.5 -119.5q0 -165 -119 -257.5t-312 -104.5l-74 -93q24 4 39 4q84 0 128.5 -54t29.5 -138q-17 -97 -95.5 -164t-175.5 -67q-93 0 -148.5 46.5t-64.5 118.5l164 50q4 -28 23 -43t45 -15q31 0 57.5 20t32.5 54q7 36 -12.5 56
t-51.5 20q-47 0 -75 -37l-113 69l132 177q-150 20 -232.5 96.5t-86.5 200.5l313 57q-1 -67 36.5 -102t97.5 -35q51 0 88.5 29t37.5 85q0 23 -8.5 40.5t-20 28.5t-39.5 22t-49 17.5t-67 18.5q-51 14 -87.5 27.5t-76.5 36.5t-64.5 50.5t-40.5 70.5t-16 96q0 84 36 150.5
t98.5 108.5t143 63.5t173.5 21.5q82 0 153.5 -17t129 -50.5t92 -91t37.5 -132.5l-279 -37q-2 107 -127 107q-60 0 -97.5 -26t-37.5 -72q0 -15 4.5 -27.5t15 -21.5t21 -15.5t30 -12.5t33.5 -9.5l40 -10z" />
    <glyph glyph-name="Scaron" unicode="&#x160;" horiz-adv-x="1298" 
d="M740 1589l-185 301h217l92 -176l154 176h217l-291 -301h-204zM612 -20q-166 0 -297 52t-207.5 156t-72.5 244l379 62q2 -109 56.5 -168.5t164.5 -59.5q92 0 150.5 50t58.5 116q0 32 -13 57.5t-35.5 44t-54 34.5t-67 29t-76.5 27q-11 3 -16 5q-48 16 -81 28.5t-77 33
t-73.5 41t-61.5 50.5t-51 63.5t-31 78t-12 96.5q0 137 74.5 243.5t202.5 163t288 56.5q105 0 200 -23.5t176 -70.5t130.5 -128.5t52.5 -187.5l-350 -61q1 97 -50.5 140.5t-142.5 43.5q-95 0 -159 -40.5t-64 -104.5q0 -34 16.5 -60t50.5 -45t70 -32.5t91 -30.5q3 -1 5 -1.5
t4.5 -1t4.5 -1.5q49 -16 85 -29t82.5 -34.5t79.5 -43.5t67.5 -54t56 -68t35 -84t13.5 -103q0 -147 -80 -258t-215.5 -168t-306.5 -57z" />
    <glyph glyph-name="scaron" unicode="&#x161;" horiz-adv-x="999" 
d="M524 1227l-184 301h217l92 -176l154 176h217l-291 -301h-205zM424 -20q-198 0 -307.5 79t-114.5 224l313 57q-1 -67 36.5 -102t97.5 -35q51 0 88.5 29t37.5 85q0 23 -8.5 40.5t-20 28.5t-39.5 22t-49 17.5t-67 18.5q-51 14 -87.5 27.5t-76.5 36.5t-64.5 50.5t-40.5 70.5
t-16 96q0 84 36 150.5t98.5 108.5t143 63.5t173.5 21.5q82 0 153.5 -17t129 -50.5t92 -91t37.5 -132.5l-279 -37q-2 107 -127 107q-60 0 -97.5 -26t-37.5 -72q0 -15 4.5 -27.5t15 -21.5t21 -15.5t30 -12.5t33.5 -9.5l40 -10l42 -10.5q68 -18 116.5 -39t92 -55t66 -85.5
t22.5 -119.5q0 -90 -37.5 -160.5t-104 -114.5t-154 -66.5t-191.5 -22.5z" />
    <glyph glyph-name="uni0162" unicode="&#x162;" horiz-adv-x="1081" 
d="M625 0h-91l-91 -113q24 4 39 4q84 0 128.5 -54t29.5 -138q-17 -97 -95.5 -164t-175.5 -67q-93 0 -148.5 46.5t-64.5 118.5l164 50q4 -28 23 -43t45 -15q31 0 57.5 20t32.5 54q7 36 -12.5 56t-51.5 20q-47 0 -75 -37l-113 69l143 193h-97l203 1151h-338l56 311h1026
l-56 -311h-335z" />
    <glyph glyph-name="uni0163" unicode="&#x163;" horiz-adv-x="831" 
d="M600 791l-74 -418q-4 -19 -4 -45q0 -41 20 -56.5t64 -15.5h107l-47 -256h-73l-91 -113q24 4 39 4q84 0 128.5 -54t29.5 -138q-17 -97 -95.5 -164t-175.5 -67q-93 0 -148.5 46.5t-64.5 118.5l164 50q4 -28 23 -43t45 -15q31 0 57.5 20t32.5 54q7 36 -12.5 56t-51.5 20
q-47 0 -75 -37l-113 69l144 194q-125 9 -193 80.5t-68 192.5q0 32 10 82l78 435h-205l47 260h49q86 0 146.5 48.5t77.5 141.5l24 141h310l-58 -331h205l-45 -260h-207z" />
    <glyph glyph-name="Tcaron" unicode="&#x164;" horiz-adv-x="1081" 
d="M832 1589h-204l-185 301h217l92 -176l154 176h217zM1219 1462l-56 -311h-335l-203 -1151h-353l203 1151h-338l56 311h1026z" />
    <glyph glyph-name="tcaron" unicode="&#x165;" horiz-adv-x="858" 
d="M821 1198l127 676h373l-242 -676h-258zM477 0q-145 0 -224 74.5t-79 208.5q0 45 8 86l74 413h-203l49 277h48q88 0 150.5 50t80.5 146l22 138h330l-57 -334h203l-50 -277h-202l-72 -397q-4 -36 -4 -45q0 -39 18.5 -53.5t63.5 -14.5h106l-49 -272h-213z" />
    <glyph glyph-name="Tbar" unicode="&#x166;" horiz-adv-x="1081" 
d="M1163 1151h-335l-55 -312h196l-37 -217h-197l-110 -622h-353l110 622h-196l37 217h197l55 312h-338l56 311h1026z" />
    <glyph glyph-name="tbar" unicode="&#x167;" horiz-adv-x="831" 
d="M807 791h-207l-28 -157h149l-33 -217h-154l-8 -44q-4 -19 -4 -45q0 -41 20 -56.5t64 -15.5h107l-47 -256h-203q-141 0 -218 72t-77 202q0 32 10 82l11 61h-148l32 217h155l28 157h-205l47 260h49q86 0 146.5 48.5t77.5 141.5l24 141h310l-58 -331h205z" />
    <glyph glyph-name="Utilde" unicode="&#x168;" horiz-adv-x="1452" 
d="M1063 1589q-127 0 -186 121q-17 35 -43 35q-65 0 -90 -141h-185q25 142 106.5 231.5t192.5 89.5q130 0 187 -121q7 -12 10.5 -17.5t12.5 -11t22 -5.5q33 0 53.5 36t34.5 105h186q-26 -142 -105 -232t-196 -90zM649 -20q-157 0 -273 44.5t-185.5 143.5t-69.5 244
q0 60 12 125l164 925h356l-157 -901q-11 -55 -11 -94q0 -95 46 -134.5t128 -39.5q116 0 199 70.5t111 220.5l155 878h357l-168 -950q-25 -142 -87.5 -246.5t-152.5 -166t-195.5 -90.5t-228.5 -29z" />
    <glyph glyph-name="utilde" unicode="&#x169;" horiz-adv-x="1266" 
d="M681 1303q-56 0 -77 -125h-164q21 127 92.5 205.5t171.5 78.5q117 0 166 -106q12 -31 39 -31q29 0 46.5 31.5t29.5 93.5h165q-22 -125 -93 -204.5t-173 -79.5q-118 0 -164 106q-13 31 -39 31zM887 1051h340l-187 -1051h-319l17 153q-70 -81 -162.5 -127t-198.5 -46
q-149 0 -228 74.5t-79 209.5q0 47 8 90l125 697h340l-111 -627q-6 -32 -6 -53q0 -109 111 -109q93 0 160 54.5t85 150.5h2z" />
    <glyph glyph-name="Umacron" unicode="&#x16a;" horiz-adv-x="1452" 
d="M573 1589l37 209h676l-37 -209h-676zM649 -20q-157 0 -273 44.5t-185.5 143.5t-69.5 244q0 60 12 125l164 925h356l-157 -901q-11 -55 -11 -94q0 -95 46 -134.5t128 -39.5q116 0 199 70.5t111 220.5l155 878h357l-168 -950q-25 -142 -87.5 -246.5t-152.5 -166
t-195.5 -90.5t-228.5 -29z" />
    <glyph glyph-name="umacron" unicode="&#x16b;" horiz-adv-x="1266" 
d="M1131 1411l-37 -209h-676l37 209h676zM887 1051h340l-187 -1051h-319l17 153q-70 -81 -162.5 -127t-198.5 -46q-149 0 -228 74.5t-79 209.5q0 47 8 90l125 697h340l-111 -627q-6 -32 -6 -53q0 -109 111 -109q93 0 160 54.5t85 150.5h2z" />
    <glyph glyph-name="Uring" unicode="&#x16e;" horiz-adv-x="1452" 
d="M925 1589q-99 0 -162.5 60t-68.5 155q-6 118 80.5 210t214.5 92q99 0 159.5 -59.5t65.5 -153.5q6 -119 -78.5 -211.5t-210.5 -92.5zM940 1735q63 0 97 39.5t34 91.5q0 42 -25.5 70t-72.5 28q-59 0 -94 -41.5t-35 -95.5q0 -44 24.5 -68t71.5 -24zM649 -20
q-157 0 -273 44.5t-185.5 143.5t-69.5 244q0 60 12 125l164 925h356l-157 -901q-11 -55 -11 -94q0 -95 46 -134.5t128 -39.5q116 0 199 70.5t111 220.5l155 878h357l-168 -950q-25 -142 -87.5 -246.5t-152.5 -166t-195.5 -90.5t-228.5 -29z" />
    <glyph glyph-name="uring" unicode="&#x16f;" horiz-adv-x="1266" 
d="M764 1149q-108 0 -176.5 76.5t-57.5 183.5q13 105 97.5 180.5t191.5 75.5q106 0 173 -75.5t54 -180.5q-10 -107 -93 -183.5t-189 -76.5zM680 1409q-5 -51 22.5 -82.5t75.5 -31.5t84.5 31.5t40.5 82.5q5 46 -24.5 80.5t-75.5 34.5q-47 0 -82.5 -34.5t-40.5 -80.5z
M887 1051h340l-187 -1051h-319l17 153q-70 -81 -162.5 -127t-198.5 -46q-149 0 -228 74.5t-79 209.5q0 47 8 90l125 697h340l-111 -627q-6 -32 -6 -53q0 -109 111 -109q93 0 160 54.5t85 150.5h2z" />
    <glyph glyph-name="Uhungarumlaut" unicode="&#x170;" horiz-adv-x="1452" 
d="M609 1589l340 396l151 -123l-274 -273h-217zM998 1589l340 396l151 -123l-274 -273h-217zM649 -20q-157 0 -273 44.5t-185.5 143.5t-69.5 244q0 60 12 125l164 925h356l-157 -901q-11 -55 -11 -94q0 -95 46 -134.5t128 -39.5q116 0 199 70.5t111 220.5l155 878h357
l-168 -950q-25 -142 -87.5 -246.5t-152.5 -166t-195.5 -90.5t-228.5 -29z" />
    <glyph glyph-name="uhungarumlaut" unicode="&#x171;" horiz-adv-x="1266" 
d="M940 1446l-277 -272h-217l340 395zM1052 1174h-217l340 395l154 -123zM784 467l103 584h340l-187 -1051h-319l17 153q-70 -81 -162.5 -127t-198.5 -46q-149 0 -228 74.5t-79 209.5q0 47 8 90l125 697h340l-111 -627q-6 -32 -6 -53q0 -109 111 -109q93 0 160 54.5
t85 150.5h2z" />
    <glyph glyph-name="Uogonek" unicode="&#x172;" horiz-adv-x="1452" 
d="M1124 1462h357l-168 -950q-63 -354 -353 -475q-149 -119 -159 -176q-3 -16 8.5 -23.5t34.5 -7.5q32 0 70.5 13.5t62.5 33.5l-39 -219q-81 -33 -172 -33q-87 0 -141 30.5t-43 88.5q15 93 182 243q-52 -7 -115 -7q-157 0 -273 44.5t-185.5 143.5t-69.5 244q0 60 12 125
l164 925h356l-157 -901q-11 -55 -11 -94q0 -95 46 -134.5t128 -39.5q116 0 199 70.5t111 220.5z" />
    <glyph glyph-name="uogonek" unicode="&#x173;" horiz-adv-x="1266" 
d="M1040 0q-80 -58 -142.5 -119.5t-68.5 -95.5q-3 -16 8.5 -23.5t34.5 -7.5q32 0 70.5 13.5t62.5 33.5l-39 -219q-81 -33 -172 -33q-87 0 -141 30.5t-43 88.5q19 122 290 332h-179l17 153q-70 -81 -162.5 -127t-198.5 -46q-149 0 -228 74.5t-79 209.5q0 47 8 90l125 697h340
l-111 -627q-6 -32 -6 -53q0 -109 111 -109q93 0 160 54.5t85 150.5h2l103 584h340z" />
    <glyph glyph-name="Wcircumflex" unicode="&#x174;" horiz-adv-x="2226" 
d="M1174 1589h-217l291 301h205l184 -301h-217l-92 177zM299 0l-109 1462h361l67 -1063l500 1063h299l117 -1063l451 1063h378l-622 -1462h-469l-109 805l-395 -805h-469z" />
    <glyph glyph-name="wcircumflex" unicode="&#x175;" horiz-adv-x="1817" 
d="M1073 1403l-154 -176h-217l291 301h205l184 -301h-217zM1556 1051h359l-555 -1053h-320l-110 642l-340 -642h-324l-178 1053h346l87 -630l341 630h264l119 -628z" />
    <glyph glyph-name="Ycircumflex" unicode="&#x176;" horiz-adv-x="1319" 
d="M873 1766l-154 -177h-217l291 301h205l184 -301h-217zM1485 1462l-622 -771l-122 -691h-358l125 701l-346 761h375l188 -452l352 452h408z" />
    <glyph glyph-name="ycircumflex" unicode="&#x177;" horiz-adv-x="1167" 
d="M735 1403l-154 -176h-217l291 301h205l184 -301h-217zM922 1051h352l-936 -1545h-350l352 559l-262 986h362l118 -633z" />
    <glyph glyph-name="Ydieresis" unicode="&#x178;" horiz-adv-x="1319" 
d="M618 1589q-68 0 -108.5 48.5t-28.5 117.5q12 67 69.5 115.5t125.5 48.5t108.5 -48.5t28.5 -115.5q-13 -69 -70 -117.5t-125 -48.5zM1067 1589q-69 0 -109.5 48.5t-27.5 117.5q12 68 68.5 116t125.5 48q68 0 108 -48.5t27 -115.5q-12 -69 -68 -117.5t-124 -48.5z
M1485 1462l-622 -771l-122 -691h-358l125 701l-346 761h375l188 -452l352 452h408z" />
    <glyph glyph-name="Zacute" unicode="&#x179;" horiz-adv-x="1225" 
d="M1216 1862l-274 -273h-217l340 396zM1300 1462l-45 -278l-780 -871h629l-55 -313h-1059l47 279l781 872h-625l55 311h1052z" />
    <glyph glyph-name="zacute" unicode="&#x17a;" horiz-adv-x="965" 
d="M1002 1446l-277 -272h-217l340 395zM1022 1051l-551 -791h385l-45 -260h-881l550 791h-367l47 260h862z" />
    <glyph glyph-name="Zdotaccent" unicode="&#x17b;" horiz-adv-x="1225" 
d="M832 1589q-83 0 -131.5 58t-34.5 141q14 82 83.5 139.5t152.5 57.5q80 0 127.5 -58t33.5 -139q-13 -82 -82 -140.5t-149 -58.5zM1300 1462l-45 -278l-780 -871h629l-55 -313h-1059l47 279l781 872h-625l55 311h1052z" />
    <glyph glyph-name="zdotaccent" unicode="&#x17c;" horiz-adv-x="965" 
d="M625 1153q-83 0 -136 58t-45 141q10 81 75.5 138.5t148.5 57.5q80 0 131.5 -57.5t42.5 -138.5q-8 -83 -72.5 -141t-144.5 -58zM1022 1051l-551 -791h385l-45 -260h-881l550 791h-367l47 260h862z" />
    <glyph glyph-name="Zcaron" unicode="&#x17d;" horiz-adv-x="1225" 
d="M932 1589h-204l-185 301h217l92 -176l154 176h217zM1300 1462l-45 -278l-780 -871h629l-55 -313h-1059l47 279l781 872h-625l55 311h1052z" />
    <glyph glyph-name="zcaron" unicode="&#x17e;" horiz-adv-x="965" 
d="M725 1227h-205l-184 301h217l92 -176l154 176h217zM1022 1051l-551 -791h385l-45 -260h-881l550 791h-367l47 260h862z" />
    <glyph glyph-name="florin" unicode="&#x192;" horiz-adv-x="1073" 
d="M-66 -446l412 1230h-170l92 275h172l35 112q53 168 203.5 276.5t314.5 108.5q63 0 111.5 -15t64.5 -32l-51 -233q-22 22 -84 22q-86 0 -152 -54.5t-96 -145.5l-16 -39h270l-90 -275h-270l-414 -1230h-332z" />
    <glyph glyph-name="Ohorn" unicode="&#x1a0;" horiz-adv-x="1645" 
d="M1682 1580h162l-37 -204q-41 -230 -238 -230h-2q57 -125 57 -278q0 -170 -61.5 -329t-171.5 -283.5t-278 -200t-365 -75.5q-299 0 -477.5 167t-178.5 449q0 135 38 265t113.5 242t179.5 197t245 134t301 49q290 0 468 -159l6 9q45 -29 92 -29q58 0 82.5 26t37.5 107z
M762 305q114 0 212 48t162.5 125.5t101 174t36.5 195.5q0 144 -87 227.5t-233 83.5q-112 0 -209.5 -47.5t-163 -124.5t-102.5 -174t-37 -197q0 -145 87.5 -228t232.5 -83z" />
    <glyph glyph-name="ohorn" unicode="&#x1a1;" horiz-adv-x="1284" 
d="M1288 1236h162l-37 -204q-37 -209 -205 -228q35 -84 35 -186q0 -130 -46 -245.5t-131 -203t-214.5 -138.5t-286.5 -51q-241 0 -383.5 119.5t-142.5 332.5q0 130 45.5 245t129.5 202.5t213.5 138.5t287.5 51q201 0 333 -82l1 2q45 -29 92 -29q58 0 82.5 26t37.5 107z
M573 248q78 0 143 32.5t104.5 84.5t61 113.5t21.5 123.5q0 92 -54 147.5t-151 55.5q-75 0 -137.5 -33t-101 -86t-59.5 -114t-21 -121q0 -95 51 -149t143 -54z" />
    <glyph glyph-name="Uhorn" unicode="&#x1af;" horiz-adv-x="1452" 
d="M1663 1664h162l-37 -204q-41 -230 -238 -230q-49 0 -107 20l-130 -738q-25 -142 -87.5 -246.5t-152.5 -166t-195.5 -90.5t-228.5 -29q-157 0 -273 44.5t-185.5 143.5t-69.5 244q0 60 12 125l164 925h356l-157 -901q-11 -55 -11 -94q0 -95 46 -134.5t128 -39.5
q116 0 199 70.5t111 220.5l155 878h357l-12 -66q24 -8 47 -8q58 0 82.5 26t37.5 107z" />
    <glyph glyph-name="uhorn" unicode="&#x1b0;" horiz-adv-x="1266" 
d="M1411 1253h162l-37 -204q-41 -230 -238 -230q-50 0 -109 21l-149 -840h-319l17 153q-70 -81 -162.5 -127t-198.5 -46q-149 0 -228 74.5t-79 209.5q0 47 8 90l125 697h340l-111 -627q-6 -32 -6 -53q0 -109 111 -109q93 0 160 54.5t85 150.5h2l103 584h340l-12 -66
q25 -8 49 -8q58 0 82.5 26t37.5 107z" />
    <glyph glyph-name="uni01CD" unicode="&#x1cd;" horiz-adv-x="1536" 
d="M1059 1589h-204l-185 301h217l92 -176l154 176h217zM1073 0l-48 281h-593l-147 -281h-369l795 1462h438l283 -1462h-359zM587 575h387l-96 556z" />
    <glyph glyph-name="uni01CE" unicode="&#x1ce;" horiz-adv-x="1333" 
d="M895 1235h-205l-184 301h217l92 -176l154 176h217zM952 1051h342l-186 -1051h-303l2 112q-49 -69 -135 -104t-189 -35q-196 0 -320 120.5t-124 334.5q0 122 43 237t118.5 205t188 144.5t242.5 54.5q106 0 186 -35.5t116 -98.5zM586 256q69 0 128.5 29.5t98 76t60.5 103.5
t22 113q0 91 -53.5 150.5t-155.5 59.5q-89 0 -159.5 -48t-106 -121.5t-35.5 -155.5q0 -99 54 -153t147 -54z" />
    <glyph glyph-name="uni01CF" unicode="&#x1cf;" horiz-adv-x="684" 
d="M425 1589l-185 301h217l92 -176l154 176h217l-291 -301h-204zM70 0l258 1462h356l-258 -1462h-356z" />
    <glyph glyph-name="uni01D0" unicode="&#x1d0;" horiz-adv-x="629" 
d="M338 1235l-184 301h217l92 -176l154 176h217l-291 -301h-205zM37 0l188 1059h367l-189 -1059h-366z" />
    <glyph glyph-name="uni01D1" unicode="&#x1d1;" horiz-adv-x="1645" 
d="M908 1589l-185 301h217l92 -176l154 176h217l-291 -301h-204zM748 -20q-299 0 -477.5 167t-178.5 449q0 135 38 265t113.5 242t179.5 197t245 134t301 49q297 0 476 -166.5t179 -448.5q0 -170 -61.5 -329t-171.5 -283.5t-278 -200t-365 -75.5zM762 305q114 0 212 48
t162.5 125.5t101 174t36.5 195.5q0 144 -87 227.5t-233 83.5q-112 0 -209.5 -47.5t-163 -124.5t-102.5 -174t-37 -197q0 -145 87.5 -228t232.5 -83z" />
    <glyph glyph-name="uni01D2" unicode="&#x1d2;" horiz-adv-x="1284" 
d="M659 1225l-184 301h217l92 -176l154 176h217l-291 -301h-205zM565 -20q-241 0 -383.5 119.5t-142.5 332.5q0 130 45.5 245t129.5 202.5t213.5 138.5t287.5 51q243 0 385.5 -119.5t142.5 -331.5q0 -130 -46 -245.5t-131 -203t-214.5 -138.5t-286.5 -51zM573 248
q78 0 143 32.5t104.5 84.5t61 113.5t21.5 123.5q0 92 -54 147.5t-151 55.5q-75 0 -137.5 -33t-101 -86t-59.5 -114t-21 -121q0 -95 51 -149t143 -54z" />
    <glyph glyph-name="uni01D3" unicode="&#x1d3;" horiz-adv-x="1452" 
d="M810 1589l-185 301h217l92 -176l154 176h217l-291 -301h-204zM649 -20q-157 0 -273 44.5t-185.5 143.5t-69.5 244q0 60 12 125l164 925h356l-157 -901q-11 -55 -11 -94q0 -95 46 -134.5t128 -39.5q116 0 199 70.5t111 220.5l155 878h357l-168 -950q-25 -142 -87.5 -246.5
t-152.5 -166t-195.5 -90.5t-228.5 -29z" />
    <glyph glyph-name="uni01D4" unicode="&#x1d4;" horiz-adv-x="1266" 
d="M862 1227h-205l-184 301h217l92 -176l154 176h217zM887 1051h340l-187 -1051h-319l17 153q-70 -81 -162.5 -127t-198.5 -46q-149 0 -228 74.5t-79 209.5q0 47 8 90l125 697h340l-111 -627q-6 -32 -6 -53q0 -109 111 -109q93 0 160 54.5t85 150.5h2z" />
    <glyph glyph-name="uni01D5" unicode="&#x1d5;" horiz-adv-x="1452" 
d="M653 2046l37 209h676l-37 -209h-676zM688 1589q-68 0 -108.5 48.5t-28.5 117.5q12 67 69.5 115.5t125.5 48.5t108.5 -48.5t28.5 -115.5q-13 -69 -70 -117.5t-125 -48.5zM1137 1589q-69 0 -109.5 48.5t-27.5 117.5q12 68 68.5 116t125.5 48q68 0 108 -48.5t27 -115.5
q-12 -69 -68 -117.5t-124 -48.5zM649 -20q-157 0 -273 44.5t-185.5 143.5t-69.5 244q0 60 12 125l164 925h356l-157 -901q-11 -55 -11 -94q0 -95 46 -134.5t128 -39.5q116 0 199 70.5t111 220.5l155 878h357l-168 -950q-25 -142 -87.5 -246.5t-152.5 -166t-195.5 -90.5
t-228.5 -29z" />
    <glyph glyph-name="uni01D6" unicode="&#x1d6;" horiz-adv-x="1266" 
d="M1215 1888l-37 -209h-676l37 209h676zM529 1153q-84 0 -137 58t-44 141q10 81 75.5 138.5t148.5 57.5q79 0 130.5 -57.5t43.5 -138.5q-8 -83 -72.5 -141t-144.5 -58zM1041 1548q79 0 130.5 -57.5t43.5 -138.5q-8 -83 -72.5 -141t-144.5 -58q-84 0 -137 58t-44 141
q10 81 75.5 138.5t148.5 57.5zM887 1051h340l-187 -1051h-319l17 153q-70 -81 -162.5 -127t-198.5 -46q-149 0 -228 74.5t-79 209.5q0 47 8 90l125 697h340l-111 -627q-6 -32 -6 -53q0 -109 111 -109q93 0 160 54.5t85 150.5h2z" />
    <glyph glyph-name="uni01D7" unicode="&#x1d7;" horiz-adv-x="1452" 
d="M887 2046l340 396l151 -123l-274 -273h-217zM688 1589q-68 0 -108.5 48.5t-28.5 117.5q12 67 69.5 115.5t125.5 48.5t108.5 -48.5t28.5 -115.5q-13 -69 -70 -117.5t-125 -48.5zM1137 1589q-69 0 -109.5 48.5t-27.5 117.5q12 68 68.5 116t125.5 48q68 0 108 -48.5
t27 -115.5q-12 -69 -68 -117.5t-124 -48.5zM649 -20q-157 0 -273 44.5t-185.5 143.5t-69.5 244q0 60 12 125l164 925h356l-157 -901q-11 -55 -11 -94q0 -95 46 -134.5t128 -39.5q116 0 199 70.5t111 220.5l155 878h357l-168 -950q-25 -142 -87.5 -246.5t-152.5 -166
t-195.5 -90.5t-228.5 -29z" />
    <glyph glyph-name="uni01D8" unicode="&#x1d8;" horiz-adv-x="1266" 
d="M1223 1923l-277 -272h-217l340 395zM529 1153q-84 0 -137 58t-44 141q10 81 75.5 138.5t148.5 57.5q79 0 130.5 -57.5t43.5 -138.5q-8 -83 -72.5 -141t-144.5 -58zM817 1352q10 81 75.5 138.5t148.5 57.5q79 0 130.5 -57.5t43.5 -138.5q-8 -83 -72.5 -141t-144.5 -58
q-84 0 -137 58t-44 141zM887 1051h340l-187 -1051h-319l17 153q-70 -81 -162.5 -127t-198.5 -46q-149 0 -228 74.5t-79 209.5q0 47 8 90l125 697h340l-111 -627q-6 -32 -6 -53q0 -109 111 -109q93 0 160 54.5t85 150.5h2z" />
    <glyph glyph-name="uni01D9" unicode="&#x1d9;" horiz-adv-x="1452" 
d="M890 2046l-185 301h217l92 -176l154 176h217l-291 -301h-204zM688 1589q-68 0 -108.5 48.5t-28.5 117.5q12 67 69.5 115.5t125.5 48.5t108.5 -48.5t28.5 -115.5q-13 -69 -70 -117.5t-125 -48.5zM1137 1589q-69 0 -109.5 48.5t-27.5 117.5q12 68 68.5 116t125.5 48
q68 0 108 -48.5t27 -115.5q-12 -69 -68 -117.5t-124 -48.5zM649 -20q-157 0 -273 44.5t-185.5 143.5t-69.5 244q0 60 12 125l164 925h356l-157 -901q-11 -55 -11 -94q0 -95 46 -134.5t128 -39.5q116 0 199 70.5t111 220.5l155 878h357l-168 -950q-25 -142 -87.5 -246.5
t-152.5 -166t-195.5 -90.5t-228.5 -29z" />
    <glyph glyph-name="uni01DA" unicode="&#x1da;" horiz-adv-x="1266" 
d="M946 1704h-205l-184 301h217l92 -176l154 176h217zM529 1153q-84 0 -137 58t-44 141q10 81 75.5 138.5t148.5 57.5q79 0 130.5 -57.5t43.5 -138.5q-8 -83 -72.5 -141t-144.5 -58zM817 1352q10 81 75.5 138.5t148.5 57.5q79 0 130.5 -57.5t43.5 -138.5q-8 -83 -72.5 -141
t-144.5 -58q-84 0 -137 58t-44 141zM784 467l103 584h340l-187 -1051h-319l17 153q-70 -81 -162.5 -127t-198.5 -46q-149 0 -228 74.5t-79 209.5q0 47 8 90l125 697h340l-111 -627q-6 -32 -6 -53q0 -109 111 -109q93 0 160 54.5t85 150.5h2z" />
    <glyph glyph-name="uni01DB" unicode="&#x1db;" horiz-adv-x="1452" 
d="M883 2046l-180 273l197 123l201 -396h-218zM688 1589q-68 0 -108.5 48.5t-28.5 117.5q12 67 69.5 115.5t125.5 48.5t108.5 -48.5t28.5 -115.5q-13 -69 -70 -117.5t-125 -48.5zM1137 1589q-69 0 -109.5 48.5t-27.5 117.5q12 68 68.5 116t125.5 48q68 0 108 -48.5
t27 -115.5q-12 -69 -68 -117.5t-124 -48.5zM649 -20q-157 0 -273 44.5t-185.5 143.5t-69.5 244q0 60 12 125l164 925h356l-157 -901q-11 -55 -11 -94q0 -95 46 -134.5t128 -39.5q116 0 199 70.5t111 220.5l155 878h357l-168 -950q-25 -142 -87.5 -246.5t-152.5 -166
t-195.5 -90.5t-228.5 -29z" />
    <glyph glyph-name="uni01DC" unicode="&#x1dc;" horiz-adv-x="1266" 
d="M942 1651h-217l-178 272l194 123zM529 1153q-84 0 -137 58t-44 141q10 81 75.5 138.5t148.5 57.5q79 0 130.5 -57.5t43.5 -138.5q-8 -83 -72.5 -141t-144.5 -58zM817 1352q10 81 75.5 138.5t148.5 57.5q79 0 130.5 -57.5t43.5 -138.5q-8 -83 -72.5 -141t-144.5 -58
q-84 0 -137 58t-44 141zM887 1051h340l-187 -1051h-319l17 153q-70 -81 -162.5 -127t-198.5 -46q-149 0 -228 74.5t-79 209.5q0 47 8 90l125 697h340l-111 -627q-6 -32 -6 -53q0 -109 111 -109q93 0 160 54.5t85 150.5h2z" />
    <glyph glyph-name="Scommaaccent" unicode="&#x218;" horiz-adv-x="1298" 
d="M612 -20q-166 0 -297 52t-207.5 156t-72.5 244l379 62q2 -109 56.5 -168.5t164.5 -59.5q92 0 150.5 50t58.5 116q0 32 -13 57.5t-35.5 44t-54 34.5t-67 29t-76.5 27q-11 3 -16 5q-48 16 -81 28.5t-77 33t-73.5 41t-61.5 50.5t-51 63.5t-31 78t-12 96.5q0 137 74.5 243.5
t202.5 163t288 56.5q105 0 200 -23.5t176 -70.5t130.5 -128.5t52.5 -187.5l-350 -61q1 97 -50.5 140.5t-142.5 43.5q-95 0 -159 -40.5t-64 -104.5q0 -34 16.5 -60t50.5 -45t70 -32.5t91 -30.5q3 -1 5 -1.5t4.5 -1t4.5 -1.5q49 -16 85 -29t82.5 -34.5t79.5 -43.5t67.5 -54
t56 -68t35 -84t13.5 -103q0 -147 -80 -258t-215.5 -168t-306.5 -57zM303 -584l-160 82l239 379h314z" />
    <glyph glyph-name="scommaaccent" unicode="&#x219;" horiz-adv-x="999" 
d="M424 -20q-198 0 -307.5 79t-114.5 224l313 57q-1 -67 36.5 -102t97.5 -35q51 0 88.5 29t37.5 85q0 23 -8.5 40.5t-20 28.5t-39.5 22t-49 17.5t-67 18.5q-51 14 -87.5 27.5t-76.5 36.5t-64.5 50.5t-40.5 70.5t-16 96q0 84 36 150.5t98.5 108.5t143 63.5t173.5 21.5
q82 0 153.5 -17t129 -50.5t92 -91t37.5 -132.5l-279 -37q-2 107 -127 107q-60 0 -97.5 -26t-37.5 -72q0 -15 4.5 -27.5t15 -21.5t21 -15.5t30 -12.5t33.5 -9.5l40 -10l42 -10.5q68 -18 116.5 -39t92 -55t66 -85.5t22.5 -119.5q0 -90 -37.5 -160.5t-104 -114.5t-154 -66.5
t-191.5 -22.5zM154 -582l-160 82l239 379h314z" />
    <glyph glyph-name="uni021A" unicode="&#x21a;" horiz-adv-x="1081" 
d="M1219 1462l-56 -311h-335l-203 -1151h-353l203 1151h-338l56 311h1026zM31 -502l239 379h314l-393 -461z" />
    <glyph glyph-name="uni021B" unicode="&#x21b;" horiz-adv-x="831" 
d="M463 0q-141 0 -218 72t-77 202q0 32 10 82l78 435h-205l47 260h49q86 0 146.5 48.5t77.5 141.5l24 141h310l-58 -331h205l-45 -260h-207l-74 -418q-4 -19 -4 -45q0 -41 20 -56.5t64 -15.5h107l-47 -256h-203zM250 -584l-160 82l239 379h314z" />
    <glyph glyph-name="uni0237" unicode="&#x237;" horiz-adv-x="633" 
d="M-236 -498l46 279q64 0 105.5 16.5t67.5 56.5t39 84t27 123l176 998h371l-180 -1022q-49 -275 -201.5 -405t-450.5 -130z" />
    <glyph glyph-name="circumflex" unicode="&#x2c6;" horiz-adv-x="721" 
d="M362 1235h-217l291 301h205l184 -301h-217l-92 176z" />
    <glyph glyph-name="caron" unicode="&#x2c7;" horiz-adv-x="725" 
d="M385 1235l-184 301h217l92 -176l154 176h217l-291 -301h-205z" />
    <glyph glyph-name="breve" unicode="&#x2d8;" horiz-adv-x="897" 
d="M559 1163q-177 0 -262.5 93.5t-52.5 279.5h205q-17 -94 20 -151.5t119 -57.5t139.5 57.5t75.5 151.5h205q-33 -186 -152 -279.5t-297 -93.5z" />
    <glyph glyph-name="dotaccent" unicode="&#x2d9;" horiz-adv-x="561" 
d="M408 1161q-83 0 -136 58t-45 141q10 81 75.5 138.5t148.5 57.5q80 0 131.5 -57.5t42.5 -138.5q-8 -83 -72.5 -141t-144.5 -58z" />
    <glyph glyph-name="ring" unicode="&#x2da;" horiz-adv-x="655" 
d="M455 1122q-108 0 -176.5 76.5t-57.5 183.5q13 105 97.5 180.5t191.5 75.5q106 0 173 -75.5t54 -180.5q-10 -107 -93 -183.5t-189 -76.5zM469 1268q48 0 84.5 31.5t40.5 82.5q5 46 -24.5 80.5t-75.5 34.5q-47 0 -82.5 -34.5t-40.5 -80.5q-5 -51 22.5 -82.5t75.5 -31.5z
" />
    <glyph glyph-name="ogonek" unicode="&#x2db;" horiz-adv-x="522" 
d="M78 -451q-87 0 -141 30.5t-43 88.5q11 71 106 169.5t233 199.5l91 -37q-80 -58 -142.5 -119.5t-68.5 -95.5q-3 -16 8.5 -23.5t34.5 -7.5q32 0 70.5 13.5t62.5 33.5l-39 -219q-81 -33 -172 -33z" />
    <glyph glyph-name="tilde" unicode="&#x2dc;" horiz-adv-x="834" 
d="M647 1174q-118 0 -164 106q-13 31 -39 31q-56 0 -77 -125h-164q21 127 92.5 205.5t171.5 78.5q117 0 166 -106q12 -31 39 -31q29 0 46.5 31.5t29.5 93.5h165q-22 -125 -93 -204.5t-173 -79.5z" />
    <glyph glyph-name="hungarumlaut" unicode="&#x2dd;" horiz-adv-x="877" 
d="M127 1182l340 395l154 -123l-277 -272h-217zM516 1182l340 395l154 -123l-277 -272h-217z" />
    <glyph glyph-name="gravecomb" unicode="&#x300;" 
d="M-114 1182l-178 272l194 123l201 -395h-217z" />
    <glyph glyph-name="acutecomb" unicode="&#x301;" 
d="M-360 1182l340 395l154 -123l-277 -272h-217z" />
    <glyph glyph-name="uni0302" unicode="&#x302;" 
d="M-359 1235h-217l291 301h205l184 -301h-217l-92 176z" />
    <glyph glyph-name="tildecomb" unicode="&#x303;" 
d="M-187 1174q-118 0 -164 106q-13 31 -39 31q-56 0 -77 -125h-164q21 127 92.5 205.5t171.5 78.5q117 0 166 -106q12 -31 39 -31q29 0 46.5 31.5t29.5 93.5h165q-22 -125 -93 -204.5t-173 -79.5z" />
    <glyph glyph-name="uni0304" unicode="&#x304;" 
d="M-682 1210l37 209h676l-37 -209h-676z" />
    <glyph glyph-name="uni0306" unicode="&#x306;" 
d="M-338 1163q-177 0 -262.5 93.5t-52.5 279.5h205q-17 -94 20 -151.5t119 -57.5q83 0 140 57.5t75 151.5h205q-33 -186 -152 -279.5t-297 -93.5z" />
    <glyph glyph-name="uni0307" unicode="&#x307;" 
d="M-153 1161q-83 0 -136 58t-45 141q10 81 75.5 138.5t148.5 57.5q80 0 131.5 -57.5t42.5 -138.5q-8 -83 -72.5 -141t-144.5 -58z" />
    <glyph glyph-name="uni0308" unicode="&#x308;" 
d="M-622 1161q-84 0 -137 58t-44 141q10 81 75.5 138.5t148.5 57.5q79 0 130.5 -57.5t43.5 -138.5q-8 -83 -72.5 -141t-144.5 -58zM-153 1161q-84 0 -137 58t-44 141q10 81 75.5 138.5t148.5 57.5q79 0 130.5 -57.5t43.5 -138.5q-8 -83 -72.5 -141t-144.5 -58z" />
    <glyph glyph-name="hookabovecomb" unicode="&#x309;" 
d="M-246 1130l25 146q110 17 123 88q10 57 -47 57q-49 0 -95 -43l-57 115q83 63 199 63q99 0 143.5 -48t30.5 -132q-13 -72 -53.5 -106t-100.5 -51l-14 -89h-154z" />
    <glyph glyph-name="uni030A" unicode="&#x30a;" 
d="M-202 1122q-108 0 -176.5 76.5t-57.5 183.5q13 105 97.5 180.5t191.5 75.5q106 0 173 -75.5t54 -180.5q-10 -107 -93 -183.5t-189 -76.5zM-188 1268q48 0 84.5 31.5t40.5 82.5q5 46 -24.5 80.5t-75.5 34.5q-47 0 -82.5 -34.5t-40.5 -80.5q-5 -51 22.5 -82.5t75.5 -31.5z
" />
    <glyph glyph-name="uni030B" unicode="&#x30b;" 
d="M-750 1182l340 395l154 -123l-277 -272h-217zM-361 1182l340 395l154 -123l-277 -272h-217z" />
    <glyph glyph-name="uni030C" unicode="&#x30c;" 
d="M-340 1235l-184 301h217l92 -176l154 176h217l-291 -301h-205z" />
    <glyph glyph-name="uni0312" unicode="&#x312;" 
d="M158 1537l-308 -342h-377l421 342h264z" />
    <glyph glyph-name="uni031B" unicode="&#x31b;" 
d="M-271 731q-105 0 -200 68l74 119q45 -29 92 -29q58 0 82.5 26t37.5 107l27 143h162l-37 -204q-41 -230 -238 -230z" />
    <glyph glyph-name="dotbelowcomb" unicode="&#x323;" 
d="M-463 -512q-83 0 -131 58t-35 141q16 81 84.5 138.5t151.5 57.5q80 0 128.5 -58t33.5 -138q-14 -83 -82.5 -141t-149.5 -58z" />
    <glyph glyph-name="uni0326" unicode="&#x326;" 
d="M-512 -584l-160 82l239 379h314z" />
    <glyph glyph-name="uni0327" unicode="&#x327;" 
d="M-473 -532q-93 0 -148.5 46.5t-64.5 118.5l164 50q4 -28 23 -43t45 -15q31 0 57.5 20t32.5 54q7 36 -12.5 56t-51.5 20q-47 0 -75 -37l-113 69l168 226h166l-117 -146q24 4 39 4q84 0 128.5 -54t29.5 -138q-17 -97 -95.5 -164t-175.5 -67z" />
    <glyph glyph-name="uni0328" unicode="&#x328;" 
d="M-444 -451q-87 0 -141 30.5t-43 88.5q11 71 106 169.5t233 199.5l91 -37q-80 -58 -142.5 -119.5t-68.5 -95.5q-3 -16 8.5 -23.5t34.5 -7.5q32 0 70.5 13.5t62.5 33.5l-39 -219q-81 -33 -172 -33z" />
    <glyph glyph-name="uni0335" unicode="&#x335;" 
d="M-895 397l37 217h746l-37 -217h-746z" />
    <glyph glyph-name="uni0336" unicode="&#x336;" 
d="M-1689 465l24 135h1551l-25 -135h-1550z" />
    <glyph glyph-name="uni0337" unicode="&#x337;" 
d="M-774 229l39 217l789 517l-39 -220z" />
    <glyph glyph-name="uni0338" unicode="&#x338;" 
d="M-789 205l803 1153l135 -80l-803 -1153z" />
    <glyph glyph-name="uni0394" unicode="&#x394;" horiz-adv-x="1640" 
d="M1192 1536l346 -1536h-1624l887 1536h391zM487 342h610l-163 803z" />
    <glyph glyph-name="uni03A9" unicode="&#x3a9;" horiz-adv-x="1737" 
d="M1677 954q0 -153 -71 -334.5t-193 -306.5h193l-56 -313h-700l31 242q122 68 211 192.5t129.5 258t40.5 263.5q0 271 -242 271q-90 0 -166 -37t-128 -99t-89 -143.5t-54.5 -169t-17.5 -176.5q0 -136 45 -232.5t125 -140.5l-30 -229h-707l55 313h199l12 15
q-37 63 -64.5 166.5t-27.5 220.5q0 123 35 242t106.5 225.5t171.5 187.5t240.5 128.5t302.5 47.5q160 0 285.5 -47t204 -128.5t119 -187.5t40.5 -229z" />
    <glyph glyph-name="uni03BC" unicode="&#x3bc;" horiz-adv-x="1270" 
d="M864 1059h367l-187 -1059h-366l13 74q-115 -92 -253 -92q-70 0 -133 25l-86 -488h-264l270 1540h369l-113 -647q-2 -11 -2 -27q0 -39 22.5 -61.5t59.5 -22.5q65 0 119.5 35.5t71.5 84.5z" />
    <glyph glyph-name="pi" unicode="&#x3c0;" horiz-adv-x="1327" 
d="M39 0q64 145 137 385t117 416h-195l-20 196q82 62 383 62h936l-72 -258h-137l-76 -520q-31 -225 -29 -281h-315q-14 38 -14 98q0 49 20 193l72 510h-234q-40 -209 -107 -452.5t-132 -348.5h-334z" />
    <glyph glyph-name="Wgrave" unicode="&#x1e80;" horiz-adv-x="2226" 
d="M1188 1589l-180 273l197 123l201 -396h-218zM299 0l-109 1462h361l67 -1063l500 1063h299l117 -1063l451 1063h378l-622 -1462h-469l-109 805l-395 -805h-469z" />
    <glyph glyph-name="wgrave" unicode="&#x1e81;" horiz-adv-x="1817" 
d="M1141 1174h-217l-178 272l194 123zM1556 1051h359l-555 -1053h-320l-110 642l-340 -642h-324l-178 1053h346l87 -630l341 630h264l119 -628z" />
    <glyph glyph-name="Wacute" unicode="&#x1e82;" horiz-adv-x="2226" 
d="M1192 1589l340 396l151 -123l-274 -273h-217zM299 0l-109 1462h361l67 -1063l500 1063h299l117 -1063l451 1063h378l-622 -1462h-469l-109 805l-395 -805h-469z" />
    <glyph glyph-name="wacute" unicode="&#x1e83;" horiz-adv-x="1817" 
d="M1422 1446l-277 -272h-217l340 395zM1556 1051h359l-555 -1053h-320l-110 642l-340 -642h-324l-178 1053h346l87 -630l341 630h264l119 -628z" />
    <glyph glyph-name="Wdieresis" unicode="&#x1e84;" horiz-adv-x="2226" 
d="M1073 1589q-68 0 -108.5 48.5t-28.5 117.5q12 67 69.5 115.5t125.5 48.5t108.5 -48.5t28.5 -115.5q-13 -69 -70 -117.5t-125 -48.5zM1522 1589q-69 0 -109.5 48.5t-27.5 117.5q12 68 68.5 116t125.5 48q68 0 108 -48.5t27 -115.5q-12 -69 -68 -117.5t-124 -48.5zM299 0
l-109 1462h361l67 -1063l500 1063h299l117 -1063l451 1063h378l-622 -1462h-469l-109 805l-395 -805h-469z" />
    <glyph glyph-name="wdieresis" unicode="&#x1e85;" horiz-adv-x="1817" 
d="M812 1153q-84 0 -137 58t-44 141q10 81 75.5 138.5t148.5 57.5q79 0 130.5 -57.5t43.5 -138.5q-8 -83 -72.5 -141t-144.5 -58zM1281 1153q-84 0 -137 58t-44 141q10 81 75.5 138.5t148.5 57.5q79 0 130.5 -57.5t43.5 -138.5q-8 -83 -72.5 -141t-144.5 -58zM1556 1051h359
l-555 -1053h-320l-110 642l-340 -642h-324l-178 1053h346l87 -630l341 630h264l119 -628z" />
    <glyph glyph-name="uni1EA0" unicode="&#x1ea0;" horiz-adv-x="1536" 
d="M1432 0h-359l-48 281h-593l-147 -281h-369l795 1462h438zM587 575h387l-96 556zM658 -117q80 0 128.5 -58t33.5 -138q-14 -83 -82.5 -141t-149.5 -58q-83 0 -131 58t-35 141q16 81 84.5 138.5t151.5 57.5z" />
    <glyph glyph-name="uni1EA1" unicode="&#x1ea1;" horiz-adv-x="1333" 
d="M952 1051h342l-186 -1051h-303l2 112q-49 -69 -135 -104t-189 -35q-196 0 -320 120.5t-124 334.5q0 122 43 237t118.5 205t188 144.5t242.5 54.5q106 0 186 -35.5t116 -98.5zM586 256q69 0 128.5 29.5t98 76t60.5 103.5t22 113q0 91 -53.5 150.5t-155.5 59.5
q-89 0 -159.5 -48t-106 -121.5t-35.5 -155.5q0 -99 54 -153t147 -54zM566 -117q80 0 128.5 -58t33.5 -138q-14 -83 -82.5 -141t-149.5 -58q-83 0 -131 58t-35 141q16 81 84.5 138.5t151.5 57.5z" />
    <glyph glyph-name="uni1EA2" unicode="&#x1ea2;" horiz-adv-x="1536" 
d="M975 1819q-48 0 -94 -43l-57 114q85 64 198 64q100 0 144.5 -48.5t30.5 -131.5q-13 -72 -53.5 -106.5t-100.5 -51.5l-14 -88h-154l25 145q109 18 122 88q6 26 -6 42t-41 16zM1073 0l-48 281h-593l-147 -281h-369l795 1462h438l283 -1462h-359zM587 575h387l-96 556z" />
    <glyph glyph-name="uni1EA3" unicode="&#x1ea3;" horiz-adv-x="1333" 
d="M803 1421q-49 0 -95 -43l-57 115q83 63 199 63q99 0 143.5 -48t30.5 -132q-13 -72 -53.5 -106t-100.5 -51l-14 -89h-154l25 146q110 17 123 88q10 57 -47 57zM952 1051h342l-186 -1051h-303l2 112q-49 -69 -135 -104t-189 -35q-196 0 -320 120.5t-124 334.5q0 122 43 237
t118.5 205t188 144.5t242.5 54.5q106 0 186 -35.5t116 -98.5zM586 256q69 0 128.5 29.5t98 76t60.5 103.5t22 113q0 91 -53.5 150.5t-155.5 59.5q-89 0 -159.5 -48t-106 -121.5t-35.5 -155.5q0 -99 54 -153t147 -54z" />
    <glyph glyph-name="uni1EA4" unicode="&#x1ea4;" horiz-adv-x="1536" 
d="M1419 2290l-274 -273h-217l340 396zM988 1766l-154 -177h-217l291 301h205l184 -301h-217zM1073 0l-48 281h-593l-147 -281h-369l795 1462h438l283 -1462h-359zM587 575h387l-96 556z" />
    <glyph glyph-name="uni1EA5" unicode="&#x1ea5;" horiz-adv-x="1333" 
d="M1256 1931l-277 -272h-217l340 395zM823 1411l-154 -176h-217l291 301h205l184 -301h-217zM952 1051h342l-186 -1051h-303l2 112q-49 -69 -135 -104t-189 -35q-196 0 -320 120.5t-124 334.5q0 122 43 237t118.5 205t188 144.5t242.5 54.5q106 0 186 -35.5t116 -98.5z
M586 256q69 0 128.5 29.5t98 76t60.5 103.5t22 113q0 91 -53.5 150.5t-155.5 59.5q-89 0 -159.5 -48t-106 -121.5t-35.5 -155.5q0 -99 54 -153t147 -54z" />
    <glyph glyph-name="uni1EA6" unicode="&#x1ea6;" horiz-adv-x="1536" 
d="M1142 2017h-218l-180 273l197 123zM988 1766l-154 -177h-217l291 301h205l184 -301h-217zM1073 0l-48 281h-593l-147 -281h-369l795 1462h438l283 -1462h-359zM587 575h387l-96 556z" />
    <glyph glyph-name="uni1EA7" unicode="&#x1ea7;" horiz-adv-x="1333" 
d="M975 1659h-217l-178 272l194 123zM823 1411l-154 -176h-217l291 301h205l184 -301h-217zM952 1051h342l-186 -1051h-303l2 112q-49 -69 -135 -104t-189 -35q-196 0 -320 120.5t-124 334.5q0 122 43 237t118.5 205t188 144.5t242.5 54.5q106 0 186 -35.5t116 -98.5z
M586 256q69 0 128.5 29.5t98 76t60.5 103.5t22 113q0 91 -53.5 150.5t-155.5 59.5q-89 0 -159.5 -48t-106 -121.5t-35.5 -155.5q0 -99 54 -153t147 -54z" />
    <glyph glyph-name="uni1EA8" unicode="&#x1ea8;" horiz-adv-x="1536" 
d="M1051 2247q-48 0 -94 -43l-57 114q85 64 198 64q100 0 144.5 -48.5t30.5 -131.5q-13 -72 -53.5 -106.5t-100.5 -51.5l-14 -88h-154l25 145q109 18 122 88q6 26 -6 42t-41 16zM988 1766l-154 -177h-217l291 301h205l184 -301h-217zM1073 0l-48 281h-593l-147 -281h-369
l795 1462h438l283 -1462h-359zM587 575h387l-96 556z" />
    <glyph glyph-name="uni1EA9" unicode="&#x1ea9;" horiz-adv-x="1333" 
d="M887 1898q-49 0 -95 -43l-57 115q83 63 199 63q99 0 143.5 -48t30.5 -132q-13 -72 -53.5 -106t-100.5 -51l-14 -89h-154l25 146q110 17 123 88q10 57 -47 57zM823 1411l-154 -176h-217l291 301h205l184 -301h-217zM952 1051h342l-186 -1051h-303l2 112q-49 -69 -135 -104
t-189 -35q-196 0 -320 120.5t-124 334.5q0 122 43 237t118.5 205t188 144.5t242.5 54.5q106 0 186 -35.5t116 -98.5zM586 256q69 0 128.5 29.5t98 76t60.5 103.5t22 113q0 91 -53.5 150.5t-155.5 59.5q-89 0 -159.5 -48t-106 -121.5t-35.5 -155.5q0 -99 54 -153t147 -54z
" />
    <glyph glyph-name="uni1EAA" unicode="&#x1eaa;" horiz-adv-x="1536" 
d="M955 2173q-65 0 -90 -141h-185q25 142 106.5 231.5t192.5 89.5q130 0 187 -121q7 -12 10.5 -17.5t12.5 -11t22 -5.5q33 0 53.5 36t34.5 105h186q-26 -142 -105 -232t-196 -90q-127 0 -186 121q-17 35 -43 35zM988 1766l-154 -177h-217l291 301h205l184 -301h-217z
M711 1462h438l283 -1462h-359l-48 281h-593l-147 -281h-369zM587 575h387l-96 556z" />
    <glyph glyph-name="uni1EAB" unicode="&#x1eab;" horiz-adv-x="1333" 
d="M798 1788q-56 0 -77 -125h-164q21 127 92.5 205.5t171.5 78.5q117 0 166 -106q12 -31 39 -31q29 0 46.5 31.5t29.5 93.5h165q-22 -125 -93 -204.5t-173 -79.5q-118 0 -164 106q-13 31 -39 31zM823 1411l-154 -176h-217l291 301h205l184 -301h-217zM952 1051h342
l-186 -1051h-303l2 112q-49 -69 -135 -104t-189 -35q-196 0 -320 120.5t-124 334.5q0 122 43 237t118.5 205t188 144.5t242.5 54.5q106 0 186 -35.5t116 -98.5zM586 256q69 0 128.5 29.5t98 76t60.5 103.5t22 113q0 91 -53.5 150.5t-155.5 59.5q-89 0 -159.5 -48
t-106 -121.5t-35.5 -155.5q0 -99 54 -153t147 -54z" />
    <glyph glyph-name="uni1EAC" unicode="&#x1eac;" horiz-adv-x="1536" 
d="M988 1766l-154 -177h-217l291 301h205l184 -301h-217zM1432 0h-359l-48 281h-593l-147 -281h-369l795 1462h438zM587 575h387l-96 556zM658 -117q80 0 128.5 -58t33.5 -138q-14 -83 -82.5 -141t-149.5 -58q-83 0 -131 58t-35 141q16 81 84.5 138.5t151.5 57.5z" />
    <glyph glyph-name="uni1EAD" unicode="&#x1ead;" horiz-adv-x="1333" 
d="M823 1411l-154 -176h-217l291 301h205l184 -301h-217zM952 1051h342l-186 -1051h-303l2 112q-49 -69 -135 -104t-189 -35q-196 0 -320 120.5t-124 334.5q0 122 43 237t118.5 205t188 144.5t242.5 54.5q106 0 186 -35.5t116 -98.5zM586 256q69 0 128.5 29.5t98 76
t60.5 103.5t22 113q0 91 -53.5 150.5t-155.5 59.5q-89 0 -159.5 -48t-106 -121.5t-35.5 -155.5q0 -99 54 -153t147 -54zM566 -117q80 0 128.5 -58t33.5 -138q-14 -83 -82.5 -141t-149.5 -58q-83 0 -131 58t-35 141q16 81 84.5 138.5t151.5 57.5z" />
    <glyph glyph-name="uni1EAE" unicode="&#x1eae;" horiz-adv-x="1536" 
d="M1423 2301l-274 -273h-217l340 396zM957 1589q-89 0 -153.5 16t-110.5 51t-62 97t0 148h205q-13 -75 26 -111.5t124 -36.5q178 0 204 148h205q-31 -168 -142.5 -240t-295.5 -72zM1073 0l-48 281h-593l-147 -281h-369l795 1462h438l283 -1462h-359zM587 575h387l-96 556z
" />
    <glyph glyph-name="uni1EAF" unicode="&#x1eaf;" horiz-adv-x="1333" 
d="M1256 1931l-277 -272h-217l340 395zM780 1163q-177 0 -262.5 93.5t-52.5 279.5h205q-17 -94 20 -151.5t119 -57.5q83 0 140 57.5t75 151.5h205q-33 -186 -152 -279.5t-297 -93.5zM952 1051h342l-186 -1051h-303l2 112q-49 -69 -135 -104t-189 -35q-196 0 -320 120.5
t-124 334.5q0 122 43 237t118.5 205t188 144.5t242.5 54.5q106 0 186 -35.5t116 -98.5zM586 256q69 0 128.5 29.5t98 76t60.5 103.5t22 113q0 91 -53.5 150.5t-155.5 59.5q-89 0 -159.5 -48t-106 -121.5t-35.5 -155.5q0 -99 54 -153t147 -54z" />
    <glyph glyph-name="uni1EB0" unicode="&#x1eb0;" horiz-adv-x="1536" 
d="M1146 2028h-218l-180 273l197 123zM957 1589q-89 0 -153.5 16t-110.5 51t-62 97t0 148h205q-13 -75 26 -111.5t124 -36.5q178 0 204 148h205q-31 -168 -142.5 -240t-295.5 -72zM1073 0l-48 281h-593l-147 -281h-369l795 1462h438l283 -1462h-359zM587 575h387l-96 556z
" />
    <glyph glyph-name="uni1EB1" unicode="&#x1eb1;" horiz-adv-x="1333" 
d="M975 1659h-217l-178 272l194 123zM780 1163q-177 0 -262.5 93.5t-52.5 279.5h205q-17 -94 20 -151.5t119 -57.5q83 0 140 57.5t75 151.5h205q-33 -186 -152 -279.5t-297 -93.5zM952 1051h342l-186 -1051h-303l2 112q-49 -69 -135 -104t-189 -35q-196 0 -320 120.5
t-124 334.5q0 122 43 237t118.5 205t188 144.5t242.5 54.5q106 0 186 -35.5t116 -98.5zM586 256q69 0 128.5 29.5t98 76t60.5 103.5t22 113q0 91 -53.5 150.5t-155.5 59.5q-89 0 -159.5 -48t-106 -121.5t-35.5 -155.5q0 -99 54 -153t147 -54z" />
    <glyph glyph-name="uni1EB2" unicode="&#x1eb2;" horiz-adv-x="1536" 
d="M1055 2258q-48 0 -94 -43l-57 114q85 64 198 64q100 0 144.5 -48.5t30.5 -131.5q-13 -72 -53.5 -106.5t-100.5 -51.5l-14 -88h-154l25 145q109 18 122 88q6 26 -6 42t-41 16zM957 1589q-89 0 -153.5 16t-110.5 51t-62 97t0 148h205q-13 -75 26 -111.5t124 -36.5
q178 0 204 148h205q-31 -168 -142.5 -240t-295.5 -72zM1073 0l-48 281h-593l-147 -281h-369l795 1462h438l283 -1462h-359zM587 575h387l-96 556z" />
    <glyph glyph-name="uni1EB3" unicode="&#x1eb3;" horiz-adv-x="1333" 
d="M887 1898q-49 0 -95 -43l-57 115q83 63 199 63q99 0 143.5 -48t30.5 -132q-13 -72 -53.5 -106t-100.5 -51l-14 -89h-154l25 146q110 17 123 88q10 57 -47 57zM780 1163q-177 0 -262.5 93.5t-52.5 279.5h205q-17 -94 20 -151.5t119 -57.5q83 0 140 57.5t75 151.5h205
q-33 -186 -152 -279.5t-297 -93.5zM952 1051h342l-186 -1051h-303l2 112q-49 -69 -135 -104t-189 -35q-196 0 -320 120.5t-124 334.5q0 122 43 237t118.5 205t188 144.5t242.5 54.5q106 0 186 -35.5t116 -98.5zM586 256q69 0 128.5 29.5t98 76t60.5 103.5t22 113
q0 91 -53.5 150.5t-155.5 59.5q-89 0 -159.5 -48t-106 -121.5t-35.5 -155.5q0 -99 54 -153t147 -54z" />
    <glyph glyph-name="uni1EB4" unicode="&#x1eb4;" horiz-adv-x="1536" 
d="M959 2184q-65 0 -90 -141h-185q25 142 106.5 231.5t192.5 89.5q130 0 187 -121q7 -12 10.5 -17.5t12.5 -11t22 -5.5q33 0 53.5 36t34.5 105h186q-26 -142 -105 -232t-196 -90q-127 0 -186 121q-17 35 -43 35zM957 1589q-89 0 -153.5 16t-110.5 51t-62 97t0 148h205
q-13 -75 26 -111.5t124 -36.5q178 0 204 148h205q-31 -168 -142.5 -240t-295.5 -72zM711 1462h438l283 -1462h-359l-48 281h-593l-147 -281h-369zM587 575h387l-96 556z" />
    <glyph glyph-name="uni1EB5" unicode="&#x1eb5;" horiz-adv-x="1333" 
d="M798 1788q-56 0 -77 -125h-164q21 127 92.5 205.5t171.5 78.5q117 0 166 -106q12 -31 39 -31q29 0 46.5 31.5t29.5 93.5h165q-22 -125 -93 -204.5t-173 -79.5q-118 0 -164 106q-13 31 -39 31zM780 1163q-177 0 -262.5 93.5t-52.5 279.5h205q-17 -94 20 -151.5t119 -57.5
q83 0 140 57.5t75 151.5h205q-33 -186 -152 -279.5t-297 -93.5zM952 1051h342l-186 -1051h-303l2 112q-49 -69 -135 -104t-189 -35q-196 0 -320 120.5t-124 334.5q0 122 43 237t118.5 205t188 144.5t242.5 54.5q106 0 186 -35.5t116 -98.5zM586 256q69 0 128.5 29.5t98 76
t60.5 103.5t22 113q0 91 -53.5 150.5t-155.5 59.5q-89 0 -159.5 -48t-106 -121.5t-35.5 -155.5q0 -99 54 -153t147 -54z" />
    <glyph glyph-name="uni1EB6" unicode="&#x1eb6;" horiz-adv-x="1536" 
d="M957 1589q-89 0 -153.5 16t-110.5 51t-62 97t0 148h205q-13 -75 26 -111.5t124 -36.5q178 0 204 148h205q-31 -168 -142.5 -240t-295.5 -72zM1432 0h-359l-48 281h-593l-147 -281h-369l795 1462h438zM587 575h387l-96 556zM658 -117q80 0 128.5 -58t33.5 -138
q-14 -83 -82.5 -141t-149.5 -58q-83 0 -131 58t-35 141q16 81 84.5 138.5t151.5 57.5z" />
    <glyph glyph-name="uni1EB7" unicode="&#x1eb7;" horiz-adv-x="1333" 
d="M780 1163q-177 0 -262.5 93.5t-52.5 279.5h205q-17 -94 20 -151.5t119 -57.5q83 0 140 57.5t75 151.5h205q-33 -186 -152 -279.5t-297 -93.5zM952 1051h342l-186 -1051h-303l2 112q-49 -69 -135 -104t-189 -35q-196 0 -320 120.5t-124 334.5q0 122 43 237t118.5 205
t188 144.5t242.5 54.5q106 0 186 -35.5t116 -98.5zM586 256q69 0 128.5 29.5t98 76t60.5 103.5t22 113q0 91 -53.5 150.5t-155.5 59.5q-89 0 -159.5 -48t-106 -121.5t-35.5 -155.5q0 -99 54 -153t147 -54zM566 -117q80 0 128.5 -58t33.5 -138q-14 -83 -82.5 -141t-149.5 -58
q-83 0 -131 58t-35 141q16 81 84.5 138.5t151.5 57.5z" />
    <glyph glyph-name="uni1EB8" unicode="&#x1eb8;" horiz-adv-x="1159" 
d="M1149 1151h-518l-47 -266h463l-54 -307h-463l-47 -265h518l-55 -313h-876l258 1462h876zM500 -117q80 0 128.5 -58t33.5 -138q-14 -83 -82.5 -141t-149.5 -58q-83 0 -131 58t-35 141q16 81 84.5 138.5t151.5 57.5z" />
    <glyph glyph-name="uni1EB9" unicode="&#x1eb9;" horiz-adv-x="1198" 
d="M688 1071q217 0 344 -105t127 -313q0 -59 -12 -127l-14 -69h-763q-1 -14 -1 -41q0 -85 49.5 -127.5t134.5 -42.5q76 0 138 34.5t100 96.5l309 -64q-77 -162 -222.5 -247.5t-326.5 -85.5q-242 0 -377 116t-135 326q0 128 42.5 243.5t122 206.5t205 145t279.5 54zM684 838
q-180 0 -260 -158h419q1 5 1 16q0 70 -44.5 106t-115.5 36zM527 -119q80 0 128.5 -58t33.5 -138q-14 -83 -82.5 -141t-149.5 -58q-83 0 -131 58t-35 141q16 81 84.5 138.5t151.5 57.5z" />
    <glyph glyph-name="uni1EBA" unicode="&#x1eba;" horiz-adv-x="1159" 
d="M817 1819q-48 0 -94 -43l-57 114q85 64 198 64q100 0 144.5 -48.5t30.5 -131.5q-13 -72 -53.5 -106.5t-100.5 -51.5l-14 -88h-154l25 145q109 18 122 88q6 26 -6 42t-41 16zM1149 1151h-518l-47 -266h463l-54 -307h-463l-47 -265h518l-55 -313h-876l258 1462h876z" />
    <glyph glyph-name="uni1EBB" unicode="&#x1ebb;" horiz-adv-x="1198" 
d="M758 1415q-49 0 -95 -43l-57 115q83 63 199 63q99 0 143.5 -48t30.5 -132q-13 -72 -53.5 -106t-100.5 -51l-14 -89h-154l25 146q110 17 123 88q10 57 -47 57zM688 1071q217 0 344 -105t127 -313q0 -59 -12 -127l-14 -69h-763q-1 -14 -1 -41q0 -85 49.5 -127.5
t134.5 -42.5q76 0 138 34.5t100 96.5l309 -64q-77 -162 -222.5 -247.5t-326.5 -85.5q-242 0 -377 116t-135 326q0 128 42.5 243.5t122 206.5t205 145t279.5 54zM684 838q-180 0 -260 -158h419q1 5 1 16q0 70 -44.5 106t-115.5 36z" />
    <glyph glyph-name="uni1EBC" unicode="&#x1ebc;" horiz-adv-x="1159" 
d="M721 1745q-65 0 -90 -141h-185q25 142 106.5 231.5t192.5 89.5q130 0 187 -121q7 -12 10.5 -17.5t12.5 -11t22 -5.5q33 0 53.5 36t34.5 105h186q-26 -142 -105 -232t-196 -90q-127 0 -186 121q-17 35 -43 35zM70 0l258 1462h876l-55 -311h-518l-47 -266h463l-54 -307
h-463l-47 -265h518l-55 -313h-876z" />
    <glyph glyph-name="uni1EBD" unicode="&#x1ebd;" horiz-adv-x="1198" 
d="M669 1305q-56 0 -77 -125h-164q21 127 92.5 205.5t171.5 78.5q117 0 166 -106q12 -31 39 -31q29 0 46.5 31.5t29.5 93.5h165q-22 -125 -93 -204.5t-173 -79.5q-118 0 -164 106q-13 31 -39 31zM688 1071q217 0 344 -105t127 -313q0 -59 -12 -127l-14 -69h-763
q-1 -14 -1 -41q0 -85 49.5 -127.5t134.5 -42.5q76 0 138 34.5t100 96.5l309 -64q-77 -162 -222.5 -247.5t-326.5 -85.5q-242 0 -377 116t-135 326q0 128 42.5 243.5t122 206.5t205 145t279.5 54zM684 838q-180 0 -260 -158h419q1 5 1 16q0 70 -44.5 106t-115.5 36z" />
    <glyph glyph-name="uni1EBE" unicode="&#x1ebe;" horiz-adv-x="1159" 
d="M1261 2290l-274 -273h-217l340 396zM830 1766l-154 -177h-217l291 301h205l184 -301h-217zM70 0l258 1462h876l-55 -311h-518l-47 -266h463l-54 -307h-463l-47 -265h518l-55 -313h-876z" />
    <glyph glyph-name="uni1EBF" unicode="&#x1ebf;" horiz-adv-x="1198" 
d="M1211 1925l-277 -272h-217l340 395zM778 1405l-154 -176h-217l291 301h205l184 -301h-217zM688 1071q217 0 344 -105t127 -313q0 -59 -12 -127l-14 -69h-763q-1 -14 -1 -41q0 -85 49.5 -127.5t134.5 -42.5q76 0 138 34.5t100 96.5l309 -64q-77 -162 -222.5 -247.5
t-326.5 -85.5q-242 0 -377 116t-135 326q0 128 42.5 243.5t122 206.5t205 145t279.5 54zM684 838q-180 0 -260 -158h419q1 5 1 16q0 70 -44.5 106t-115.5 36z" />
    <glyph glyph-name="uni1EC0" unicode="&#x1ec0;" horiz-adv-x="1159" 
d="M984 2017h-218l-180 273l197 123zM830 1766l-154 -177h-217l291 301h205l184 -301h-217zM1149 1151h-518l-47 -266h463l-54 -307h-463l-47 -265h518l-55 -313h-876l258 1462h876z" />
    <glyph glyph-name="uni1EC1" unicode="&#x1ec1;" horiz-adv-x="1198" 
d="M930 1653h-217l-178 272l194 123zM778 1405l-154 -176h-217l291 301h205l184 -301h-217zM688 1071q217 0 344 -105t127 -313q0 -59 -12 -127l-14 -69h-763q-1 -14 -1 -41q0 -85 49.5 -127.5t134.5 -42.5q76 0 138 34.5t100 96.5l309 -64q-77 -162 -222.5 -247.5
t-326.5 -85.5q-242 0 -377 116t-135 326q0 128 42.5 243.5t122 206.5t205 145t279.5 54zM684 838q-180 0 -260 -158h419q1 5 1 16q0 70 -44.5 106t-115.5 36z" />
    <glyph glyph-name="uni1EC2" unicode="&#x1ec2;" horiz-adv-x="1159" 
d="M893 2247q-48 0 -94 -43l-57 114q85 64 198 64q100 0 144.5 -48.5t30.5 -131.5q-13 -72 -53.5 -106.5t-100.5 -51.5l-14 -88h-154l25 145q109 18 122 88q6 26 -6 42t-41 16zM830 1766l-154 -177h-217l291 301h205l184 -301h-217zM1149 1151h-518l-47 -266h463l-54 -307
h-463l-47 -265h518l-55 -313h-876l258 1462h876z" />
    <glyph glyph-name="uni1EC3" unicode="&#x1ec3;" horiz-adv-x="1198" 
d="M842 1892q-49 0 -95 -43l-57 115q83 63 199 63q99 0 143.5 -48t30.5 -132q-13 -72 -53.5 -106t-100.5 -51l-14 -89h-154l25 146q110 17 123 88q10 57 -47 57zM778 1405l-154 -176h-217l291 301h205l184 -301h-217zM688 1071q217 0 344 -105t127 -313q0 -59 -12 -127
l-14 -69h-763q-1 -14 -1 -41q0 -85 49.5 -127.5t134.5 -42.5q76 0 138 34.5t100 96.5l309 -64q-77 -162 -222.5 -247.5t-326.5 -85.5q-242 0 -377 116t-135 326q0 128 42.5 243.5t122 206.5t205 145t279.5 54zM684 838q-180 0 -260 -158h419q1 5 1 16q0 70 -44.5 106
t-115.5 36z" />
    <glyph glyph-name="uni1EC4" unicode="&#x1ec4;" horiz-adv-x="1159" 
d="M1141 2339h186q-26 -142 -105 -232t-196 -90q-127 0 -186 121q-17 35 -43 35q-65 0 -90 -141h-185q25 142 106.5 231.5t192.5 89.5q130 0 187 -121q7 -12 10.5 -17.5t12.5 -11t22 -5.5q33 0 53.5 36t34.5 105zM922 1589l-92 177l-154 -177h-217l291 301h205l184 -301
h-217zM70 0l258 1462h876l-55 -311h-518l-47 -266h463l-54 -307h-463l-47 -265h518l-55 -313h-876z" />
    <glyph glyph-name="uni1EC5" unicode="&#x1ec5;" horiz-adv-x="1198" 
d="M753 1782q-56 0 -77 -125h-164q21 127 92.5 205.5t171.5 78.5q117 0 166 -106q12 -31 39 -31q29 0 46.5 31.5t29.5 93.5h165q-22 -125 -93 -204.5t-173 -79.5q-118 0 -164 106q-13 31 -39 31zM778 1405l-154 -176h-217l291 301h205l184 -301h-217zM688 1071
q217 0 344 -105t127 -313q0 -59 -12 -127l-14 -69h-763q-1 -14 -1 -41q0 -85 49.5 -127.5t134.5 -42.5q76 0 138 34.5t100 96.5l309 -64q-77 -162 -222.5 -247.5t-326.5 -85.5q-242 0 -377 116t-135 326q0 128 42.5 243.5t122 206.5t205 145t279.5 54zM684 838
q-180 0 -260 -158h419q1 5 1 16q0 70 -44.5 106t-115.5 36z" />
    <glyph glyph-name="uni1EC6" unicode="&#x1ec6;" horiz-adv-x="1159" 
d="M830 1766l-154 -177h-217l291 301h205l184 -301h-217zM1149 1151h-518l-47 -266h463l-54 -307h-463l-47 -265h518l-55 -313h-876l258 1462h876zM500 -117q80 0 128.5 -58t33.5 -138q-14 -83 -82.5 -141t-149.5 -58q-83 0 -131 58t-35 141q16 81 84.5 138.5t151.5 57.5z
" />
    <glyph glyph-name="uni1EC7" unicode="&#x1ec7;" horiz-adv-x="1198" 
d="M778 1405l-154 -176h-217l291 301h205l184 -301h-217zM688 1071q217 0 344 -105t127 -313q0 -59 -12 -127l-14 -69h-763q-1 -14 -1 -41q0 -85 49.5 -127.5t134.5 -42.5q76 0 138 34.5t100 96.5l309 -64q-77 -162 -222.5 -247.5t-326.5 -85.5q-242 0 -377 116t-135 326
q0 128 42.5 243.5t122 206.5t205 145t279.5 54zM684 838q-180 0 -260 -158h419q1 5 1 16q0 70 -44.5 106t-115.5 36zM527 -119q80 0 128.5 -58t33.5 -138q-14 -83 -82.5 -141t-149.5 -58q-83 0 -131 58t-35 141q16 81 84.5 138.5t151.5 57.5z" />
    <glyph glyph-name="uni1EC8" unicode="&#x1ec8;" horiz-adv-x="684" 
d="M445 1528l25 145q109 18 122 88q6 26 -6 42t-41 16q-48 0 -94 -43l-57 114q85 64 198 64q100 0 144.5 -48.5t30.5 -131.5q-13 -72 -53.5 -106.5t-100.5 -51.5l-14 -88h-154zM70 0l258 1462h356l-258 -1462h-356z" />
    <glyph glyph-name="uni1EC9" unicode="&#x1ec9;" horiz-adv-x="629" 
d="M350 1130l25 146q110 17 123 88q10 57 -47 57q-49 0 -95 -43l-57 115q83 63 199 63q99 0 143.5 -48t30.5 -132q-13 -72 -53.5 -106t-100.5 -51l-14 -89h-154zM37 0l188 1059h367l-189 -1059h-366z" />
    <glyph glyph-name="uni1ECA" unicode="&#x1eca;" horiz-adv-x="684" 
d="M70 0l258 1462h356l-258 -1462h-356zM158 -512q-83 0 -131 58t-35 141q16 81 84.5 138.5t151.5 57.5q80 0 128.5 -58t33.5 -138q-14 -83 -82.5 -141t-149.5 -58z" />
    <glyph glyph-name="uni1ECB" unicode="&#x1ecb;" horiz-adv-x="629" 
d="M443 1161q-83 0 -136 58t-45 141q10 81 75.5 138.5t148.5 57.5q80 0 131.5 -57.5t42.5 -138.5q-8 -83 -72.5 -141t-144.5 -58zM37 0l188 1059h367l-189 -1059h-366zM133 -512q-83 0 -131 58t-35 141q16 81 84.5 138.5t151.5 57.5q80 0 128.5 -58t33.5 -138
q-14 -83 -82.5 -141t-149.5 -58z" />
    <glyph glyph-name="uni1ECC" unicode="&#x1ecc;" horiz-adv-x="1645" 
d="M748 -20q-299 0 -477.5 167t-178.5 449q0 135 38 265t113.5 242t179.5 197t245 134t301 49q297 0 476 -166.5t179 -448.5q0 -170 -61.5 -329t-171.5 -283.5t-278 -200t-365 -75.5zM762 305q114 0 212 48t162.5 125.5t101 174t36.5 195.5q0 144 -87 227.5t-233 83.5
q-112 0 -209.5 -47.5t-163 -124.5t-102.5 -174t-37 -197q0 -145 87.5 -228t232.5 -83zM641 -512q-83 0 -131 58t-35 141q16 81 84.5 138.5t151.5 57.5q80 0 128.5 -58t33.5 -138q-14 -83 -82.5 -141t-149.5 -58z" />
    <glyph glyph-name="uni1ECD" unicode="&#x1ecd;" horiz-adv-x="1284" 
d="M565 -20q-241 0 -383.5 119.5t-142.5 332.5q0 130 45.5 245t129.5 202.5t213.5 138.5t287.5 51q243 0 385.5 -119.5t142.5 -331.5q0 -130 -46 -245.5t-131 -203t-214.5 -138.5t-286.5 -51zM573 248q78 0 143 32.5t104.5 84.5t61 113.5t21.5 123.5q0 92 -54 147.5
t-151 55.5q-75 0 -137.5 -33t-101 -86t-59.5 -114t-21 -121q0 -95 51 -149t143 -54zM459 -512q-83 0 -131 58t-35 141q16 81 84.5 138.5t151.5 57.5q80 0 128.5 -58t33.5 -138q-14 -83 -82.5 -141t-149.5 -58z" />
    <glyph glyph-name="uni1ECE" unicode="&#x1ece;" horiz-adv-x="1645" 
d="M928 1528l25 145q109 18 122 88q6 26 -6 42t-41 16q-48 0 -94 -43l-57 114q85 64 198 64q100 0 144.5 -48.5t30.5 -131.5q-13 -72 -53.5 -106.5t-100.5 -51.5l-14 -88h-154zM748 -20q-299 0 -477.5 167t-178.5 449q0 135 38 265t113.5 242t179.5 197t245 134t301 49
q297 0 476 -166.5t179 -448.5q0 -170 -61.5 -329t-171.5 -283.5t-278 -200t-365 -75.5zM762 305q114 0 212 48t162.5 125.5t101 174t36.5 195.5q0 144 -87 227.5t-233 83.5q-112 0 -209.5 -47.5t-163 -124.5t-102.5 -174t-37 -197q0 -145 87.5 -228t232.5 -83z" />
    <glyph glyph-name="uni1ECF" unicode="&#x1ecf;" horiz-adv-x="1284" 
d="M671 1120l25 146q110 17 123 88q10 57 -47 57q-49 0 -95 -43l-57 115q83 63 199 63q99 0 143.5 -48t30.5 -132q-13 -72 -53.5 -106t-100.5 -51l-14 -89h-154zM565 -20q-241 0 -383.5 119.5t-142.5 332.5q0 130 45.5 245t129.5 202.5t213.5 138.5t287.5 51
q243 0 385.5 -119.5t142.5 -331.5q0 -130 -46 -245.5t-131 -203t-214.5 -138.5t-286.5 -51zM573 248q78 0 143 32.5t104.5 84.5t61 113.5t21.5 123.5q0 92 -54 147.5t-151 55.5q-75 0 -137.5 -33t-101 -86t-59.5 -114t-21 -121q0 -95 51 -149t143 -54z" />
    <glyph glyph-name="uni1ED0" unicode="&#x1ed0;" horiz-adv-x="1645" 
d="M981 2017l340 396l151 -123l-274 -273h-217zM887 1589h-217l291 301h205l184 -301h-217l-92 177zM748 -20q-299 0 -477.5 167t-178.5 449q0 135 38 265t113.5 242t179.5 197t245 134t301 49q297 0 476 -166.5t179 -448.5q0 -170 -61.5 -329t-171.5 -283.5t-278 -200
t-365 -75.5zM762 305q114 0 212 48t162.5 125.5t101 174t36.5 195.5q0 144 -87 227.5t-233 83.5q-112 0 -209.5 -47.5t-163 -124.5t-102.5 -174t-37 -197q0 -145 87.5 -228t232.5 -83z" />
    <glyph glyph-name="uni1ED1" unicode="&#x1ed1;" horiz-adv-x="1284" 
d="M731 1649l340 395l154 -123l-277 -272h-217zM638 1225h-217l291 301h205l184 -301h-217l-92 176zM565 -20q-241 0 -383.5 119.5t-142.5 332.5q0 130 45.5 245t129.5 202.5t213.5 138.5t287.5 51q243 0 385.5 -119.5t142.5 -331.5q0 -130 -46 -245.5t-131 -203
t-214.5 -138.5t-286.5 -51zM573 248q78 0 143 32.5t104.5 84.5t61 113.5t21.5 123.5q0 92 -54 147.5t-151 55.5q-75 0 -137.5 -33t-101 -86t-59.5 -114t-21 -121q0 -95 51 -149t143 -54z" />
    <glyph glyph-name="uni1ED2" unicode="&#x1ed2;" horiz-adv-x="1645" 
d="M977 2017l-180 273l197 123l201 -396h-218zM887 1589h-217l291 301h205l184 -301h-217l-92 177zM748 -20q-299 0 -477.5 167t-178.5 449q0 135 38 265t113.5 242t179.5 197t245 134t301 49q297 0 476 -166.5t179 -448.5q0 -170 -61.5 -329t-171.5 -283.5t-278 -200
t-365 -75.5zM762 305q114 0 212 48t162.5 125.5t101 174t36.5 195.5q0 144 -87 227.5t-233 83.5q-112 0 -209.5 -47.5t-163 -124.5t-102.5 -174t-37 -197q0 -145 87.5 -228t232.5 -83z" />
    <glyph glyph-name="uni1ED3" unicode="&#x1ed3;" horiz-adv-x="1284" 
d="M727 1649l-178 272l194 123l201 -395h-217zM638 1225h-217l291 301h205l184 -301h-217l-92 176zM565 -20q-241 0 -383.5 119.5t-142.5 332.5q0 130 45.5 245t129.5 202.5t213.5 138.5t287.5 51q243 0 385.5 -119.5t142.5 -331.5q0 -130 -46 -245.5t-131 -203
t-214.5 -138.5t-286.5 -51zM573 248q78 0 143 32.5t104.5 84.5t61 113.5t21.5 123.5q0 92 -54 147.5t-151 55.5q-75 0 -137.5 -33t-101 -86t-59.5 -114t-21 -121q0 -95 51 -149t143 -54z" />
    <glyph glyph-name="uni1ED4" unicode="&#x1ed4;" horiz-adv-x="1645" 
d="M1004 1956l25 145q109 18 122 88q6 26 -6 42t-41 16q-48 0 -94 -43l-57 114q85 64 198 64q100 0 144.5 -48.5t30.5 -131.5q-13 -72 -53.5 -106.5t-100.5 -51.5l-14 -88h-154zM887 1589h-217l291 301h205l184 -301h-217l-92 177zM748 -20q-299 0 -477.5 167t-178.5 449
q0 135 38 265t113.5 242t179.5 197t245 134t301 49q297 0 476 -166.5t179 -448.5q0 -170 -61.5 -329t-171.5 -283.5t-278 -200t-365 -75.5zM762 305q114 0 212 48t162.5 125.5t101 174t36.5 195.5q0 144 -87 227.5t-233 83.5q-112 0 -209.5 -47.5t-163 -124.5t-102.5 -174
t-37 -197q0 -145 87.5 -228t232.5 -83z" />
    <glyph glyph-name="uni1ED5" unicode="&#x1ed5;" horiz-adv-x="1284" 
d="M755 1597l25 146q110 17 123 88q10 57 -47 57q-49 0 -95 -43l-57 115q83 63 199 63q99 0 143.5 -48t30.5 -132q-13 -72 -53.5 -106t-100.5 -51l-14 -89h-154zM638 1225h-217l291 301h205l184 -301h-217l-92 176zM565 -20q-241 0 -383.5 119.5t-142.5 332.5
q0 130 45.5 245t129.5 202.5t213.5 138.5t287.5 51q243 0 385.5 -119.5t142.5 -331.5q0 -130 -46 -245.5t-131 -203t-214.5 -138.5t-286.5 -51zM573 248q78 0 143 32.5t104.5 84.5t61 113.5t21.5 123.5q0 92 -54 147.5t-151 55.5q-75 0 -137.5 -33t-101 -86t-59.5 -114
t-21 -121q0 -95 51 -149t143 -54z" />
    <glyph glyph-name="uni1ED6" unicode="&#x1ed6;" horiz-adv-x="1645" 
d="M1237 2017q-127 0 -186 121q-17 35 -43 35q-65 0 -90 -141h-185q25 142 106.5 231.5t192.5 89.5q130 0 187 -121q7 -12 10.5 -17.5t12.5 -11t22 -5.5q33 0 53.5 36t34.5 105h186q-26 -142 -105 -232t-196 -90zM887 1589h-217l291 301h205l184 -301h-217l-92 177zM748 -20
q-299 0 -477.5 167t-178.5 449q0 135 38 265t113.5 242t179.5 197t245 134t301 49q297 0 476 -166.5t179 -448.5q0 -170 -61.5 -329t-171.5 -283.5t-278 -200t-365 -75.5zM762 305q114 0 212 48t162.5 125.5t101 174t36.5 195.5q0 144 -87 227.5t-233 83.5
q-112 0 -209.5 -47.5t-163 -124.5t-102.5 -174t-37 -197q0 -145 87.5 -228t232.5 -83z" />
    <glyph glyph-name="uni1ED7" unicode="&#x1ed7;" horiz-adv-x="1284" 
d="M970 1641q-118 0 -164 106q-13 31 -39 31q-56 0 -77 -125h-164q21 127 92.5 205.5t171.5 78.5q117 0 166 -106q12 -31 39 -31q29 0 46.5 31.5t29.5 93.5h165q-22 -125 -93 -204.5t-173 -79.5zM638 1225h-217l291 301h205l184 -301h-217l-92 176zM565 -20
q-241 0 -383.5 119.5t-142.5 332.5q0 130 45.5 245t129.5 202.5t213.5 138.5t287.5 51q243 0 385.5 -119.5t142.5 -331.5q0 -130 -46 -245.5t-131 -203t-214.5 -138.5t-286.5 -51zM573 248q78 0 143 32.5t104.5 84.5t61 113.5t21.5 123.5q0 92 -54 147.5t-151 55.5
q-75 0 -137.5 -33t-101 -86t-59.5 -114t-21 -121q0 -95 51 -149t143 -54z" />
    <glyph glyph-name="uni1ED8" unicode="&#x1ed8;" horiz-adv-x="1645" 
d="M887 1589h-217l291 301h205l184 -301h-217l-92 177zM748 -20q-299 0 -477.5 167t-178.5 449q0 135 38 265t113.5 242t179.5 197t245 134t301 49q297 0 476 -166.5t179 -448.5q0 -170 -61.5 -329t-171.5 -283.5t-278 -200t-365 -75.5zM762 305q114 0 212 48t162.5 125.5
t101 174t36.5 195.5q0 144 -87 227.5t-233 83.5q-112 0 -209.5 -47.5t-163 -124.5t-102.5 -174t-37 -197q0 -145 87.5 -228t232.5 -83zM641 -512q-83 0 -131 58t-35 141q16 81 84.5 138.5t151.5 57.5q80 0 128.5 -58t33.5 -138q-14 -83 -82.5 -141t-149.5 -58z" />
    <glyph glyph-name="uni1ED9" unicode="&#x1ed9;" horiz-adv-x="1284" 
d="M638 1225h-217l291 301h205l184 -301h-217l-92 176zM565 -20q-241 0 -383.5 119.5t-142.5 332.5q0 130 45.5 245t129.5 202.5t213.5 138.5t287.5 51q243 0 385.5 -119.5t142.5 -331.5q0 -130 -46 -245.5t-131 -203t-214.5 -138.5t-286.5 -51zM573 248q78 0 143 32.5
t104.5 84.5t61 113.5t21.5 123.5q0 92 -54 147.5t-151 55.5q-75 0 -137.5 -33t-101 -86t-59.5 -114t-21 -121q0 -95 51 -149t143 -54zM459 -512q-83 0 -131 58t-35 141q16 81 84.5 138.5t151.5 57.5q80 0 128.5 -58t33.5 -138q-14 -83 -82.5 -141t-149.5 -58z" />
    <glyph glyph-name="uni1EDA" unicode="&#x1eda;" horiz-adv-x="1645" 
d="M1396 1862l-274 -273h-217l340 396zM1682 1580h162l-37 -204q-41 -230 -238 -230h-2q57 -125 57 -278q0 -170 -61.5 -329t-171.5 -283.5t-278 -200t-365 -75.5q-299 0 -477.5 167t-178.5 449q0 135 38 265t113.5 242t179.5 197t245 134t301 49q290 0 468 -159l6 9
q45 -29 92 -29q58 0 82.5 26t37.5 107zM762 305q114 0 212 48t162.5 125.5t101 174t36.5 195.5q0 144 -87 227.5t-233 83.5q-112 0 -209.5 -47.5t-163 -124.5t-102.5 -174t-37 -197q0 -145 87.5 -228t232.5 -83z" />
    <glyph glyph-name="uni1EDB" unicode="&#x1edb;" horiz-adv-x="1284" 
d="M1141 1444l-277 -272h-217l340 395zM1288 1236h162l-37 -204q-37 -209 -205 -228q35 -84 35 -186q0 -130 -46 -245.5t-131 -203t-214.5 -138.5t-286.5 -51q-241 0 -383.5 119.5t-142.5 332.5q0 130 45.5 245t129.5 202.5t213.5 138.5t287.5 51q201 0 333 -82l1 2
q45 -29 92 -29q58 0 82.5 26t37.5 107zM573 248q78 0 143 32.5t104.5 84.5t61 113.5t21.5 123.5q0 92 -54 147.5t-151 55.5q-75 0 -137.5 -33t-101 -86t-59.5 -114t-21 -121q0 -95 51 -149t143 -54z" />
    <glyph glyph-name="uni1EDC" unicode="&#x1edc;" horiz-adv-x="1645" 
d="M1119 1589h-218l-180 273l197 123zM1682 1580h162l-37 -204q-41 -230 -238 -230h-2q57 -125 57 -278q0 -170 -61.5 -329t-171.5 -283.5t-278 -200t-365 -75.5q-299 0 -477.5 167t-178.5 449q0 135 38 265t113.5 242t179.5 197t245 134t301 49q290 0 468 -159l6 9
q45 -29 92 -29q58 0 82.5 26t37.5 107zM762 305q114 0 212 48t162.5 125.5t101 174t36.5 195.5q0 144 -87 227.5t-233 83.5q-112 0 -209.5 -47.5t-163 -124.5t-102.5 -174t-37 -197q0 -145 87.5 -228t232.5 -83z" />
    <glyph glyph-name="uni1EDD" unicode="&#x1edd;" horiz-adv-x="1284" 
d="M860 1172h-217l-178 272l194 123zM1288 1236h162l-37 -204q-37 -209 -205 -228q35 -84 35 -186q0 -130 -46 -245.5t-131 -203t-214.5 -138.5t-286.5 -51q-241 0 -383.5 119.5t-142.5 332.5q0 130 45.5 245t129.5 202.5t213.5 138.5t287.5 51q201 0 333 -82l1 2
q45 -29 92 -29q58 0 82.5 26t37.5 107zM573 248q78 0 143 32.5t104.5 84.5t61 113.5t21.5 123.5q0 92 -54 147.5t-151 55.5q-75 0 -137.5 -33t-101 -86t-59.5 -114t-21 -121q0 -95 51 -149t143 -54z" />
    <glyph glyph-name="uni1EDE" unicode="&#x1ede;" horiz-adv-x="1645" 
d="M1028 1819q-48 0 -94 -43l-57 114q85 64 198 64q100 0 144.5 -48.5t30.5 -131.5q-13 -72 -53.5 -106.5t-100.5 -51.5l-14 -88h-154l25 145q109 18 122 88q6 26 -6 42t-41 16zM1682 1580h162l-37 -204q-41 -230 -238 -230h-2q57 -125 57 -278q0 -170 -61.5 -329
t-171.5 -283.5t-278 -200t-365 -75.5q-299 0 -477.5 167t-178.5 449q0 135 38 265t113.5 242t179.5 197t245 134t301 49q290 0 468 -159l6 9q45 -29 92 -29q58 0 82.5 26t37.5 107zM762 305q114 0 212 48t162.5 125.5t101 174t36.5 195.5q0 144 -87 227.5t-233 83.5
q-112 0 -209.5 -47.5t-163 -124.5t-102.5 -174t-37 -197q0 -145 87.5 -228t232.5 -83z" />
    <glyph glyph-name="uni1EDF" unicode="&#x1edf;" horiz-adv-x="1284" 
d="M772 1411q-49 0 -95 -43l-57 115q83 63 199 63q99 0 143.5 -48t30.5 -132q-13 -72 -53.5 -106t-100.5 -51l-14 -89h-154l25 146q110 17 123 88q10 57 -47 57zM1288 1236h162l-37 -204q-37 -209 -205 -228q35 -84 35 -186q0 -130 -46 -245.5t-131 -203t-214.5 -138.5
t-286.5 -51q-241 0 -383.5 119.5t-142.5 332.5q0 130 45.5 245t129.5 202.5t213.5 138.5t287.5 51q201 0 333 -82l1 2q45 -29 92 -29q58 0 82.5 26t37.5 107zM573 248q78 0 143 32.5t104.5 84.5t61 113.5t21.5 123.5q0 92 -54 147.5t-151 55.5q-75 0 -137.5 -33t-101 -86
t-59.5 -114t-21 -121q0 -95 51 -149t143 -54z" />
    <glyph glyph-name="uni1EE0" unicode="&#x1ee0;" horiz-adv-x="1645" 
d="M932 1745q-65 0 -90 -141h-185q25 142 106.5 231.5t192.5 89.5q130 0 187 -121q7 -12 10.5 -17.5t12.5 -11t22 -5.5q33 0 53.5 36t34.5 105h186q-26 -142 -105 -232t-196 -90q-127 0 -186 121q-17 35 -43 35zM1682 1580h162l-37 -204q-41 -230 -238 -230h-2
q57 -125 57 -278q0 -170 -61.5 -329t-171.5 -283.5t-278 -200t-365 -75.5q-299 0 -477.5 167t-178.5 449q0 135 38 265t113.5 242t179.5 197t245 134t301 49q290 0 468 -159l6 9q45 -29 92 -29q58 0 82.5 26t37.5 107zM762 305q114 0 212 48t162.5 125.5t101 174t36.5 195.5
q0 144 -87 227.5t-233 83.5q-112 0 -209.5 -47.5t-163 -124.5t-102.5 -174t-37 -197q0 -145 87.5 -228t232.5 -83z" />
    <glyph glyph-name="uni1EE1" unicode="&#x1ee1;" horiz-adv-x="1284" 
d="M683 1301q-56 0 -77 -125h-164q21 127 92.5 205.5t171.5 78.5q117 0 166 -106q12 -31 39 -31q29 0 46.5 31.5t29.5 93.5h165q-22 -125 -93 -204.5t-173 -79.5q-118 0 -164 106q-13 31 -39 31zM1288 1236h162l-37 -204q-37 -209 -205 -228q35 -84 35 -186
q0 -130 -46 -245.5t-131 -203t-214.5 -138.5t-286.5 -51q-241 0 -383.5 119.5t-142.5 332.5q0 130 45.5 245t129.5 202.5t213.5 138.5t287.5 51q201 0 333 -82l1 2q45 -29 92 -29q58 0 82.5 26t37.5 107zM573 248q78 0 143 32.5t104.5 84.5t61 113.5t21.5 123.5
q0 92 -54 147.5t-151 55.5q-75 0 -137.5 -33t-101 -86t-59.5 -114t-21 -121q0 -95 51 -149t143 -54z" />
    <glyph glyph-name="uni1EE2" unicode="&#x1ee2;" horiz-adv-x="1645" 
d="M1682 1580h162l-37 -204q-41 -230 -238 -230h-2q57 -125 57 -278q0 -170 -61.5 -329t-171.5 -283.5t-278 -200t-365 -75.5q-299 0 -477.5 167t-178.5 449q0 135 38 265t113.5 242t179.5 197t245 134t301 49q290 0 468 -159l6 9q45 -29 92 -29q58 0 82.5 26t37.5 107z
M762 305q114 0 212 48t162.5 125.5t101 174t36.5 195.5q0 144 -87 227.5t-233 83.5q-112 0 -209.5 -47.5t-163 -124.5t-102.5 -174t-37 -197q0 -145 87.5 -228t232.5 -83zM711 -117q80 0 128.5 -58t33.5 -138q-14 -83 -82.5 -141t-149.5 -58q-83 0 -131 58t-35 141
q16 81 84.5 138.5t151.5 57.5z" />
    <glyph glyph-name="uni1EE3" unicode="&#x1ee3;" horiz-adv-x="1284" 
d="M1288 1236h162l-37 -204q-37 -209 -205 -228q35 -84 35 -186q0 -130 -46 -245.5t-131 -203t-214.5 -138.5t-286.5 -51q-241 0 -383.5 119.5t-142.5 332.5q0 130 45.5 245t129.5 202.5t213.5 138.5t287.5 51q201 0 333 -82l1 2q45 -29 92 -29q58 0 82.5 26t37.5 107z
M573 248q78 0 143 32.5t104.5 84.5t61 113.5t21.5 123.5q0 92 -54 147.5t-151 55.5q-75 0 -137.5 -33t-101 -86t-59.5 -114t-21 -121q0 -95 51 -149t143 -54zM529 -117q80 0 128.5 -58t33.5 -138q-14 -83 -82.5 -141t-149.5 -58q-83 0 -131 58t-35 141q16 81 84.5 138.5
t151.5 57.5z" />
    <glyph glyph-name="uni1EE4" unicode="&#x1ee4;" horiz-adv-x="1452" 
d="M649 -20q-157 0 -273 44.5t-185.5 143.5t-69.5 244q0 60 12 125l164 925h356l-157 -901q-11 -55 -11 -94q0 -95 46 -134.5t128 -39.5q116 0 199 70.5t111 220.5l155 878h357l-168 -950q-25 -142 -87.5 -246.5t-152.5 -166t-195.5 -90.5t-228.5 -29zM541 -512
q-83 0 -131 58t-35 141q16 81 84.5 138.5t151.5 57.5q80 0 128.5 -58t33.5 -138q-14 -83 -82.5 -141t-149.5 -58z" />
    <glyph glyph-name="uni1EE5" unicode="&#x1ee5;" horiz-adv-x="1266" 
d="M887 1051h340l-187 -1051h-319l17 153q-70 -81 -162.5 -127t-198.5 -46q-149 0 -228 74.5t-79 209.5q0 47 8 90l125 697h340l-111 -627q-6 -32 -6 -53q0 -109 111 -109q93 0 160 54.5t85 150.5h2zM523 -117q80 0 128.5 -58t33.5 -138q-14 -83 -82.5 -141t-149.5 -58
q-83 0 -131 58t-35 141q16 81 84.5 138.5t151.5 57.5z" />
    <glyph glyph-name="uni1EE6" unicode="&#x1ee6;" horiz-adv-x="1452" 
d="M830 1528l25 145q109 18 122 88q6 26 -6 42t-41 16q-48 0 -94 -43l-57 114q85 64 198 64q100 0 144.5 -48.5t30.5 -131.5q-13 -72 -53.5 -106.5t-100.5 -51.5l-14 -88h-154zM649 -20q-157 0 -273 44.5t-185.5 143.5t-69.5 244q0 60 12 125l164 925h356l-157 -901
q-11 -55 -11 -94q0 -95 46 -134.5t128 -39.5q116 0 199 70.5t111 220.5l155 878h357l-168 -950q-25 -142 -87.5 -246.5t-152.5 -166t-195.5 -90.5t-228.5 -29z" />
    <glyph glyph-name="uni1EE7" unicode="&#x1ee7;" horiz-adv-x="1266" 
d="M770 1413q-49 0 -95 -43l-57 115q83 63 199 63q99 0 143.5 -48t30.5 -132q-13 -72 -53.5 -106t-100.5 -51l-14 -89h-154l25 146q110 17 123 88q10 57 -47 57zM887 1051h340l-187 -1051h-319l17 153q-70 -81 -162.5 -127t-198.5 -46q-149 0 -228 74.5t-79 209.5q0 47 8 90
l125 697h340l-111 -627q-6 -32 -6 -53q0 -109 111 -109q93 0 160 54.5t85 150.5h2z" />
    <glyph glyph-name="uni1EE8" unicode="&#x1ee8;" horiz-adv-x="1452" 
d="M1298 1862l-274 -273h-217l340 396zM1663 1664h162l-37 -204q-41 -230 -238 -230q-49 0 -107 20l-130 -738q-25 -142 -87.5 -246.5t-152.5 -166t-195.5 -90.5t-228.5 -29q-157 0 -273 44.5t-185.5 143.5t-69.5 244q0 60 12 125l164 925h356l-157 -901q-11 -55 -11 -94
q0 -95 46 -134.5t128 -39.5q116 0 199 70.5t111 220.5l155 878h357l-12 -66q24 -8 47 -8q58 0 82.5 26t37.5 107z" />
    <glyph glyph-name="uni1EE9" unicode="&#x1ee9;" horiz-adv-x="1266" 
d="M1139 1446l-277 -272h-217l340 395zM1411 1253h162l-37 -204q-41 -230 -238 -230q-50 0 -109 21l-149 -840h-319l17 153q-70 -81 -162.5 -127t-198.5 -46q-149 0 -228 74.5t-79 209.5q0 47 8 90l125 697h340l-111 -627q-6 -32 -6 -53q0 -109 111 -109q93 0 160 54.5
t85 150.5h2l103 584h340l-12 -66q25 -8 49 -8q58 0 82.5 26t37.5 107z" />
    <glyph glyph-name="uni1EEA" unicode="&#x1eea;" horiz-adv-x="1452" 
d="M1021 1589h-218l-180 273l197 123zM1663 1664h162l-37 -204q-41 -230 -238 -230q-49 0 -107 20l-130 -738q-25 -142 -87.5 -246.5t-152.5 -166t-195.5 -90.5t-228.5 -29q-157 0 -273 44.5t-185.5 143.5t-69.5 244q0 60 12 125l164 925h356l-157 -901q-11 -55 -11 -94
q0 -95 46 -134.5t128 -39.5q116 0 199 70.5t111 220.5l155 878h357l-12 -66q24 -8 47 -8q58 0 82.5 26t37.5 107z" />
    <glyph glyph-name="uni1EEB" unicode="&#x1eeb;" horiz-adv-x="1266" 
d="M858 1174h-217l-178 272l194 123zM1411 1253h162l-37 -204q-41 -230 -238 -230q-50 0 -109 21l-149 -840h-319l17 153q-70 -81 -162.5 -127t-198.5 -46q-149 0 -228 74.5t-79 209.5q0 47 8 90l125 697h340l-111 -627q-6 -32 -6 -53q0 -109 111 -109q93 0 160 54.5
t85 150.5h2l103 584h340l-12 -66q25 -8 49 -8q58 0 82.5 26t37.5 107z" />
    <glyph glyph-name="uni1EEC" unicode="&#x1eec;" horiz-adv-x="1452" 
d="M930 1819q-48 0 -94 -43l-57 114q85 64 198 64q100 0 144.5 -48.5t30.5 -131.5q-13 -72 -53.5 -106.5t-100.5 -51.5l-14 -88h-154l25 145q109 18 122 88q6 26 -6 42t-41 16zM1663 1664h162l-37 -204q-41 -230 -238 -230q-49 0 -107 20l-130 -738q-25 -142 -87.5 -246.5
t-152.5 -166t-195.5 -90.5t-228.5 -29q-157 0 -273 44.5t-185.5 143.5t-69.5 244q0 60 12 125l164 925h356l-157 -901q-11 -55 -11 -94q0 -95 46 -134.5t128 -39.5q116 0 199 70.5t111 220.5l155 878h357l-12 -66q24 -8 47 -8q58 0 82.5 26t37.5 107z" />
    <glyph glyph-name="uni1EED" unicode="&#x1eed;" horiz-adv-x="1266" 
d="M770 1413q-49 0 -95 -43l-57 115q83 63 199 63q99 0 143.5 -48t30.5 -132q-13 -72 -53.5 -106t-100.5 -51l-14 -89h-154l25 146q110 17 123 88q10 57 -47 57zM1411 1253h162l-37 -204q-41 -230 -238 -230q-50 0 -109 21l-149 -840h-319l17 153q-70 -81 -162.5 -127
t-198.5 -46q-149 0 -228 74.5t-79 209.5q0 47 8 90l125 697h340l-111 -627q-6 -32 -6 -53q0 -109 111 -109q93 0 160 54.5t85 150.5h2l103 584h340l-12 -66q25 -8 49 -8q58 0 82.5 26t37.5 107z" />
    <glyph glyph-name="uni1EEE" unicode="&#x1eee;" horiz-adv-x="1452" 
d="M834 1745q-65 0 -90 -141h-185q25 142 106.5 231.5t192.5 89.5q130 0 187 -121q7 -12 10.5 -17.5t12.5 -11t22 -5.5q33 0 53.5 36t34.5 105h186q-26 -142 -105 -232t-196 -90q-127 0 -186 121q-17 35 -43 35zM1663 1664h162l-37 -204q-41 -230 -238 -230q-49 0 -107 20
l-130 -738q-25 -142 -87.5 -246.5t-152.5 -166t-195.5 -90.5t-228.5 -29q-157 0 -273 44.5t-185.5 143.5t-69.5 244q0 60 12 125l164 925h356l-157 -901q-11 -55 -11 -94q0 -95 46 -134.5t128 -39.5q116 0 199 70.5t111 220.5l155 878h357l-12 -66q24 -8 47 -8q58 0 82.5 26
t37.5 107z" />
    <glyph glyph-name="uni1EEF" unicode="&#x1eef;" horiz-adv-x="1266" 
d="M681 1303q-56 0 -77 -125h-164q21 127 92.5 205.5t171.5 78.5q117 0 166 -106q12 -31 39 -31q29 0 46.5 31.5t29.5 93.5h165q-22 -125 -93 -204.5t-173 -79.5q-118 0 -164 106q-13 31 -39 31zM1411 1253h162l-37 -204q-41 -230 -238 -230q-50 0 -109 21l-149 -840h-319
l17 153q-70 -81 -162.5 -127t-198.5 -46q-149 0 -228 74.5t-79 209.5q0 47 8 90l125 697h340l-111 -627q-6 -32 -6 -53q0 -109 111 -109q93 0 160 54.5t85 150.5h2l103 584h340l-12 -66q25 -8 49 -8q58 0 82.5 26t37.5 107z" />
    <glyph glyph-name="uni1EF0" unicode="&#x1ef0;" horiz-adv-x="1452" 
d="M1663 1664h162l-37 -204q-41 -230 -238 -230q-49 0 -107 20l-130 -738q-25 -142 -87.5 -246.5t-152.5 -166t-195.5 -90.5t-228.5 -29q-157 0 -273 44.5t-185.5 143.5t-69.5 244q0 60 12 125l164 925h356l-157 -901q-11 -55 -11 -94q0 -95 46 -134.5t128 -39.5
q116 0 199 70.5t111 220.5l155 878h357l-12 -66q24 -8 47 -8q58 0 82.5 26t37.5 107zM611 -117q80 0 128.5 -58t33.5 -138q-14 -83 -82.5 -141t-149.5 -58q-83 0 -131 58t-35 141q16 81 84.5 138.5t151.5 57.5z" />
    <glyph glyph-name="uni1EF1" unicode="&#x1ef1;" horiz-adv-x="1266" 
d="M1411 1253h162l-37 -204q-41 -230 -238 -230q-50 0 -109 21l-149 -840h-319l17 153q-70 -81 -162.5 -127t-198.5 -46q-149 0 -228 74.5t-79 209.5q0 47 8 90l125 697h340l-111 -627q-6 -32 -6 -53q0 -109 111 -109q93 0 160 54.5t85 150.5h2l103 584h340l-12 -66
q25 -8 49 -8q58 0 82.5 26t37.5 107zM523 -117q80 0 128.5 -58t33.5 -138q-14 -83 -82.5 -141t-149.5 -58q-83 0 -131 58t-35 141q16 81 84.5 138.5t151.5 57.5z" />
    <glyph glyph-name="Ygrave" unicode="&#x1ef2;" horiz-adv-x="1319" 
d="M951 1589h-218l-180 273l197 123zM1485 1462l-622 -771l-122 -691h-358l125 701l-346 761h375l188 -452l352 452h408z" />
    <glyph glyph-name="ygrave" unicode="&#x1ef3;" horiz-adv-x="1167" 
d="M803 1174h-217l-178 272l194 123zM922 1051h352l-936 -1545h-350l352 559l-262 986h362l118 -633z" />
    <glyph glyph-name="uni1EF4" unicode="&#x1ef4;" horiz-adv-x="1319" 
d="M1485 1462l-622 -771l-122 -691h-358l125 701l-346 761h375l188 -452l352 452h408zM545 -117q80 0 128.5 -58t33.5 -138q-14 -83 -82.5 -141t-149.5 -58q-83 0 -131 58t-35 141q16 81 84.5 138.5t151.5 57.5z" />
    <glyph glyph-name="uni1EF5" unicode="&#x1ef5;" horiz-adv-x="1167" 
d="M922 1051h352l-936 -1545h-350l352 559l-262 986h362l118 -633zM902 -117q80 0 128.5 -58t33.5 -138q-14 -83 -82.5 -141t-149.5 -58q-83 0 -131 58t-35 141q16 81 84.5 138.5t151.5 57.5z" />
    <glyph glyph-name="uni1EF6" unicode="&#x1ef6;" horiz-adv-x="1319" 
d="M860 1819q-48 0 -94 -43l-57 114q85 64 198 64q100 0 144.5 -48.5t30.5 -131.5q-13 -72 -53.5 -106.5t-100.5 -51.5l-14 -88h-154l25 145q109 18 122 88q6 26 -6 42t-41 16zM1485 1462l-622 -771l-122 -691h-358l125 701l-346 761h375l188 -452l352 452h408z" />
    <glyph glyph-name="uni1EF7" unicode="&#x1ef7;" horiz-adv-x="1167" 
d="M715 1413q-49 0 -95 -43l-57 115q83 63 199 63q99 0 143.5 -48t30.5 -132q-13 -72 -53.5 -106t-100.5 -51l-14 -89h-154l25 146q110 17 123 88q10 57 -47 57zM922 1051h352l-936 -1545h-350l352 559l-262 986h362l118 -633z" />
    <glyph glyph-name="uni1EF8" unicode="&#x1ef8;" horiz-adv-x="1319" 
d="M764 1745q-65 0 -90 -141h-185q25 142 106.5 231.5t192.5 89.5q130 0 187 -121q7 -12 10.5 -17.5t12.5 -11t22 -5.5q33 0 53.5 36t34.5 105h186q-26 -142 -105 -232t-196 -90q-127 0 -186 121q-17 35 -43 35zM1485 1462l-622 -771l-122 -691h-358l125 701l-346 761h375
l188 -452l352 452h408z" />
    <glyph glyph-name="uni1EF9" unicode="&#x1ef9;" horiz-adv-x="1167" 
d="M626 1303q-56 0 -77 -125h-164q21 127 92.5 205.5t171.5 78.5q117 0 166 -106q12 -31 39 -31q29 0 46.5 31.5t29.5 93.5h165q-22 -125 -93 -204.5t-173 -79.5q-118 0 -164 106q-13 31 -39 31zM922 1051h352l-936 -1545h-350l352 559l-262 986h362l118 -633z" />
    <glyph glyph-name="endash" unicode="&#x2013;" horiz-adv-x="1282" 
d="M102 379l54 307h1024l-54 -307h-1024z" />
    <glyph glyph-name="emdash" unicode="&#x2014;" horiz-adv-x="2306" 
d="M102 379l54 307h2048l-54 -307h-2048z" />
    <glyph glyph-name="quoteleft" unicode="&#x2018;" horiz-adv-x="643" 
d="M90 795l361 675h264l-246 -675h-379z" />
    <glyph glyph-name="quoteright" unicode="&#x2019;" horiz-adv-x="643" 
d="M141 795l246 675h379l-360 -675h-265z" />
    <glyph glyph-name="quotesinglbase" unicode="&#x201a;" horiz-adv-x="639" 
d="M-68 -373l248 676h377l-360 -676h-265z" />
    <glyph glyph-name="quotedblleft" unicode="&#x201c;" horiz-adv-x="1161" 
d="M90 795l361 675h264l-246 -675h-379zM608 795l361 675h264l-246 -675h-379z" />
    <glyph glyph-name="quotedblright" unicode="&#x201d;" horiz-adv-x="1161" 
d="M141 795l246 675h379l-360 -675h-265zM659 795l246 675h379l-360 -675h-265z" />
    <glyph glyph-name="quotedblbase" unicode="&#x201e;" horiz-adv-x="1145" 
d="M-68 -373l248 676h377l-360 -676h-265zM438 -373l248 676h377l-361 -676h-264z" />
    <glyph glyph-name="dagger" unicode="&#x2020;" horiz-adv-x="979" 
d="M1036 1137l-39 -228h-330l-204 -1159h-230l205 1159h-321l39 228h322l59 333h229l-59 -333h329z" />
    <glyph glyph-name="daggerdbl" unicode="&#x2021;" horiz-adv-x="1065" 
d="M1040 909h-330l-101 -577h329l-41 -228h-329l-62 -354h-230l63 354h-323l41 228h322l102 577h-321l39 228h322l59 333h229l-59 -333h329z" />
    <glyph glyph-name="bullet" unicode="&#x2022;" horiz-adv-x="944" 
d="M459 311q-160 0 -256.5 114.5t-67.5 279.5q25 138 145.5 240t260.5 102q157 0 252.5 -118.5t66.5 -277.5q-24 -142 -142.5 -241t-258.5 -99z" />
    <glyph glyph-name="ellipsis" unicode="&#x2026;" horiz-adv-x="2103" 
d="M254 -20q-89 0 -142.5 66t-37.5 157q12 70 71.5 121t130.5 51q91 0 145 -67t38 -158q-13 -70 -73 -120t-132 -50zM977 -20q-89 0 -142.5 66t-37.5 157q12 70 71.5 121t130.5 51q91 0 145 -67t38 -158q-13 -70 -73 -120t-132 -50zM1698 -20q-89 0 -142.5 66t-37.5 157
q12 70 71.5 121t130.5 51q91 0 145 -67t38 -158q-13 -70 -73 -120t-132 -50z" />
    <glyph glyph-name="perthousand" unicode="&#x2030;" horiz-adv-x="2656" 
d="M496 754q-145 0 -237.5 93t-92.5 234q0 73 31.5 146.5t85 132t131.5 95t164 36.5q144 0 236.5 -94t92.5 -234q0 -73 -31 -146t-84 -131.5t-131.5 -95t-164.5 -36.5zM281 0l1019 1470h306l-1022 -1470h-303zM514 989q66 0 111 46t45 114q0 44 -32 75t-77 31
q-65 0 -111.5 -46t-46.5 -113q0 -46 32 -76.5t79 -30.5zM1317 -16q-144 0 -237 92.5t-93 232.5q0 100 52.5 194.5t149.5 156t212 61.5q142 0 233.5 -92t91.5 -232q0 -99 -50 -193t-146 -157t-213 -63zM2154 -16q-143 0 -236 92.5t-93 232.5q0 100 52.5 194.5t149 156
t211.5 61.5q142 0 234 -92t92 -232q0 -99 -50.5 -193t-146.5 -157t-213 -63zM1335 221q65 0 111.5 46t46.5 112q0 43 -32.5 74.5t-78.5 31.5q-65 0 -111 -46t-46 -113q0 -45 31.5 -75t78.5 -30zM2173 221q65 0 111.5 46t46.5 112q0 43 -32.5 74.5t-78.5 31.5
q-65 0 -111.5 -46t-46.5 -113q0 -45 31.5 -75t79.5 -30z" />
    <glyph glyph-name="guilsinglleft" unicode="&#x2039;" horiz-adv-x="659" 
d="M299 305l-250 377l373 377h297l-383 -377l242 -377h-279z" />
    <glyph glyph-name="guilsinglright" unicode="&#x203a;" horiz-adv-x="657" 
d="M-6 305l381 377l-240 377h277l250 -377l-373 -377h-295z" />
    <glyph glyph-name="fraction" unicode="&#x2044;" horiz-adv-x="514" 
d="M-385 0l1139 1536h229l-1137 -1536h-231z" />
    <glyph glyph-name="Euro" unicode="&#x20ac;" horiz-adv-x="1550" 
d="M807 322q112 0 197.5 61t134.5 162l301 -219q-118 -163 -285 -254.5t-360 -91.5q-238 0 -389.5 134.5t-170.5 383.5h-143l33 186h114q7 61 16 107h-112l35 186h132q43 111 108.5 202.5t153 162t201 110t241.5 39.5q207 0 351 -100t208 -267l-352 -170q-31 199 -222 199
q-183 0 -291 -176h330l-34 -186h-371q-13 -52 -21 -107h373l-33 -186h-345q22 -176 200 -176z" />
    <glyph glyph-name="uni2113" unicode="&#x2113;" horiz-adv-x="1186" 
d="M571 -14q-182 0 -271 83.5t-99 231.5q-17 -32 -103 -80l-80 189q159 99 201 129l88 442q48 268 177.5 400t316.5 132q151 0 227 -84t76 -219q0 -80 -23 -155t-80 -165t-165.5 -195t-268.5 -224l-18 -76q-12 -133 113 -133q78 0 160.5 53t150.5 131l127 -172
q-212 -288 -529 -288zM608 786q122 111 196.5 229.5t74.5 209.5q0 57 -50 57q-56 0 -102.5 -67t-73.5 -218z" />
    <glyph glyph-name="uni2116" unicode="&#x2116;" horiz-adv-x="2982" 
d="M1409 1536h383l-272 -1536h-396l-469 966l-172 -966h-381l273 1536h393l472 -957zM2470 1491q124 0 221.5 -38t156.5 -103.5t89.5 -148.5t30.5 -177q0 -90 -27 -180.5t-82 -171.5t-131 -144t-181 -100t-225 -37q-124 0 -221.5 38.5t-157 104.5t-90 149t-30.5 177
q0 90 27 180t82 171.5t131 143.5t181.5 99t225.5 37zM2327 696q81 0 147 52.5t98.5 125.5t32.5 146q0 74 -37 121t-108 47q-80 0 -144.5 -52.5t-96.5 -126.5t-32 -147t35.5 -119.5t104.5 -46.5zM1767 0l41 229h924l-41 -229h-924z" />
    <glyph glyph-name="trademark" unicode="&#x2122;" horiz-adv-x="1638" 
d="M242 1389v147h477v-147h-156v-568h-166v568h-155zM1382 1536h174v-715h-163v442l-203 -335l-205 338v-445h-166v715h180l190 -321z" />
    <glyph glyph-name="estimated" unicode="&#x212e;" horiz-adv-x="1901" 
d="M1012 -18q-178 0 -340 62t-279.5 167.5t-186.5 250.5t-69 304q0 215 117 397t318.5 287.5t439.5 105.5q179 0 341 -62.5t279.5 -168t186.5 -252t69 -307.5v-21h-1417q-12 0 -12 -8v-430q0 -24 18 -49q106 -109 245 -171t292 -62q167 0 313.5 69.5t251.5 192.5h125
q-119 -141 -301.5 -223t-390.5 -82zM471 788h1088q8 0 8 15v430q0 34 -21 51q-107 105 -243.5 165t-288.5 60q-151 0 -289 -61.5t-246 -169.5q-20 -23 -20 -53v-422q0 -15 12 -15z" />
    <glyph glyph-name="partialdiff" unicode="&#x2202;" horiz-adv-x="1225" 
d="M471 1466q114 29 219 18.5t187 -57t146.5 -123t98.5 -178t42.5 -223t-21.5 -258.5q-61 -297 -248 -473t-438 -176q-133 0 -228.5 50.5t-139.5 138t-32 212.5t86 265q127 224 322 320t383 38q-27 130 -126.5 182t-272.5 4zM469 225q44 0 92.5 26.5t99 79.5t96 148.5
t72.5 218.5q12 51 17 88q-110 50 -222 -18.5t-190 -235.5q-34 -63 -48.5 -116t-12 -87.5t16.5 -58.5t34.5 -34.5t44.5 -10.5z" />
    <glyph glyph-name="emptyset" unicode="&#x2205;" horiz-adv-x="1440" 
d="M731 -16q-214 0 -383 135l-90 -90l-94 94l90 90q-135 167 -135 383q0 166 82 307t223 223t307 82q216 0 383 -135l90 90l94 -94l-90 -90q135 -169 135 -383q0 -166 -82 -307t-223 -223t-307 -82zM459 418l450 450q-80 52 -178 52q-135 0 -229 -94.5t-94 -229.5
q0 -99 51 -178zM731 272q135 0 229.5 94.5t94.5 229.5q0 97 -51 178l-451 -450q80 -52 178 -52z" />
    <glyph glyph-name="product" unicode="&#x220f;" horiz-adv-x="1722" 
d="M129 0l203 1149h-105l58 321h1484l-57 -321h-104l-203 -1149h-320l203 1149h-633l-202 -1149h-324z" />
    <glyph glyph-name="summation" unicode="&#x2211;" horiz-adv-x="1411" 
d="M0 0l35 223l663 543l-465 543l37 227h1221l-49 -274h-748l412 -496l-578 -496h740l-49 -270h-1219z" />
    <glyph glyph-name="minus" unicode="&#x2212;" horiz-adv-x="1350" 
d="M225 578v270h963v-270h-963z" />
    <glyph glyph-name="radical" unicode="&#x221a;" horiz-adv-x="1495" 
d="M342 0l-94 631h-164l53 303h373l72 -492l718 1094h340l-1011 -1536h-287z" />
    <glyph glyph-name="infinity" unicode="&#x221e;" horiz-adv-x="1688" 
d="M479 242q-147 0 -241.5 98t-98.5 256q4 158 98.5 256t241.5 98q183 0 375 -186q192 186 375 186q156 0 245 -93t93 -261q-4 -168 -93 -261t-245 -93q-183 0 -375 186q-192 -186 -375 -186zM479 471q96 0 221 125q-125 125 -221 125q-47 0 -79.5 -34.5t-32.5 -90.5
t32.5 -90.5t79.5 -34.5zM1229 471q49 0 79.5 32.5t30.5 92.5t-30.5 92.5t-79.5 32.5q-92 0 -223 -125q131 -125 223 -125z" />
    <glyph glyph-name="integral" unicode="&#x222b;" horiz-adv-x="934" 
d="M-102 -457l36 340q138 0 191 42.5t74 160.5l186 1061q27 155 142 249.5t266 94.5q75 0 146.5 -26t113.5 -74l-156 -252q-33 39 -72 39q-89 0 -114 -134l-181 -1019q-39 -226 -212.5 -354t-419.5 -128z" />
    <glyph glyph-name="approxequal" unicode="&#x2248;" horiz-adv-x="1346" 
d="M901 698q-31 0 -61.5 5.5t-54.5 13.5t-48.5 21.5t-40.5 24t-35.5 27.5t-28.5 25.5t-24 24t-18 18.5q-31 31 -70 31q-100 0 -110 -178h-252q6 199 100 315.5t266 116.5q84 0 148 -33.5t127 -114.5q12 -15 18.5 -22.5t24.5 -18t39 -10.5q43 0 70.5 45t33.5 129h248
q-8 -187 -92.5 -303.5t-239.5 -116.5zM901 164q-28 0 -54.5 4t-50.5 12.5t-43.5 16t-40 22t-33.5 23t-30 25t-23.5 22.5t-21.5 21l-14 16q-18 17 -32 23t-38 5q-56 -4 -80.5 -49t-29.5 -129h-252q6 201 101.5 317.5t264.5 116.5q78 0 141.5 -33.5t133.5 -113.5q1 -1 7 -8.5
t9.5 -11.5t11.5 -11.5t15.5 -11.5t17.5 -7t21 -3q44 0 71 44.5t33 131.5h248q-8 -187 -93 -304.5t-239 -117.5z" />
    <glyph glyph-name="notequal" unicode="&#x2260;" horiz-adv-x="1253" 
d="M139 0l176 348h-137v270h275l96 189h-371v270h508l141 279h269l-142 -279h187v-270h-324l-96 -189h420v-270h-557l-176 -348h-269z" />
    <glyph glyph-name="lessequal" unicode="&#x2264;" horiz-adv-x="1444" 
d="M1286 1552v-299l-822 -337l822 -338v-302l-1130 478v325zM156 0v225h1130v-225h-1130z" />
    <glyph glyph-name="greaterequal" unicode="&#x2265;" horiz-adv-x="1499" 
d="M227 1552l1131 -473v-325l-1131 -478v302l823 338l-823 337v299zM227 0v225h1131v-225h-1131z" />
    <glyph glyph-name="lozenge" unicode="&#x25ca;" horiz-adv-x="1311" 
d="M690 106l-618 617l618 618l617 -616zM690 506l217 219l-217 217l-219 -219z" />
    <glyph glyph-name="uniF8FF" unicode="&#xf8ff;" horiz-adv-x="1751" 
d="M920 0q-158 0 -302 62t-248.5 166t-166.5 248t-62 302t62 302.5t166.5 248.5t248.5 165.5t302 61.5t302.5 -61.5t248.5 -165.5t165.5 -248.5t61.5 -302.5t-61.5 -302t-165.5 -248t-248.5 -166t-302.5 -62zM920 74q143 0 273.5 56t225 150.5t150 224.5t55.5 273
t-55.5 273.5t-150 225t-225 150.5t-273.5 56t-273.5 -56t-225 -150.5t-150.5 -225t-56 -273.5t56 -273t150.5 -224.5t225 -150.5t273.5 -56zM1327 444q-14 0 -24 13l-297 295q-11 12 -11 27t11 26l297 297q11 10 25.5 10t25.5 -10q10 -11 10 -26.5t-10 -26.5l-271 -271
l271 -270q22 -22 0 -51q-10 -13 -27 -13zM512 444q-15 0 -26 11t-11 26v594q0 16 11 26.5t26 10.5t26 -10.5t11 -26.5v-594q0 -15 -11 -26t-26 -11zM920 444q-16 0 -26.5 11t-10.5 26v594q0 16 10.5 26.5t26.5 10.5q15 0 25.5 -10.5t10.5 -26.5v-594q0 -15 -10.5 -26
t-25.5 -11zM623 741q-16 0 -26.5 11t-10.5 26q0 16 10.5 26.5t26.5 10.5h186q15 0 26 -10.5t11 -26.5q0 -15 -11 -26t-26 -11h-186z" />
    <glyph glyph-name="G.ss02" horiz-adv-x="1618" 
d="M762 -20q-235 0 -398 97t-230.5 274t-27.5 407q38 218 162.5 385.5t308 257.5t398.5 90q226 0 386.5 -97t231.5 -264l-352 -153q-57 188 -276 188q-180 0 -315 -121t-171 -329q-33 -186 48.5 -298t275.5 -112q136 0 241 59t144 177l-342 -13l53 301l694 -12
q-3 -84 -18 -186q-25 -141 -85.5 -254.5t-140 -186t-179.5 -121t-200.5 -69t-207.5 -20.5z" />
    <glyph glyph-name="Gbreve.ss02" horiz-adv-x="1618" 
d="M1014 1597q-89 0 -153.5 16t-110.5 51t-62 97t0 148h205q-13 -75 26 -111.5t124 -36.5q178 0 204 148h205q-31 -168 -142.5 -240t-295.5 -72zM762 -20q-235 0 -398 97t-230.5 274t-27.5 407q38 218 162.5 385.5t308 257.5t398.5 90q226 0 386.5 -97t231.5 -264l-352 -153
q-57 188 -276 188q-180 0 -315 -121t-171 -329q-33 -186 48.5 -298t275.5 -112q136 0 241 59t144 177l-342 -13l53 301l694 -12q-3 -84 -18 -186q-25 -141 -85.5 -254.5t-140 -186t-179.5 -121t-200.5 -69t-207.5 -20.5z" />
    <glyph glyph-name="Gcommaaccent.ss02" horiz-adv-x="1618" 
d="M762 -20q-235 0 -398 97t-230.5 274t-27.5 407q38 218 162.5 385.5t308 257.5t398.5 90q226 0 386.5 -97t231.5 -264l-352 -153q-57 188 -276 188q-180 0 -315 -121t-171 -329q-33 -186 48.5 -298t275.5 -112q136 0 241 59t144 177l-342 -13l53 301l694 -12
q-3 -84 -18 -186q-25 -141 -85.5 -254.5t-140 -186t-179.5 -121t-200.5 -69t-207.5 -20.5zM473 -584l-160 82l239 379h314z" />
    <glyph glyph-name="Gdotaccent.ss02" horiz-adv-x="1618" 
d="M1016 1597q-83 0 -131.5 58t-34.5 141q14 82 83.5 139.5t152.5 57.5q80 0 127.5 -58t33.5 -139q-13 -82 -82 -140.5t-149 -58.5zM762 -20q-235 0 -398 97t-230.5 274t-27.5 407q38 218 162.5 385.5t308 257.5t398.5 90q226 0 386.5 -97t231.5 -264l-352 -153
q-57 188 -276 188q-180 0 -315 -121t-171 -329q-33 -186 48.5 -298t275.5 -112q136 0 241 59t144 177l-342 -13l53 301l694 -12q-3 -84 -18 -186q-25 -141 -85.5 -254.5t-140 -186t-179.5 -121t-200.5 -69t-207.5 -20.5z" />
    <glyph glyph-name="i.loclTRK" horiz-adv-x="629" 
d="M443 1161q-83 0 -136 58t-45 141q10 81 75.5 138.5t148.5 57.5q80 0 131.5 -57.5t42.5 -138.5q-8 -83 -72.5 -141t-144.5 -58zM37 0l188 1059h367l-189 -1059h-366z" />
    <glyph glyph-name="f_t" horiz-adv-x="1563" 
d="M121 0l139 782h-209l49 277h209l17 92q36 215 135.5 310t283.5 95q106 0 213 -36l-20 -244h-90q-62 0 -106 -34t-54 -95l-14 -88h184q88 0 151 50t81 146l22 138h330l-58 -334h203l-49 -277h-203l-71 -397q-11 -66 6 -89.5t71 -23.5h101l-49 -272h-207q-168 0 -246 98.5
t-49 270.5l74 413h-340l-140 -782h-364z" />
    <glyph glyph-name="t_t" horiz-adv-x="1614" 
d="M475 0q-168 0 -246 98.5t-49 270.5l74 413h-203l49 277h68q69 0 119.5 43t62.5 112l25 138h350l-51 -293h256q69 0 119.5 43t62.5 112l25 138h350l-51 -293h202l-49 -277h-203l-71 -397q-11 -66 6 -89.5t72 -23.5h100l-49 -272h-207q-168 0 -246 98.5t-49 270.5l74 413
h-391l-72 -397q-10 -67 6.5 -90t71.5 -23h100l-49 -272h-207z" />
    <glyph glyph-name="uni0308.case" 
d="M-512 1597q-68 0 -108.5 48.5t-28.5 117.5q12 67 69.5 115.5t125.5 48.5t108.5 -48.5t28.5 -115.5q-13 -69 -70 -117.5t-125 -48.5zM-63 1597q-69 0 -109.5 48.5t-27.5 117.5q12 68 68.5 116t125.5 48q68 0 108 -48.5t27 -115.5q-12 -69 -68 -117.5t-124 -48.5z" />
    <glyph glyph-name="uni0307.case" 
d="M-90 1597q-83 0 -131.5 58t-34.5 141q14 82 83.5 139.5t152.5 57.5q80 0 127.5 -58t33.5 -139q-13 -82 -82 -140.5t-149 -58.5z" />
    <glyph glyph-name="gravecomb.case" 
d="M-41 1597l-180 273l197 123l201 -396h-218z" />
    <glyph glyph-name="acutecomb.case" 
d="M-288 1597l340 396l151 -123l-274 -273h-217z" />
    <glyph glyph-name="uni030B.case" 
d="M-678 1597l340 396l151 -123l-274 -273h-217zM-289 1597l340 396l151 -123l-274 -273h-217z" />
    <glyph glyph-name="uni0302.case" 
d="M-295 1597h-217l291 301h205l184 -301h-217l-92 177z" />
    <glyph glyph-name="uni030C.case" 
d="M-276 1597l-185 301h217l92 -176l154 176h217l-291 -301h-204z" />
    <glyph glyph-name="uni0306.case" 
d="M-266 1597q-89 0 -153.5 16t-110.5 51t-62 97t0 148h205q-13 -75 26 -111.5t124 -36.5q178 0 204 148h205q-31 -168 -142.5 -240t-295.5 -72z" />
    <glyph glyph-name="uni030A.case" 
d="M-123 1597q-99 0 -162.5 60t-68.5 155q-6 118 80.5 210t214.5 92q99 0 159.5 -59.5t65.5 -153.5q6 -119 -78.5 -211.5t-210.5 -92.5zM-108 1743q63 0 97 39.5t34 91.5q0 42 -25.5 70t-72.5 28q-59 0 -94 -41.5t-35 -95.5q0 -44 24.5 -68t71.5 -24z" />
    <glyph glyph-name="tildecomb.case" 
d="M-137 1597q-127 0 -186 121q-17 35 -43 35q-65 0 -90 -141h-185q25 142 106.5 231.5t192.5 89.5q130 0 187 -121q7 -12 10.5 -17.5t12.5 -11t22 -5.5q33 0 53.5 36t34.5 105h186q-26 -142 -105 -232t-196 -90z" />
    <glyph glyph-name="uni0304.case" 
d="M-615 1597l37 209h676l-37 -209h-676z" />
    <glyph glyph-name="hookabovecomb.case" 
d="M-174 1536l25 145q109 18 122 88q6 26 -6 42t-41 16q-48 0 -94 -43l-57 114q85 64 198 64q100 0 144.5 -48.5t30.5 -131.5q-13 -72 -53.5 -106.5t-100.5 -51.5l-14 -88h-154z" />
    <glyph glyph-name="uni0312.case" 
d="M-78 1939h258l-186 -342h-373z" />
    <glyph glyph-name="uni0338.case" 
d="M-1049 -31l1114 1600l135 -80l-1114 -1600z" />
    <glyph glyph-name="uni03060301" 
d="M-356 1659l340 395l154 -123l-277 -272h-217zM-338 1163q-177 0 -262.5 93.5t-52.5 279.5h205q-17 -94 20 -151.5t119 -57.5q83 0 140 57.5t75 151.5h205q-33 -186 -152 -279.5t-297 -93.5z" />
    <glyph glyph-name="uni03060300" 
d="M-360 1659l-178 272l194 123l201 -395h-217zM-338 1163q-177 0 -262.5 93.5t-52.5 279.5h205q-17 -94 20 -151.5t119 -57.5q83 0 140 57.5t75 151.5h205q-33 -186 -152 -279.5t-297 -93.5z" />
    <glyph glyph-name="uni03060309" 
d="M-332 1607l25 146q110 17 123 88q10 57 -47 57q-49 0 -95 -43l-57 115q83 63 199 63q99 0 143.5 -48t30.5 -132q-13 -72 -53.5 -106t-100.5 -51l-14 -89h-154zM-338 1163q-177 0 -262.5 93.5t-52.5 279.5h205q-17 -94 20 -151.5t119 -57.5q83 0 140 57.5t75 151.5h205
q-33 -186 -152 -279.5t-297 -93.5z" />
    <glyph glyph-name="uni03060303" 
d="M-117 1651q-118 0 -164 106q-13 31 -39 31q-56 0 -77 -125h-164q21 127 92.5 205.5t171.5 78.5q117 0 166 -106q12 -31 39 -31q29 0 46.5 31.5t29.5 93.5h165q-22 -125 -93 -204.5t-173 -79.5zM-338 1163q-177 0 -262.5 93.5t-52.5 279.5h205q-17 -94 20 -151.5
t119 -57.5q83 0 140 57.5t75 151.5h205q-33 -186 -152 -279.5t-297 -93.5z" />
    <glyph glyph-name="uni03020301" 
d="M-266 1659l340 395l154 -123l-277 -272h-217zM-359 1235h-217l291 301h205l184 -301h-217l-92 176z" />
    <glyph glyph-name="uni03020300" 
d="M-270 1659l-178 272l194 123l201 -395h-217zM-359 1235h-217l291 301h205l184 -301h-217l-92 176z" />
    <glyph glyph-name="uni03020309" 
d="M-242 1607l25 146q110 17 123 88q10 57 -47 57q-49 0 -95 -43l-57 115q83 63 199 63q99 0 143.5 -48t30.5 -132q-13 -72 -53.5 -106t-100.5 -51l-14 -89h-154zM-359 1235h-217l291 301h205l184 -301h-217l-92 176z" />
    <glyph glyph-name="uni03020303" 
d="M-27 1651q-118 0 -164 106q-13 31 -39 31q-56 0 -77 -125h-164q21 127 92.5 205.5t171.5 78.5q117 0 166 -106q12 -31 39 -31q29 0 46.5 31.5t29.5 93.5h165q-22 -125 -93 -204.5t-173 -79.5zM-359 1235h-217l291 301h205l184 -301h-217l-92 176z" />
    <glyph glyph-name="uni03060301.case" 
d="M-291 2036l340 396l151 -123l-274 -273h-217zM-266 1597q-89 0 -153.5 16t-110.5 51t-62 97t0 148h205q-13 -75 26 -111.5t124 -36.5q178 0 204 148h205q-31 -168 -142.5 -240t-295.5 -72z" />
    <glyph glyph-name="uni03060300.case" 
d="M-295 2036l-180 273l197 123l201 -396h-218zM-266 1597q-89 0 -153.5 16t-110.5 51t-62 97t0 148h205q-13 -75 26 -111.5t124 -36.5q178 0 204 148h205q-31 -168 -142.5 -240t-295.5 -72z" />
    <glyph glyph-name="uni03060309.case" 
d="M-268 1975l25 145q109 18 122 88q6 26 -6 42t-41 16q-48 0 -94 -43l-57 114q85 64 198 64q100 0 144.5 -48.5t30.5 -131.5q-13 -72 -53.5 -106.5t-100.5 -51.5l-14 -88h-154zM-266 1597q-89 0 -153.5 16t-110.5 51t-62 97t0 148h205q-13 -75 26 -111.5t124 -36.5
q178 0 204 148h205q-31 -168 -142.5 -240t-295.5 -72z" />
    <glyph glyph-name="uni03060303.case" 
d="M-35 2036q-127 0 -186 121q-17 35 -43 35q-65 0 -90 -141h-185q25 142 106.5 231.5t192.5 89.5q130 0 187 -121q7 -12 10.5 -17.5t12.5 -11t22 -5.5q33 0 53.5 36t34.5 105h186q-26 -142 -105 -232t-196 -90zM-266 1597q-89 0 -153.5 16t-110.5 51t-62 97t0 148h205
q-13 -75 26 -111.5t124 -36.5q178 0 204 148h205q-31 -168 -142.5 -240t-295.5 -72z" />
    <glyph glyph-name="uni03020301.case" 
d="M-201 2025l340 396l151 -123l-274 -273h-217zM-295 1597h-217l291 301h205l184 -301h-217l-92 177z" />
    <glyph glyph-name="uni03020300.case" 
d="M-205 2025l-180 273l197 123l201 -396h-218zM-295 1597h-217l291 301h205l184 -301h-217l-92 177z" />
    <glyph glyph-name="uni03020309.case" 
d="M-178 1964l25 145q109 18 122 88q6 26 -6 42t-41 16q-48 0 -94 -43l-57 114q85 64 198 64q100 0 144.5 -48.5t30.5 -131.5q-13 -72 -53.5 -106.5t-100.5 -51.5l-14 -88h-154zM-295 1597h-217l291 301h205l184 -301h-217l-92 177z" />
    <glyph glyph-name="uni03020303.case" 
d="M55 2025q-127 0 -186 121q-17 35 -43 35q-65 0 -90 -141h-185q25 142 106.5 231.5t192.5 89.5q130 0 187 -121q7 -12 10.5 -17.5t12.5 -11t22 -5.5q33 0 53.5 36t34.5 105h186q-26 -142 -105 -232t-196 -90zM-295 1597h-217l291 301h205l184 -301h-217l-92 177z" />
    </font>
</defs>
</svg>
