<?xml version="1.0" standalone="no"?>
<!DOCTYPE svg PUBLIC "-//W3C//DTD SVG 1.1//EN" "http://www.w3.org/Graphics/SVG/1.1/DTD/svg11.dtd" >
<svg xmlns="http://www.w3.org/2000/svg" xmlns:xlink="http://www.w3.org/1999/xlink" version="1.1">
<metadata>
Created by FontForge 20161013 at Sun Jul 23 14:12:04 2017
 By ,,,
Copyright (c)2016. Cerebri Sans is a trademark of Alfredo Marco Pradil. All rights reserved.
</metadata>
<defs>
<font id="CerebriSans-ExtraBoldItalic" horiz-adv-x="0" >
  <font-face 
    font-family="Cerebri Sans ExtraBold Italic"
    font-weight="800"
    font-style="italic"
    font-stretch="normal"
    units-per-em="2048"
    panose-1="0 0 9 0 0 0 0 0 0 0"
    ascent="1536"
    descent="-512"
    x-height="1037"
    cap-height="1451"
    bbox="-1677 -621 2939 2404"
    underline-thickness="82"
    underline-position="-348"
    slope="-10"
    unicode-range="U+0020-FB02"
  />
<missing-glyph horiz-adv-x="1357" 
d="M244 0v1536h956v-1536h-956zM491 247h462v1042h-462v-1042z" />
    <glyph glyph-name="fi" unicode="fi" horiz-adv-x="1346" 
d="M828 1037l-42 -235h-220l-141 -802h-305l141 802h-203l43 235h202l26 149q34 192 128 281t258 89q93 0 189 -32l-17 -211q-43 5 -89 5q-63 0 -108.5 -36.5t-56.5 -102.5l-25 -142h220zM1214 1541q74 0 121.5 -52.5t38.5 -127.5q-7 -75 -66.5 -129t-132.5 -54
q-76 0 -124 53.5t-41 129.5q8 75 68 127.5t136 52.5zM788 0l185 1044h328l-185 -1044h-328z" />
    <glyph glyph-name="fl" unicode="fl" horiz-adv-x="1326" 
d="M828 1037l-42 -235h-220l-141 -802h-305l141 802h-203l43 235h202l26 149q34 192 128 281t258 89q93 0 189 -32l-17 -211q-43 5 -89 5q-63 0 -108.5 -36.5t-56.5 -102.5l-25 -142h220zM1060 1536h310l-272 -1536h-311z" />
    <glyph glyph-name="f_f" unicode="ff" horiz-adv-x="1477" 
d="M122 0l141 795h-205l44 249h205l24 130q34 200 129.5 291t267.5 91q99 0 197 -34l-19 -221q-64 4 -90 4q-62 0 -106 -35.5t-56 -101.5l-21 -124h386l23 130q34 200 129 291t268 91q99 0 197 -34l-19 -221q-68 4 -90 4q-61 0 -105.5 -36t-55.5 -101l-21 -124h223l-45 -249
h-223l-141 -795h-326l142 795h-386l-141 -795h-326z" />
    <glyph glyph-name=".notdef" horiz-adv-x="1357" 
d="M244 0v1536h956v-1536h-956zM491 247h462v1042h-462v-1042z" />
    <glyph glyph-name=".null" 
 />
    <glyph glyph-name="nonmarkingreturn" horiz-adv-x="682" 
 />
    <glyph glyph-name="space" unicode=" " horiz-adv-x="532" 
 />
    <glyph glyph-name="exclam" unicode="!" horiz-adv-x="666" 
d="M194 481l137 977h329l-207 -977h-259zM256 -20q-83 0 -132 60t-34 144q12 67 66.5 112.5t120.5 45.5q84 0 133.5 -60.5t33.5 -145.5q-11 -65 -66 -110.5t-122 -45.5z" />
    <glyph glyph-name="quotedbl" unicode="&#x22;" horiz-adv-x="1092" 
d="M265 803l69 655h309l-149 -655h-229zM700 803l79 655h308l-158 -655h-229z" />
    <glyph glyph-name="numbersign" unicode="#" horiz-adv-x="1584" 
d="M210 0l101 321h-279l69 225h281l117 361h-284l78 223h274l107 329h226l-102 -329h318l104 329h229l-105 -329h283l-75 -223h-278l-114 -361h278l-72 -225h-277l-106 -321h-225l102 321h-324l-99 -321h-227zM611 546h318l116 361h-321z" />
    <glyph glyph-name="dollar" unicode="$" horiz-adv-x="1363" 
d="M822 865q76 -22 131.5 -43t120 -59.5t101.5 -84.5t56 -117.5t4 -158.5q-19 -105 -73.5 -186.5t-134 -131t-172.5 -76t-197 -29.5l-25 -143h-117l26 146q-216 19 -344 135.5t-124 306.5l362 59q-9 -101 32.5 -157t122.5 -69l64 364q-19 6 -35 13q-74 23 -125 43
t-111.5 56.5t-93.5 79t-49 108.5t-2 147q33 189 189 297.5t378 110.5l23 128h117l-24 -134q87 -11 160.5 -39.5t133 -75.5t94 -119t37.5 -163l-336 -60q0 88 -34 132t-103 53l-58 -331q2 0 6 -2zM576 1029q-8 -40 25 -66.5t105 -54.5l50 286q-71 -14 -119.5 -56t-60.5 -109z
M886 430q9 51 -22.5 85t-99.5 63l-56 -319q72 15 119 58.5t59 112.5z" />
    <glyph glyph-name="percent" unicode="%" horiz-adv-x="1754" 
d="M489 772q-137 0 -225 89t-88 224q0 95 50.5 185t143 149t201.5 59q137 0 225.5 -89.5t88.5 -222.5q0 -96 -50.5 -186t-143 -149t-202.5 -59zM264 0l1016 1458h276l-1017 -1458h-275zM500 986q72 0 122 50t50 121q0 46 -32.5 77t-79.5 31q-69 0 -119.5 -51t-50.5 -124
q0 -45 31.5 -74.5t78.5 -29.5zM1259 -17q-137 0 -226 88.5t-89 222.5q0 72 30.5 143t82.5 127t127.5 90.5t157.5 34.5q135 0 222.5 -88t87.5 -220q0 -72 -29.5 -143t-80 -128t-125.5 -92t-158 -35zM1271 198q69 0 119.5 50t50.5 120q0 44 -32 76t-78 32q-70 0 -121.5 -50
t-51.5 -121q0 -46 32 -76.5t81 -30.5z" />
    <glyph glyph-name="ampersand" unicode="&#x26;" horiz-adv-x="1598" 
d="M535 -20q-217 0 -348 99.5t-131 277.5q0 81 15.5 137.5t64 120.5t138 129.5t237.5 149.5q-50 78 -71 133.5t-21 112.5q0 154 121 246t319 92q182 0 283 -76.5t101 -201.5q0 -109 -75.5 -199t-267.5 -192l180 -283q147 176 180 356l289 -22q-27 -156 -108 -304t-204 -269
l188 -287h-361l-67 109q-220 -129 -462 -129zM769 1006q93 51 142.5 106t49.5 98q0 61 -86 61q-68 0 -111.5 -41t-43.5 -101q0 -10 0.5 -18t3.5 -16.5t4 -13.5t7 -16t8.5 -16t12 -20.5t13.5 -22.5zM555 245q152 0 301 90l-211 344q-170 -94 -230.5 -155.5t-60.5 -149.5
q0 -63 52 -96t149 -33z" />
    <glyph glyph-name="quotesingle" unicode="'" horiz-adv-x="652" 
d="M260 803l79 655h308l-158 -655h-229z" />
    <glyph glyph-name="parenleft" unicode="(" horiz-adv-x="706" 
d="M313 -607q-176 155 -240 462t3 700q66 374 231 675.5t390 453.5l168 -238q-166 -103 -304.5 -359t-195.5 -579q-56 -311 -11.5 -557.5t174.5 -348.5z" />
    <glyph glyph-name="parenright" unicode=")" horiz-adv-x="706" 
d="M12 -621l-167 237q166 104 304.5 360t195.5 579q56 310 12 557t-173 349l212 208q176 -154 240.5 -461.5t-2.5 -699.5q-67 -375 -232 -676t-390 -453z" />
    <glyph glyph-name="asterisk" unicode="*" horiz-adv-x="1000" 
d="M420 775l-142 91l195 205q21 20 27.5 33.5t-2.5 19t-35 1.5l-272 -42l30 176l237 -45q37 -7 62 19.5t9 56.5l-140 187l161 91l46 -255q8 -38 37 -26q24 11 41 48l132 233l146 -91l-199 -205q-32 -30 -29.5 -45.5t41.5 -8.5l270 41l-29 -176l-237 45q-39 7 -63.5 -19
t-6.5 -57l142 -186l-165 -91l-47 253q-6 36 -33 27t-45 -49z" />
    <glyph glyph-name="plus" unicode="+" horiz-adv-x="1205" 
d="M513 205v379h-380v245h380v379h244v-379h379v-245h-379v-379h-244z" />
    <glyph glyph-name="comma" unicode="," horiz-adv-x="677" 
d="M-30 -370l245 664h338l-345 -664h-238z" />
    <glyph glyph-name="hyphen" unicode="-" horiz-adv-x="987" 
d="M112 395l48 275h717l-48 -275h-717z" />
    <glyph glyph-name="period" unicode="." horiz-adv-x="654" 
d="M252 -20q-82 0 -131 60.5t-35 143.5q12 65 67 111.5t120 46.5q83 0 133 -61t34 -145q-11 -64 -66.5 -110t-121.5 -46z" />
    <glyph glyph-name="slash" unicode="/" horiz-adv-x="911" 
d="M-190 -418l997 1954h307l-998 -1954h-306z" />
    <glyph glyph-name="zero" unicode="0" horiz-adv-x="1246" 
d="M550 -20q-272 0 -383 195t-44 578q64 365 229 545t420 180q270 0 382 -194.5t43 -578.5q-64 -365 -228.5 -545t-418.5 -180zM559 272q111 0 194.5 119t126.5 362q76 432 -117 432q-112 0 -196 -118t-127 -362q-76 -433 119 -433z" />
    <glyph glyph-name="one" unicode="1" horiz-adv-x="1246" 
d="M728 1458h316l-258 -1458h-326l199 1122l-381 -311l52 334z" />
    <glyph glyph-name="two" unicode="2" horiz-adv-x="1246" 
d="M1204 1034q-18 -100 -75.5 -186.5t-167.5 -184.5l-440 -374h580l-52 -289h-1040l39 246l680 597q77 68 119.5 136.5t44.5 123.5q4 55 -30.5 86.5t-102.5 31.5q-95 0 -161.5 -56.5t-85.5 -172.5q-11 -48 -9 -135l-320 54q4 84 12 122q36 211 187 329t378 118
q229 0 354 -120t90 -326z" />
    <glyph glyph-name="three" unicode="3" horiz-adv-x="1246" 
d="M548 -20q-90 0 -168 17t-143.5 54t-106 94.5t-57.5 137.5t3 184q5 32 16 71l341 -7q-25 -62 -35 -111q-15 -86 30.5 -122t127.5 -36q111 0 179.5 59.5t84.5 153.5q30 165 -146 165h-61l43 250h37q68 0 124 53.5t70 135.5q10 62 -25 91.5t-105 29.5q-85 0 -144.5 -45.5
t-74.5 -132.5q-5 -19 -4 -51l-321 39q0 34 6 62q33 188 186 297t354 109q217 0 337.5 -120.5t90.5 -297.5q-19 -102 -85 -175.5t-142 -103.5q31 -9 60.5 -27t58 -48t45.5 -71.5t24 -97t-7 -124.5q-35 -199 -194.5 -316t-398.5 -117z" />
    <glyph glyph-name="four" unicode="4" horiz-adv-x="1246" 
d="M1198 560l-49 -289h-162l-48 -271h-326l48 271h-661l46 291l646 896h505l-159 -898h160zM349 560h363l124 702z" />
    <glyph glyph-name="five" unicode="5" horiz-adv-x="1246" 
d="M1209 1168h-595l-48 -220h94q288 0 413 -122t83 -360q-40 -226 -199.5 -357t-386.5 -131q-114 0 -209.5 34.5t-159.5 96.5t-91.5 154t-8.5 200q1 2 5.5 23t9.5 36l324 -9q-18 -49 -21 -72q-16 -84 28.5 -124.5t125.5 -40.5q106 0 175 58t86 149q9 48 1.5 85t-35 62
t-82.5 37.5t-140 12.5h-397l188 778h891z" />
    <glyph glyph-name="six" unicode="6" horiz-adv-x="1246" 
d="M787 1001q132 -18 224.5 -83t134 -181.5t14.5 -269.5q-25 -139 -119 -251.5t-226 -174t-273 -61.5q-117 0 -214.5 42t-159.5 113.5t-88.5 171t-7.5 210.5q30 165 181 343l555 598h375l-420 -453q6 -1 14 -2.5t10 -1.5zM850 523q18 92 -29.5 152.5t-149.5 60.5
q-111 0 -194 -72.5t-105 -181.5q-20 -94 25 -152t146 -58q114 0 200 71t107 180z" />
    <glyph glyph-name="seven" unicode="7" horiz-adv-x="1246" 
d="M280 1458h1036l-41 -249l-855 -1209h-377l846 1169h-661z" />
    <glyph glyph-name="eight" unicode="8" horiz-adv-x="1246" 
d="M551 -20q-219 0 -352.5 103.5t-133.5 283.5q0 146 74 259t213 185q-107 87 -107 234q0 189 152 311t375 122q194 0 312 -93.5t118 -247.5q0 -215 -205 -353q72 -41 114.5 -115.5t42.5 -173.5q0 -148 -79 -266.5t-216.5 -183.5t-307.5 -65zM683 890q90 0 154 58t64 145
q0 57 -42 94t-105 37q-89 0 -153 -56t-64 -150q0 -56 41 -92t105 -36zM565 271q123 0 198.5 76.5t75.5 183.5q0 69 -47 108.5t-123 39.5q-119 0 -196.5 -74t-77.5 -186q0 -70 46.5 -109t123.5 -39z" />
    <glyph glyph-name="nine" unicode="9" horiz-adv-x="1246" 
d="M776 1477q156 0 274.5 -71t172 -194.5t25.5 -270.5q-35 -170 -185 -343l-553 -598h-379l421 453q-4 1 -7.5 1.5t-7.5 1.5t-5 1q-197 27 -304.5 178t-68.5 358q25 138 118.5 250t225.5 173t273 61zM945 976q20 93 -24.5 151.5t-146.5 58.5q-111 0 -198 -71.5t-106 -179.5
q-19 -93 28 -153t149 -60q112 0 194 72t104 182z" />
    <glyph glyph-name="colon" unicode=":" horiz-adv-x="634" 
d="M354 622q-82 0 -130.5 60.5t-34.5 145.5q11 64 66.5 110.5t120.5 46.5q82 0 132 -61t36 -144q-12 -65 -67.5 -111.5t-122.5 -46.5zM241 -20q-81 0 -130 60.5t-35 143.5q11 65 66.5 111.5t120.5 46.5q83 0 132.5 -61t34.5 -145q-11 -64 -66.5 -110t-122.5 -46z" />
    <glyph glyph-name="semicolon" unicode=";" horiz-adv-x="666" 
d="M402 622q-82 0 -130.5 60.5t-35.5 145.5q12 64 67 110.5t121 46.5q82 0 132 -61t36 -144q-13 -65 -68.5 -111.5t-121.5 -46.5zM-67 -370l245 664h338l-345 -664h-238z" />
    <glyph glyph-name="less" unicode="&#x3c;" horiz-adv-x="1403" 
d="M1266 1486v-270l-879 -444l879 -444v-275l-1131 572v294z" />
    <glyph glyph-name="equal" unicode="=" horiz-adv-x="1305" 
d="M210 810v245h923v-245h-923zM210 362v244h923v-244h-923z" />
    <glyph glyph-name="greater" unicode="&#x3e;" horiz-adv-x="1402" 
d="M225 1486l1130 -567v-294l-1130 -572v275l879 444l-879 444v270z" />
    <glyph glyph-name="question" unicode="?" horiz-adv-x="1075" 
d="M394 464l19 113q9 49 26 86t46.5 66t62.5 51t85 49q150 54 180 213q14 86 -24.5 127t-117.5 41q-95 0 -163.5 -57t-85.5 -147q-5 -41 -3 -77l-278 60q5 60 10 85q32 180 174.5 292t345.5 112q220 0 340 -128.5t82 -346.5q-49 -272 -314 -379q-99 -22 -116 -105l-9 -55
h-260zM463 -20q-84 0 -133 59.5t-34 144.5q12 66 67 111.5t121 45.5q82 0 130.5 -60t33.5 -145q-11 -65 -65 -110.5t-120 -45.5z" />
    <glyph glyph-name="at" unicode="@" horiz-adv-x="1761" 
d="M775 -225q-196 0 -351.5 86.5t-241.5 238.5t-86 341q0 125 41 254.5t122 246t190 208.5t255.5 146t307.5 54q151 0 279 -51t215.5 -139.5t136.5 -210t49 -259.5q0 -79 -16 -154t-48.5 -141.5t-78 -116.5t-109 -79t-136.5 -29q-97 0 -162.5 24.5t-102.5 93.5h-24
q-95 -124 -258 -124q-103 0 -173.5 51.5t-70.5 142.5q0 48 18 88t45.5 66t68.5 47.5t78 33t84 22.5l221 47q1 9 4.5 26t4.5 25q5 43 -22.5 66t-72.5 23q-58 0 -106.5 -35t-53.5 -95l-181 67q25 100 114.5 152.5t228.5 52.5q48 0 91 -7t84.5 -23.5t71 -42.5t47.5 -67.5
t18 -93.5q0 -37 -23 -156t-23 -146q0 -40 20 -56.5t66 -16.5q62 0 106 33.5t66 89.5t31.5 112.5t9.5 118.5q0 211 -133.5 344t-353.5 133q-107 0 -204 -27.5t-171 -73.5t-136.5 -107.5t-105.5 -129.5t-73 -138.5t-44 -134t-14 -118.5q0 -208 138.5 -344t354.5 -136
q178 0 360 105l75 -175q-192 -112 -427 -112zM832 320q64 0 118.5 49t69.5 125l8 41l-147 -45q-66 -17 -103.5 -50.5t-37.5 -67.5q0 -52 92 -52z" />
    <glyph glyph-name="A" unicode="A" horiz-adv-x="1495" 
d="M1063 0l-51 292h-603l-154 -292h-331l789 1451h392l280 -1451h-322zM550 559h416l-104 593z" />
    <glyph glyph-name="B" unicode="B" horiz-adv-x="1288" 
d="M1022 755q183 -74 183 -282q0 -43 -5.5 -83.5t-22 -89t-42.5 -90t-70 -81t-101 -67.5t-139.5 -45t-182.5 -17h-563l256 1451h420q234 0 346.5 -86t112.5 -245q0 -260 -192 -365zM928 1053q0 64 -41.5 98.5t-154.5 34.5h-138l-54 -319h142q129 0 187.5 56t58.5 130z
M626 272q80 0 137.5 18t87.5 49t43 63.5t13 68.5q0 73 -44.5 112t-160.5 39h-204l-59 -350h187z" />
    <glyph glyph-name="C" unicode="C" horiz-adv-x="1563" 
d="M744 -20q-293 0 -468.5 164.5t-175.5 443.5q0 135 38 264t112.5 241t177.5 196.5t242.5 133t296.5 48.5q252 0 420 -124.5t210 -335.5l-310 -86q-22 122 -110.5 188t-222.5 66q-118 0 -221 -50t-171.5 -131t-107.5 -183t-39 -208q0 -157 93.5 -245.5t248.5 -88.5
q144 0 267 74.5t190 200.5l284 -128q-113 -208 -313.5 -324t-440.5 -116z" />
    <glyph glyph-name="D" unicode="D" horiz-adv-x="1482" 
d="M79 0l256 1451h525q290 0 440.5 -148.5t150.5 -409.5q0 -92 -14 -181.5t-45 -178.5t-76.5 -167t-113.5 -146t-150.5 -116.5t-192 -76t-235.5 -27.5h-545zM449 282h189q103 0 186.5 37.5t137 98t90 140.5t52 162t15.5 166q0 285 -304 285h-210z" />
    <glyph glyph-name="E" unicode="E" horiz-adv-x="1139" 
d="M1137 1171h-529l-54 -307h471l-48 -277h-472l-54 -305h529l-49 -282h-852l256 1451h852z" />
    <glyph glyph-name="F" unicode="F" horiz-adv-x="1099" 
d="M1153 1171h-545l-55 -307h472l-48 -277h-473l-104 -587h-321l256 1451h867z" />
    <glyph glyph-name="G" unicode="G" horiz-adv-x="1624" 
d="M724 -20q-284 0 -455 163t-171 439q0 135 37.5 264.5t112 242t177 198t242.5 135t298 49.5q217 0 373 -93.5t225 -257.5l-296 -131q-70 206 -311 206q-125 0 -230.5 -54.5t-172 -143t-103.5 -198t-37 -223.5q0 -154 88.5 -236.5t260.5 -82.5q157 0 276.5 74t175.5 219
l-381 -10l46 255h684l-142 -795h-250l40 182q-180 -202 -487 -202z" />
    <glyph glyph-name="H" unicode="H" horiz-adv-x="1578" 
d="M1251 1451h320l-258 -1451h-320l105 589h-594l-105 -589h-320l256 1451h322l-104 -585h594z" />
    <glyph glyph-name="I" unicode="I" horiz-adv-x="664" 
d="M79 0l256 1451h320l-256 -1451h-320z" />
    <glyph glyph-name="J" unicode="J" horiz-adv-x="998" 
d="M326 -20q-193 0 -390 107l166 251q91 -71 195 -71q186 0 228 243l165 941h321l-181 -1024q-38 -219 -173 -333t-331 -114z" />
    <glyph glyph-name="K" unicode="K" horiz-adv-x="1453" 
d="M897 752l-2 -17l428 -735h-376l-345 621h-93l-110 -621h-320l256 1451h320l-97 -551h108l532 551h398z" />
    <glyph glyph-name="L" unicode="L" horiz-adv-x="971" 
d="M452 282h445l-49 -282h-769l256 1451h320z" />
    <glyph glyph-name="M" unicode="M" horiz-adv-x="1966" 
d="M1434 1451h464l-137 -1451h-317l95 1073l-541 -1073h-207l-164 1084l-287 -1084h-322l379 1451h457l135 -870z" />
    <glyph glyph-name="N" unicode="N" horiz-adv-x="1657" 
d="M1329 1451h319l-256 -1451h-368l-445 1020l-181 -1020h-319l256 1451h366l449 -1015z" />
    <glyph glyph-name="O" unicode="O" horiz-adv-x="1638" 
d="M744 -20q-293 0 -468.5 164.5t-175.5 443.5q0 135 38 264t112.5 241t177.5 196.5t242.5 133t296.5 48.5q291 0 467 -164t176 -442q0 -135 -38 -264.5t-113 -241.5t-178 -197t-241.5 -133.5t-295.5 -48.5zM757 273q120 0 223 50t171 131.5t106.5 183.5t38.5 208
q0 155 -93.5 244t-248.5 89q-119 0 -221.5 -50t-171 -131t-107.5 -183.5t-39 -208.5q0 -156 93.5 -244.5t248.5 -88.5z" />
    <glyph glyph-name="P" unicode="P" horiz-adv-x="1306" 
d="M892 1451q216 0 329.5 -114.5t113.5 -305.5q0 -102 -34.5 -193.5t-100.5 -165t-174.5 -116.5t-245.5 -43h-291l-90 -513h-320l256 1451h557zM753 781q81 0 139 21t87.5 56.5t42 72t12.5 77.5q0 82 -45 129.5t-143 47.5h-240l-70 -404h217z" />
    <glyph glyph-name="Q" unicode="Q" horiz-adv-x="1671" 
d="M1631 863q0 -190 -76.5 -366t-215.5 -301l174 -255l-275 -100l-144 203q-159 -64 -340 -64q-297 0 -475.5 165t-178.5 445q0 135 38.5 264t114.5 240.5t180 195.5t244 132.5t298 48.5q297 0 476.5 -164.5t179.5 -443.5zM414 597q0 -160 95.5 -250t252.5 -90
q100 0 189 33.5t154.5 91t113.5 133t72 160.5t24 171q0 156 -95.5 244.5t-255.5 88.5q-99 0 -187 -32.5t-153.5 -89t-113 -130.5t-72 -158.5t-24.5 -171.5z" />
    <glyph glyph-name="R" unicode="R" horiz-adv-x="1328" 
d="M1269 1092q0 -80 -22 -152t-65.5 -132.5t-115 -103t-164.5 -58.5l316 -646h-354l-285 637h-68l-112 -637h-320l256 1451h524q207 0 308.5 -97.5t101.5 -261.5zM607 1186l-62 -352h155q74 0 128.5 21.5t82.5 55t41 67.5t13 67q0 69 -42.5 105t-141.5 36h-174z" />
    <glyph glyph-name="S" unicode="S" horiz-adv-x="1286" 
d="M606 -20q-163 0 -290.5 51t-202 151t-72.5 235l339 56q3 -111 66 -172.5t180 -61.5q104 0 171 54t67 130q0 35 -14 63.5t-38.5 49t-57.5 37t-72 30.5t-81 27q-3 1 -5 1.5t-4.5 1t-4.5 1.5q-48 16 -81 28t-77 32t-74 39.5t-61.5 49t-50.5 63t-31 77.5t-12 96
q0 201 158 326.5t396 125.5q82 0 157.5 -14t145.5 -44.5t122 -76t84 -112.5t35 -149l-314 -56q0 101 -59 147t-158 46q-104 0 -174.5 -47t-70.5 -118q0 -23 7.5 -43t17 -34.5t31.5 -29.5t37 -23.5t48.5 -20.5t51.5 -17.5t59 -18.5q50 -15 86 -27.5t83 -33.5t80 -42t68 -52.5
t56.5 -67t35 -83.5t13.5 -103q0 -144 -78 -252t-211 -163.5t-301 -55.5z" />
    <glyph glyph-name="T" unicode="T" horiz-adv-x="1060" 
d="M1194 1451l-49 -280h-342l-206 -1171h-316l206 1171h-342l49 280h1000z" />
    <glyph glyph-name="U" unicode="U" horiz-adv-x="1436" 
d="M640 -20q-232 0 -371.5 107.5t-139.5 316.5q0 58 12 119l164 928h319l-158 -906q-10 -57 -10 -93q0 -190 194 -190q123 0 212 75t118 229l156 885h320l-168 -950q-24 -136 -85 -238t-148.5 -163t-191 -90.5t-223.5 -29.5z" />
    <glyph glyph-name="V" unicode="V" horiz-adv-x="1458" 
d="M1258 1451h346l-793 -1451h-355l-276 1451h332l183 -1079z" />
    <glyph glyph-name="W" unicode="W" horiz-adv-x="2181" 
d="M314 0l-119 1451h324l80 -1083l512 1083h270l122 -1083l470 1083h339l-629 -1451h-415l-116 863l-423 -863h-415z" />
    <glyph glyph-name="X" unicode="X" horiz-adv-x="1541" 
d="M-78 0l703 756l-425 695h382l267 -462l437 462h395l-678 -695l429 -756h-398l-256 496l-439 -496h-417z" />
    <glyph glyph-name="Y" unicode="Y" horiz-adv-x="1286" 
d="M1446 1451l-617 -765l-121 -686h-321l124 696l-344 755h338l201 -479l373 479h367z" />
    <glyph glyph-name="Z" unicode="Z" horiz-adv-x="1219" 
d="M1292 1451l-41 -251l-823 -918h668l-50 -282h-1055l42 251l825 920h-661l50 280h1045z" />
    <glyph glyph-name="bracketleft" unicode="[" horiz-adv-x="723" 
d="M-46 -512l363 2048h550l-41 -229h-264l-281 -1590h264l-41 -229h-550z" />
    <glyph glyph-name="backslash" unicode="\" horiz-adv-x="1573" 
d="M1139 -418l-998 1954h307l998 -1954h-307z" />
    <glyph glyph-name="bracketright" unicode="]" horiz-adv-x="722" 
d="M-147 -512l41 229h264l281 1590h-264l40 229h550l-362 -2048h-550z" />
    <glyph glyph-name="asciicircum" unicode="^" horiz-adv-x="1427" 
d="M1340 327h-267l-237 850l-535 -850h-281l710 1131h296z" />
    <glyph glyph-name="underscore" unicode="_" horiz-adv-x="1294" 
d="M-6 -274l48 274h1024l-48 -274h-1024z" />
    <glyph glyph-name="grave" unicode="`" horiz-adv-x="483" 
d="M382 1191l-178 270l176 112l199 -382h-197z" />
    <glyph glyph-name="a" unicode="a" horiz-adv-x="1310" 
d="M957 1037h307l-184 -1037h-274l5 125q-51 -73 -139.5 -111.5t-192.5 -38.5q-191 0 -312 118.5t-121 326.5q0 119 42.5 233t116.5 203.5t185 144t238 54.5q110 0 191.5 -40t115.5 -110zM569 230q73 0 136.5 32t104.5 82.5t64.5 111t23.5 120.5q0 98 -57 162t-163 64
q-95 0 -170.5 -52.5t-113.5 -131.5t-38 -167q0 -104 57.5 -162.5t155.5 -58.5z" />
    <glyph glyph-name="b" unicode="b" horiz-adv-x="1310" 
d="M829 1055q191 0 311.5 -117t120.5 -320q0 -98 -26 -192t-77.5 -175.5t-121 -143t-162.5 -97t-196 -35.5q-111 0 -194.5 43t-116.5 119l-30 -137h-293l273 1536h306l-103 -600q53 58 134.5 88.5t174.5 30.5zM618 230q100 0 179 55.5t118 136.5t39 167q0 100 -56.5 156.5
t-151.5 56.5q-98 0 -177 -55t-119.5 -136.5t-40.5 -169.5q0 -98 58 -154.5t151 -56.5z" />
    <glyph glyph-name="c" unicode="c" horiz-adv-x="1171" 
d="M537 -20q-226 0 -359.5 122.5t-133.5 326.5q0 120 44.5 232.5t125 200t203.5 140.5t269 53q211 0 335 -105t127 -291l-282 -8q-11 165 -185 165q-101 0 -179.5 -62t-116.5 -150t-38 -180q0 -94 50.5 -147.5t139.5 -53.5q97 0 171 48t111 137l278 -50
q-67 -182 -217.5 -280t-342.5 -98z" />
    <glyph glyph-name="d" unicode="d" horiz-adv-x="1308" 
d="M1045 1536h307l-272 -1536h-289l11 112q-52 -67 -138 -102t-185 -35q-191 0 -312 118t-121 322q0 123 42.5 238t117 204.5t185.5 143.5t239 54q109 0 190.5 -40.5t115.5 -112.5zM576 230q142 0 230 105.5t88 236.5q0 108 -60.5 169t-159.5 61q-140 0 -229 -104t-89 -238
q0 -109 60.5 -169.5t159.5 -60.5z" />
    <glyph glyph-name="e" unicode="e" horiz-adv-x="1178" 
d="M679 1057q209 0 331.5 -103t122.5 -306q0 -66 -12 -126l-13 -64h-765q-2 -34 -2 -50q0 -93 54.5 -140t145.5 -47q80 0 146 37t108 104l276 -59q-77 -156 -218 -239.5t-314 -83.5q-232 0 -362.5 114t-130.5 320q0 126 42 240.5t120 205t200 144t271 53.5zM676 845
q-199 0 -285 -184h458q1 9 1 25q0 78 -48 118.5t-126 40.5z" />
    <glyph glyph-name="f" unicode="f" horiz-adv-x="743" 
d="M798 1318q-63 0 -108.5 -36.5t-56.5 -102.5l-25 -142h220l-42 -235h-220l-141 -802h-305l141 802h-203l43 235h202l26 149q34 192 128 281t258 89q93 0 189 -32l-17 -211q-43 5 -89 5z" />
    <glyph glyph-name="g" unicode="g" horiz-adv-x="1274" 
d="M934 1037h293l-170 -966q-98 -559 -634 -559q-429 0 -497 333l263 85q27 -97 79 -138.5t145 -41.5q139 0 225 83.5t110 234.5l15 87q-53 -54 -134.5 -86t-172.5 -32q-177 0 -292 115.5t-115 306.5q0 161 73 298t200 217.5t277 80.5q110 0 191 -44t114 -116zM555 285
q125 0 219 95t94 225q0 92 -57.5 150.5t-150.5 58.5q-130 0 -222.5 -97.5t-92.5 -224.5q0 -92 58 -149.5t152 -57.5z" />
    <glyph glyph-name="h" unicode="h" horiz-adv-x="1229" 
d="M853 1055q140 0 219 -74t79 -205q0 -32 -9 -90l-123 -686h-305l116 658q4 32 4 45q0 108 -118 108q-51 0 -98.5 -17.5t-93 -66.5t-67.5 -123l-107 -604h-306l273 1536h305l-113 -637q143 156 344 156z" />
    <glyph glyph-name="i" unicode="i" horiz-adv-x="603" 
d="M432 1178q-76 0 -124 53.5t-41 129.5q8 75 68 127.5t136 52.5q74 0 121.5 -52.5t38.5 -127.5q-7 -75 -66.5 -129t-132.5 -54zM45 0l185 1044h328l-185 -1044h-328z" />
    <glyph glyph-name="j" unicode="j" horiz-adv-x="607" 
d="M434 1178q-76 0 -124 53.5t-41 129.5q8 75 68 127.5t136 52.5q74 0 121.5 -52.5t38.5 -127.5q-7 -75 -66.5 -129t-132.5 -54zM-233 -490l40 252q65 0 107.5 16t69.5 56t41.5 88t29.5 131l175 991h332l-179 -1013q-48 -272 -191 -396.5t-425 -124.5z" />
    <glyph glyph-name="k" unicode="k" horiz-adv-x="1185" 
d="M1259 1037l-500 -488l343 -549h-359l-258 437h-53l-77 -437h-311l273 1536h310l-157 -886h59l376 387h354z" />
    <glyph glyph-name="l" unicode="l" horiz-adv-x="583" 
d="M44 0l273 1536h310l-272 -1536h-311z" />
    <glyph glyph-name="m" unicode="m" horiz-adv-x="1839" 
d="M1452 1055q143 0 226.5 -69t83.5 -192q0 -36 -6 -74l-127 -720h-305l114 653q4 36 4 49q0 109 -122 109q-75 0 -140 -58.5t-84 -172.5h-1l-103 -580h-309l115 652q4 36 4 49q0 110 -122 110q-75 0 -141.5 -59t-85.5 -172l-103 -580h-305l183 1037h306l-25 -142
q137 160 318 160q112 0 187 -44t102 -124q67 79 153.5 123.5t182.5 44.5z" />
    <glyph glyph-name="n" unicode="n" horiz-adv-x="1230" 
d="M853 1055q141 0 219.5 -73.5t78.5 -205.5q0 -26 -8 -90l-123 -686h-307l117 658q5 27 5 43q0 110 -133 110q-76 0 -146 -52.5t-100 -160.5l-106 -598h-305l183 1037h306l-25 -139q144 157 344 157z" />
    <glyph glyph-name="o" unicode="o" horiz-adv-x="1257" 
d="M551 -20q-230 0 -367.5 118t-137.5 326q0 127 44.5 240.5t126.5 201t207.5 138.5t277.5 51q233 0 370 -117.5t137 -324.5q0 -127 -45 -241.5t-127.5 -201.5t-208.5 -138.5t-277 -51.5zM559 222q65 0 121.5 22.5t96.5 60t69.5 86.5t43.5 101.5t14 105.5q0 99 -57.5 158.5
t-158.5 59.5q-78 0 -144 -35t-107 -90.5t-63.5 -121t-22.5 -129.5q0 -102 55 -160t153 -58z" />
    <glyph glyph-name="p" unicode="p" horiz-adv-x="1309" 
d="M828 1055q191 0 311 -117t120 -320q0 -123 -42 -238.5t-115.5 -205.5t-184.5 -144.5t-240 -54.5q-107 0 -189.5 40t-117.5 111l-108 -626h-307l272 1537h289l-12 -118q52 67 138 101.5t186 34.5zM624 230q98 0 174.5 53.5t114 132t37.5 164.5q0 105 -58.5 163.5
t-155.5 58.5q-96 0 -172.5 -53t-115.5 -132t-39 -165q0 -103 59.5 -162.5t155.5 -59.5z" />
    <glyph glyph-name="q" unicode="q" horiz-adv-x="1312" 
d="M973 1037h292l-271 -1537h-307l103 595q-54 -59 -135.5 -89.5t-173.5 -30.5q-191 0 -312 117.5t-121 322.5q0 123 42.5 238.5t117 204.5t185.5 143t239 54q111 0 194.5 -42.5t115.5 -117.5zM569 230q99 0 176 53.5t115 132t38 161.5q0 104 -59.5 164.5t-155.5 60.5
q-73 0 -135.5 -30t-103 -79.5t-63.5 -112t-23 -128.5q0 -107 57 -164.5t154 -57.5z" />
    <glyph glyph-name="r" unicode="r" horiz-adv-x="778" 
d="M495 873q54 71 154 122.5t206 51.5l-54 -294q-314 0 -364 -288l-82 -465h-310l183 1037h295z" />
    <glyph glyph-name="s" unicode="s" horiz-adv-x="982" 
d="M416 -20q-190 0 -296.5 78t-110.5 220l282 52q-2 -71 38.5 -109t107.5 -38q61 0 104.5 33.5t43.5 96.5q0 20 -4.5 35.5t-18.5 28t-25.5 20.5t-39 17.5t-45.5 14.5t-58 16q-51 14 -86 26.5t-74.5 35t-63.5 49t-40 68t-16 93.5q0 109 60.5 187t157.5 114.5t218 36.5
q108 0 193.5 -28.5t142 -94.5t59.5 -162l-252 -35q-1 64 -39.5 91t-97.5 27q-67 0 -110 -30.5t-43 -83.5q0 -16 4.5 -29t16 -22.5t21 -16.5t30.5 -14t33.5 -10.5t41 -10t42.5 -10.5q67 -17 114.5 -37t91 -53t66 -83t22.5 -116q0 -172 -131.5 -264.5t-338.5 -92.5z" />
    <glyph glyph-name="t" unicode="t" horiz-adv-x="799" 
d="M449 0q-134 0 -207.5 69t-73.5 192q0 30 10 78l82 463h-204l43 235h53q81 0 139 46.5t73 134.5l26 149h279l-58 -330h209l-40 -235h-211l-80 -449q-3 -17 -3 -43q0 -43 21.5 -61t67.5 -18h104l-42 -231h-188z" />
    <glyph glyph-name="u" unicode="u" horiz-adv-x="1230" 
d="M878 1037h305l-184 -1037h-287l18 150q-68 -79 -158 -124.5t-193 -45.5q-145 0 -223.5 73.5t-78.5 206.5q0 46 8 89l123 688h305l-110 -627q-6 -32 -6 -55q0 -120 122 -120q97 0 166.5 57t87.5 159h2z" />
    <glyph glyph-name="v" unicode="v" horiz-adv-x="1134" 
d="M903 1037h330l-627 -1037h-267l-256 1037h316l129 -692z" />
    <glyph glyph-name="w" unicode="w" horiz-adv-x="1765" 
d="M1534 1037h322l-546 -1039h-286l-115 666l-353 -666h-289l-174 1039h311l92 -656l353 656h237l122 -654z" />
    <glyph glyph-name="x" unicode="x" horiz-adv-x="1225" 
d="M-98 0l524 519l-333 518h375l172 -317l291 317h389l-526 -519l334 -518h-372l-171 313l-290 -313h-393z" />
    <glyph glyph-name="y" unicode="y" horiz-adv-x="1126" 
d="M907 1037h318l-913 -1524h-316l339 545l-252 979h327l122 -659z" />
    <glyph glyph-name="z" unicode="z" horiz-adv-x="946" 
d="M999 1037l-574 -802h411l-40 -235h-862l572 801h-389l42 236h840z" />
    <glyph glyph-name="braceleft" unicode="{" horiz-adv-x="703" 
d="M351 -488q-156 0 -235.5 87t-57.5 212l69 397q10 58 12 92t2 56.5t-18 36.5t-30 20t-52 19q-11 4 -17 6l12 178q29 9 40.5 12.5t33.5 11.5t30 14t23.5 16.5t22 21.5t17 27.5t16 37.5t12.5 47t13 59l69 396q22 124 120 200.5t255 76.5h147l-42 -230h-61q-43 0 -80 -30.5
t-45 -81.5l-63 -349q-13 -74 -28.5 -119t-48.5 -88.5t-90.5 -71t-147.5 -46.5q100 -23 150 -70.5t56.5 -114t-8.5 -154.5l-62 -353q-10 -54 4 -70.5t66 -16.5h83l-40 -229h-127z" />
    <glyph glyph-name="bar" unicode="|" horiz-adv-x="614" 
d="M60 -307l326 1843h201l-325 -1843h-202z" />
    <glyph glyph-name="braceright" unicode="}" horiz-adv-x="703" 
d="M-130 -488l40 229h62q107 0 125 109l62 353q10 59 21 96.5t33 77t54 65t83.5 48.5t123.5 38q-99 23 -149 70.5t-56.5 114t7.5 154.5l62 350q9 50 -8.5 69.5t-61.5 19.5h-83l42 230h125q156 0 236.5 -87.5t58.5 -212.5l-71 -395q-20 -143 -7 -171.5t93 -55.5q11 -4 17 -6
l-12 -177q-34 -10 -45.5 -14t-36 -13.5t-32.5 -16.5t-24 -20.5t-22.5 -28.5t-16.5 -37.5t-16.5 -50.5t-12.5 -65l-69 -396q-23 -124 -122 -200.5t-255 -76.5h-145z" />
    <glyph glyph-name="asciitilde" unicode="~" horiz-adv-x="1353" 
d="M880 306q-47 0 -89 11t-78.5 34t-55.5 37.5t-49 45t-32 31.5q-44 42 -83 42q-61 0 -91.5 -55t-32.5 -132h-229q-8 187 88 301t272 114q90 0 149.5 -34.5t116.5 -111.5q14 -19 23.5 -29.5t29 -21.5t41.5 -11q53 0 88.5 50.5t30.5 134.5h224q18 -173 -75 -289.5
t-248 -116.5z" />
    <glyph glyph-name="exclamdown" unicode="&#xa1;" horiz-adv-x="666" 
d="M382 698q-82 0 -130.5 60.5t-34.5 145.5q12 66 66.5 111.5t121.5 45.5q83 0 132 -60t35 -144q-13 -67 -67 -113t-123 -46zM-1 -417l208 976h259l-138 -976h-329z" />
    <glyph glyph-name="cent" unicode="&#xa2;" horiz-adv-x="1121" 
d="M827 612l198 -217q-155 -153 -367 -172l-40 -223h-189l43 236q-182 43 -271 193.5t-51 364.5q36 207 176.5 347t335.5 170l40 225h189l-40 -225q94 -16 169.5 -64t124.5 -120l-244 -178q-45 98 -151 98q-103 0 -188.5 -83.5t-109.5 -217.5q-21 -115 25 -183.5t134 -68.5
q63 0 119.5 32.5t96.5 85.5z" />
    <glyph glyph-name="sterling" unicode="&#xa3;" horiz-adv-x="1324" 
d="M32 0l34 192l52 18q49 12 82.5 48t42.5 87l42 241h-149l40 232h149l27 142q40 233 200 377.5t378 144.5q74 0 139.5 -18.5t120.5 -56t87 -101.5t32 -148q0 -58 -23 -148l-292 -42q41 95 41 150q0 97 -118 97q-105 0 -176.5 -72t-96.5 -205l-21 -120h270l-41 -232h-269
l-54 -309h600l-50 -277h-1047z" />
    <glyph glyph-name="currency" unicode="&#xa4;" horiz-adv-x="1385" 
d="M271 196l-148 181l135 119q-36 88 -36 178q0 188 120 338l-87 96l195 180l92 -107q123 67 257 67q147 0 253 -78l137 117l151 -175l-135 -120q35 -82 35 -176q0 -195 -120 -343l89 -96l-195 -181l-93 108q-119 -65 -258 -65q-143 0 -254 76zM688 482q91 0 162.5 47.5
t106 116.5t34.5 144q0 91 -55 152t-160 61q-92 0 -164 -48t-107 -117.5t-35 -143.5q0 -91 56 -151.5t162 -60.5z" />
    <glyph glyph-name="yen" unicode="&#xa5;" horiz-adv-x="1434" 
d="M453 0l35 196h-323l34 190h323l32 186h-323l33 190h284l-320 696h368l193 -463l368 463h381l-563 -696h272l-33 -190h-320l-32 -186h320l-34 -190h-319l-36 -196h-340z" />
    <glyph glyph-name="brokenbar" unicode="&#xa6;" horiz-adv-x="614" 
d="M255 799l131 737h201l-131 -737h-201zM60 -307l129 737h202l-129 -737h-202z" />
    <glyph glyph-name="section" unicode="&#xa7;" horiz-adv-x="1278" 
d="M757 894q73 -21 123 -39t111.5 -53t95 -76t51 -106.5t3.5 -145.5q-27 -159 -149 -257q86 -101 59 -255q-17 -97 -69 -171.5t-128 -118t-164 -65t-186 -21.5q-147 0 -259 46.5t-174.5 137t-60.5 212.5l288 44q-5 -109 52.5 -162.5t160.5 -53.5q102 0 175 48t88 139
q5 30 -4 54.5t-27.5 42t-50 34t-63 29t-74.5 27.5q-27 9 -40 14q-69 19 -117.5 37t-103.5 51t-85.5 72t-45.5 99t-2 135q28 159 160 253q-99 97 -70 257q31 172 172 268t341 96q95 0 178 -21t150.5 -63.5t107.5 -113t43 -162.5l-269 -45q-1 97 -50 139t-141 42
q-99 0 -172.5 -46t-89.5 -135q-4 -23 3.5 -42t24 -33.5t41 -27.5t54.5 -24t64 -23q32 -11 49 -17zM433 551q-5 -29 5 -50.5t42 -40.5t57.5 -29.5t81.5 -29.5q32 -11 48 -17q61 -17 85 -26q94 45 112 149q4 24 0 44.5t-19.5 37.5t-31 29.5t-46.5 26.5t-52 22t-61 23
q-32 12 -49 18q-6 2 -8 2q-63 -13 -108 -54.5t-56 -104.5z" />
    <glyph glyph-name="dieresis" unicode="&#xa8;" horiz-adv-x="931" 
d="M402 1178q-76 0 -124.5 53.5t-40.5 129.5q8 75 68 127.5t137 52.5q73 0 120 -52.5t40 -127.5t-66.5 -129t-133.5 -54zM852 1178q-76 0 -124.5 53.5t-40.5 129.5q8 75 68 127.5t137 52.5q73 0 120 -52.5t40 -127.5t-66.5 -129t-133.5 -54z" />
    <glyph glyph-name="copyright" unicode="&#xa9;" horiz-adv-x="1718" 
d="M895 -20q-152 0 -291 59.5t-239.5 160t-160 239.5t-59.5 291t59.5 291t160 239.5t239.5 160t291 59.5t291 -59.5t240 -160t160.5 -239.5t59.5 -291t-59.5 -291t-160.5 -239.5t-240 -160t-291 -59.5zM895 147q120 0 228 45.5t186 123t123.5 185.5t45.5 229
q0 120 -45.5 228t-123.5 186t-186 123.5t-228 45.5t-228 -45.5t-186 -123.5t-123.5 -186t-45.5 -228q0 -121 45.5 -229t123.5 -185.5t186 -123t228 -45.5zM900 310q-173 0 -296 123t-123 296q0 174 122.5 296.5t296.5 122.5q99 0 186.5 -43t144.5 -118l-143 -111
q-65 95 -188 95q-100 0 -167.5 -68.5t-67.5 -173.5q0 -104 67.5 -172t167.5 -68q122 0 188 94l143 -110q-57 -76 -144.5 -119.5t-186.5 -43.5z" />
    <glyph glyph-name="ordfeminine" unicode="&#xaa;" horiz-adv-x="955" 
d="M782 1536h183l-109 -614h-183l11 62q-82 -75 -192 -75q-118 0 -193 79t-75 199q0 89 43 171t124 136t180 54q140 0 197 -91zM531 1068q79 0 138.5 58.5t59.5 135.5q0 62 -35 94.5t-91 32.5q-94 0 -147 -61.5t-53 -132.5q0 -65 35 -96t93 -31z" />
    <glyph glyph-name="guillemotleft" unicode="&#xab;" horiz-adv-x="1140" 
d="M304 290l-249 377l373 377h268l-382 -377l242 -377h-252zM797 290l-250 377l373 377h270l-382 -377l242 -377h-253z" />
    <glyph glyph-name="logicalnot" unicode="&#xac;" horiz-adv-x="1735" 
d="M1288 256v524h-1112v264h1374v-788h-262z" />
    <glyph glyph-name="uni00AD" unicode="&#xad;" horiz-adv-x="987" 
d="M114 399l47 276h717l-48 -276h-716z" />
    <glyph glyph-name="registered" unicode="&#xae;" horiz-adv-x="1718" 
d="M895 1480q152 0 291 -59.5t240 -160t160.5 -239.5t59.5 -291t-59.5 -291t-160.5 -239.5t-240 -160t-291 -59.5t-291 59.5t-239.5 160t-160 239.5t-59.5 291t59.5 291t160 239.5t239.5 160t291 59.5zM895 147q120 0 228 45.5t186 123t123.5 185.5t45.5 229
q0 120 -45.5 228t-123.5 186t-186 123.5t-228 45.5t-228 -45.5t-186 -123.5t-123.5 -186t-45.5 -228q0 -121 45.5 -229t123.5 -185.5t186 -123t228 -45.5zM1203 883q0 -66 -32 -119t-86 -81l140 -334h-185l-118 308h-102v-308h-168v762h323q96 0 162 -66.5t66 -161.5z
M820 963v-167h129q39 0 65 24t26 59q0 37 -26 60.5t-65 23.5h-129z" />
    <glyph glyph-name="macron" unicode="&#xaf;" horiz-adv-x="937" 
d="M257 1219l34 189h670l-34 -189h-670z" />
    <glyph glyph-name="degree" unicode="&#xb0;" horiz-adv-x="903" 
d="M565 852q-131 0 -222 90.5t-91 222.5q0 131 91 222t222 91t222 -91t91 -222q0 -132 -91 -222.5t-222 -90.5zM565 1030q57 0 95.5 39t38.5 96t-38.5 95.5t-95.5 38.5t-95 -38.5t-38 -95.5t38 -96t95 -39z" />
    <glyph glyph-name="plusminus" unicode="&#xb1;" horiz-adv-x="1314" 
d="M538 377v380h-379v244h379v379h245v-379h379v-244h-379v-380h-245zM147 -1v245h1012v-245h-1012z" />
    <glyph glyph-name="acute" unicode="&#xb4;" horiz-adv-x="481" 
d="M137 1191l334 382l139 -112l-276 -270h-197z" />
    <glyph glyph-name="uni00B5" unicode="&#xb5;" horiz-adv-x="1341" 
d="M1002 1044h280l-185 -1044h-280l19 108q-136 -128 -303 -128q-84 0 -158 33l-93 -525h-259l276 1556h280l-111 -628q-15 -84 27 -137.5t121 -53.5q96 0 177 61t100 145z" />
    <glyph glyph-name="paragraph" unicode="&#xb6;" horiz-adv-x="1187" 
d="M315 -307l191 1079h-20q-172 0 -256.5 97t-54.5 271q28 156 133.5 237t275.5 81h206l-311 -1765h-164zM669 -307l311 1765h166l-311 -1765h-166z" />
    <glyph glyph-name="periodcentered" unicode="&#xb7;" horiz-adv-x="573" 
d="M322 605q-62 0 -99.5 45.5t-26.5 110.5q9 44 47.5 76t83.5 32q59 0 97.5 -46.5t28.5 -108.5q-9 -46 -48 -77.5t-83 -31.5z" />
    <glyph glyph-name="cedilla" unicode="&#xb8;" horiz-adv-x="578" 
d="M103 -532q-89 0 -146 44.5t-67 113.5l149 47q6 -29 29 -45t52 -16q35 0 64.5 23t35.5 60q8 39 -13.5 61t-57.5 22q-47 0 -78 -33l-103 65l164 224h151l-117 -152q23 5 43 5q84 0 129 -54t30 -138q-17 -95 -93.5 -161t-171.5 -66z" />
    <glyph glyph-name="ordmasculine" unicode="&#xba;" horiz-adv-x="878" 
d="M527 909q-135 0 -221 81t-86 204q0 139 109.5 246.5t267.5 107.5q136 0 222.5 -81.5t86.5 -205.5q0 -93 -52.5 -175t-140 -129.5t-186.5 -47.5zM530 1068q78 0 137.5 60t59.5 132q0 56 -38 92.5t-95 36.5q-62 0 -108 -34t-65.5 -77t-19.5 -85q0 -52 37.5 -88.5
t91.5 -36.5z" />
    <glyph glyph-name="guillemotright" unicode="&#xbb;" horiz-adv-x="1137" 
d="M-1 290l381 377l-240 377h249l250 -377l-373 -377h-267zM492 290l380 377l-240 377h252l249 -377l-373 -377h-268z" />
    <glyph glyph-name="onequarter" unicode="&#xbc;" horiz-adv-x="1743" 
d="M1283 1536h209l-1136 -1536h-212zM237 614l135 747l-209 -143l25 178l223 140h178l-164 -922h-188zM1653 922l-105 -588h97l-25 -139h-96l-35 -195h-181l34 195h-417l25 165l453 562h250zM1105 334h262l78 440z" />
    <glyph glyph-name="onehalf" unicode="&#xbd;" horiz-adv-x="1766" 
d="M1279 1536h210l-1136 -1536h-212zM233 614l134 746l-207 -142l30 178l218 140h178l-164 -922h-189zM1700 632q-21 -127 -141 -254t-338 -231h408l-27 -147h-631l23 183q155 88 261 162t160.5 131.5t77.5 99t30 83.5q8 33 3 55t-10.5 35t-20.5 19.5t-26 8t-28 1.5
q-72 0 -114 -48.5t-50 -111.5l-191 22q19 132 119 214t235 82q139 0 211.5 -85t48.5 -219z" />
    <glyph glyph-name="threequarters" unicode="&#xbe;" horiz-adv-x="1947" 
d="M645 1110q52 -34 80 -86.5t30.5 -108t-20.5 -112t-65.5 -101t-111.5 -72.5t-152 -28q-143 0 -226 82.5t-61 199.5l190 -23q-17 -104 81 -104q92 0 147 70q46 58 31 118q-15 64 -94 75q-14 2 -30 2h-48l25 143h15q86 0 138 73q41 58 30 112q-10 51 -66 51
q-55 0 -94.5 -33.5t-50.5 -100.5l-187 23q22 122 108.5 190t207.5 68q74 0 130 -23.5t85.5 -61.5t39 -86t-2.5 -96.5t-45.5 -94t-83.5 -76.5zM1489 1536h210l-1137 -1536h-211zM1860 922l-105 -588h96l-24 -139h-96l-35 -195h-181l34 195h-418l26 165l453 562h250zM1311 334
h263l78 441z" />
    <glyph glyph-name="questiondown" unicode="&#xbf;" horiz-adv-x="1075" 
d="M577 703q-82 0 -130.5 59.5t-32.5 144.5q11 65 64.5 111t119.5 46q84 0 133.5 -60t33.5 -144q-11 -66 -66 -111.5t-122 -45.5zM390 -435q-220 0 -339.5 129t-82.5 347q49 270 315 379q98 22 115 104l9 56h261l-20 -113q-17 -94 -66 -145.5t-154 -107.5
q-150 -53 -179 -212q-15 -87 23.5 -127.5t117.5 -40.5q96 0 164 56.5t85 146.5q6 32 3 78l278 -61q-2 -43 -10 -84q-32 -181 -174 -293t-346 -112z" />
    <glyph glyph-name="Agrave" unicode="&#xc0;" horiz-adv-x="1495" 
d="M1034 1582h-197l-180 269l178 112zM1063 0l-51 292h-603l-154 -292h-331l789 1451h392l280 -1451h-322zM550 559h416l-104 593z" />
    <glyph glyph-name="Aacute" unicode="&#xc1;" horiz-adv-x="1495" 
d="M1309 1851l-273 -269h-198l334 381zM1063 0l-51 292h-603l-154 -292h-331l789 1451h392l280 -1451h-322zM550 559h416l-104 593z" />
    <glyph glyph-name="Acircumflex" unicode="&#xc2;" horiz-adv-x="1495" 
d="M968 1767l-162 -185h-197l285 300h189l179 -300h-197zM1063 0l-51 292h-603l-154 -292h-331l789 1451h392l280 -1451h-322zM550 559h416l-104 593z" />
    <glyph glyph-name="Atilde" unicode="&#xc3;" horiz-adv-x="1495" 
d="M851 1739q-37 0 -62.5 -40t-37.5 -105h-167q24 136 102.5 222t186.5 86q128 0 182 -119q11 -20 22.5 -30t32.5 -10q70 0 98 144h168q-24 -135 -101 -221.5t-189 -86.5q-125 0 -183 119q-18 41 -52 41zM1063 0l-51 292h-603l-154 -292h-331l789 1451h392l280 -1451h-322z
M550 559h416l-104 593z" />
    <glyph glyph-name="Adieresis" unicode="&#xc4;" horiz-adv-x="1495" 
d="M720 1582q-63 0 -100.5 45t-26.5 109q11 63 64.5 107.5t116.5 44.5t100.5 -44.5t26.5 -107.5q-11 -64 -64.5 -109t-116.5 -45zM1153 1582q-65 0 -102 45t-26 109q11 63 64 107.5t117 44.5q63 0 100 -44.5t26 -107.5q-11 -64 -63.5 -109t-115.5 -45zM1063 0l-51 292h-603
l-154 -292h-331l789 1451h392l280 -1451h-322zM550 559h416l-104 593z" />
    <glyph glyph-name="Aring" unicode="&#xc5;" horiz-adv-x="1495" 
d="M948 1582q-96 0 -157 57.5t-65 149.5q-5 113 78 201t206 88q96 0 154.5 -57t62.5 -148q5 -114 -76.5 -202.5t-202.5 -88.5zM996 1949q-60 0 -96.5 -42.5t-36.5 -97.5q0 -44 25.5 -69t72.5 -25q63 0 99 40.5t36 93.5q0 43 -26.5 71.5t-73.5 28.5zM1063 0l-51 292h-603
l-154 -292h-331l789 1451h392l280 -1451h-322zM550 559h416l-104 593z" />
    <glyph glyph-name="AE" unicode="&#xc6;" horiz-adv-x="1914" 
d="M-76 0l747 1458h1292l-53 -299h-548l-49 -281h472l-54 -298h-471l-49 -280h547l-53 -300h-888l51 285h-445l-138 -285h-361zM564 568h354l104 592h-176z" />
    <glyph glyph-name="Ccedilla" unicode="&#xc7;" horiz-adv-x="1563" 
d="M757 273q144 0 267 74.5t190 200.5l284 -128q-107 -198 -294 -313t-413 -126l-76 -99q23 5 43 5q84 0 129 -54t30 -138q-17 -95 -93.5 -161t-171.5 -66q-89 0 -146 44.5t-67 113.5l149 47q6 -29 29 -45t52 -16q35 0 64.5 23t35.5 60q8 39 -13.5 61t-57.5 22
q-46 0 -78 -33l-103 65l128 175q-252 28 -398.5 188.5t-146.5 414.5q0 135 38 264t112.5 241t177.5 196.5t242.5 133t296.5 48.5q252 0 420 -124.5t210 -335.5l-310 -86q-22 122 -110.5 188t-222.5 66q-118 0 -221 -50t-171.5 -131t-107.5 -183t-39 -208q0 -157 93.5 -245.5
t248.5 -88.5z" />
    <glyph glyph-name="Egrave" unicode="&#xc8;" horiz-adv-x="1139" 
d="M892 1582h-197l-180 269l178 112zM1137 1171h-529l-54 -307h471l-48 -277h-472l-54 -305h529l-49 -282h-852l256 1451h852z" />
    <glyph glyph-name="Eacute" unicode="&#xc9;" horiz-adv-x="1139" 
d="M1167 1851l-273 -269h-198l334 381zM1137 1171h-529l-54 -307h471l-48 -277h-472l-54 -305h529l-49 -282h-852l256 1451h852z" />
    <glyph glyph-name="Ecircumflex" unicode="&#xca;" horiz-adv-x="1139" 
d="M826 1767l-162 -185h-197l285 300h189l179 -300h-197zM1137 1171h-529l-54 -307h471l-48 -277h-472l-54 -305h529l-49 -282h-852l256 1451h852z" />
    <glyph glyph-name="Edieresis" unicode="&#xcb;" horiz-adv-x="1139" 
d="M578 1582q-63 0 -100.5 45t-26.5 109q11 63 64.5 107.5t116.5 44.5t100.5 -44.5t26.5 -107.5q-11 -64 -64.5 -109t-116.5 -45zM1064 1888q63 0 100 -44.5t26 -107.5q-11 -64 -63.5 -109t-115.5 -45q-65 0 -102 45t-26 109q11 63 64 107.5t117 44.5zM79 0l256 1451h852
l-50 -280h-529l-54 -307h471l-48 -277h-472l-54 -305h529l-49 -282h-852z" />
    <glyph glyph-name="Igrave" unicode="&#xcc;" horiz-adv-x="664" 
d="M418 1582l-180 269l178 112l199 -381h-197zM79 0l256 1451h320l-256 -1451h-320z" />
    <glyph glyph-name="Iacute" unicode="&#xcd;" horiz-adv-x="664" 
d="M419 1582l334 381l137 -112l-273 -269h-198zM79 0l256 1451h320l-256 -1451h-320z" />
    <glyph glyph-name="Icircumflex" unicode="&#xce;" horiz-adv-x="664" 
d="M387 1582h-197l285 300h189l179 -300h-197l-97 185zM79 0l256 1451h320l-256 -1451h-320z" />
    <glyph glyph-name="Idieresis" unicode="&#xcf;" horiz-adv-x="664" 
d="M301 1582q-63 0 -100.5 45t-26.5 109q11 63 64.5 107.5t116.5 44.5t100.5 -44.5t26.5 -107.5q-11 -64 -64.5 -109t-116.5 -45zM734 1582q-65 0 -102 45t-26 109q11 63 64 107.5t117 44.5q63 0 100 -44.5t26 -107.5q-11 -64 -63.5 -109t-115.5 -45zM79 0l256 1451h320
l-256 -1451h-320z" />
    <glyph glyph-name="Eth" unicode="&#xd0;" horiz-adv-x="1482" 
d="M860 1451q290 0 440.5 -148.5t150.5 -409.5q0 -92 -14 -181.5t-45 -178.5t-76.5 -167t-113.5 -146t-150.5 -116.5t-192 -76t-235.5 -27.5h-545l111 628h-158l33 196h159l111 627h525zM638 282q103 0 186.5 37.5t137 98t90 140.5t52 162t15.5 166q0 285 -304 285h-210
l-61 -347h239l-34 -196h-239l-61 -346h189z" />
    <glyph glyph-name="Ntilde" unicode="&#xd1;" horiz-adv-x="1657" 
d="M931 1739q-37 0 -62.5 -40t-37.5 -105h-167q24 136 102.5 222t186.5 86q128 0 182 -119q11 -20 22.5 -30t32.5 -10q70 0 98 144h168q-24 -135 -101 -221.5t-189 -86.5q-125 0 -183 119q-18 41 -52 41zM1329 1451h319l-256 -1451h-368l-445 1020l-181 -1020h-319l256 1451
h366l449 -1015z" />
    <glyph glyph-name="Ograve" unicode="&#xd2;" horiz-adv-x="1638" 
d="M908 1582l-180 269l178 112l199 -381h-197zM744 -20q-293 0 -468.5 164.5t-175.5 443.5q0 135 38 264t112.5 241t177.5 196.5t242.5 133t296.5 48.5q291 0 467 -164t176 -442q0 -135 -38 -264.5t-113 -241.5t-178 -197t-241.5 -133.5t-295.5 -48.5zM757 273q120 0 223 50
t171 131.5t106.5 183.5t38.5 208q0 155 -93.5 244t-248.5 89q-119 0 -221.5 -50t-171 -131t-107.5 -183.5t-39 -208.5q0 -156 93.5 -244.5t248.5 -88.5z" />
    <glyph glyph-name="Oacute" unicode="&#xd3;" horiz-adv-x="1638" 
d="M909 1582l334 381l137 -112l-273 -269h-198zM744 -20q-293 0 -468.5 164.5t-175.5 443.5q0 135 38 264t112.5 241t177.5 196.5t242.5 133t296.5 48.5q291 0 467 -164t176 -442q0 -135 -38 -264.5t-113 -241.5t-178 -197t-241.5 -133.5t-295.5 -48.5zM757 273
q120 0 223 50t171 131.5t106.5 183.5t38.5 208q0 155 -93.5 244t-248.5 89q-119 0 -221.5 -50t-171 -131t-107.5 -183.5t-39 -208.5q0 -156 93.5 -244.5t248.5 -88.5z" />
    <glyph glyph-name="Ocircumflex" unicode="&#xd4;" horiz-adv-x="1638" 
d="M877 1582h-197l285 300h189l179 -300h-197l-97 185zM744 -20q-293 0 -468.5 164.5t-175.5 443.5q0 135 38 264t112.5 241t177.5 196.5t242.5 133t296.5 48.5q291 0 467 -164t176 -442q0 -135 -38 -264.5t-113 -241.5t-178 -197t-241.5 -133.5t-295.5 -48.5zM757 273
q120 0 223 50t171 131.5t106.5 183.5t38.5 208q0 155 -93.5 244t-248.5 89q-119 0 -221.5 -50t-171 -131t-107.5 -183.5t-39 -208.5q0 -156 93.5 -244.5t248.5 -88.5z" />
    <glyph glyph-name="Otilde" unicode="&#xd5;" horiz-adv-x="1638" 
d="M1157 1579q-125 0 -183 119q-18 41 -52 41q-37 0 -62.5 -40t-37.5 -105h-167q24 136 102.5 222t186.5 86q128 0 182 -119q11 -20 22.5 -30t32.5 -10q70 0 98 144h168q-24 -135 -101 -221.5t-189 -86.5zM744 -20q-293 0 -468.5 164.5t-175.5 443.5q0 135 38 264t112.5 241
t177.5 196.5t242.5 133t296.5 48.5q291 0 467 -164t176 -442q0 -135 -38 -264.5t-113 -241.5t-178 -197t-241.5 -133.5t-295.5 -48.5zM757 273q120 0 223 50t171 131.5t106.5 183.5t38.5 208q0 155 -93.5 244t-248.5 89q-119 0 -221.5 -50t-171 -131t-107.5 -183.5
t-39 -208.5q0 -156 93.5 -244.5t248.5 -88.5z" />
    <glyph glyph-name="Odieresis" unicode="&#xd6;" horiz-adv-x="1638" 
d="M791 1582q-63 0 -100.5 45t-26.5 109q11 63 64.5 107.5t116.5 44.5t100.5 -44.5t26.5 -107.5q-11 -64 -64.5 -109t-116.5 -45zM1224 1582q-65 0 -102 45t-26 109q11 63 64 107.5t117 44.5q63 0 100 -44.5t26 -107.5q-11 -64 -63.5 -109t-115.5 -45zM744 -20
q-293 0 -468.5 164.5t-175.5 443.5q0 135 38 264t112.5 241t177.5 196.5t242.5 133t296.5 48.5q291 0 467 -164t176 -442q0 -135 -38 -264.5t-113 -241.5t-178 -197t-241.5 -133.5t-295.5 -48.5zM757 273q120 0 223 50t171 131.5t106.5 183.5t38.5 208q0 155 -93.5 244
t-248.5 89q-119 0 -221.5 -50t-171 -131t-107.5 -183.5t-39 -208.5q0 -156 93.5 -244.5t248.5 -88.5z" />
    <glyph glyph-name="multiply" unicode="&#xd7;" horiz-adv-x="1112" 
d="M320 261l-174 174l268 268l-268 267l174 174l268 -267l265 267l175 -174l-268 -267l268 -268l-175 -174l-265 268z" />
    <glyph glyph-name="Oslash" unicode="&#xd8;" horiz-adv-x="1638" 
d="M1380 1352q110 -80 170 -204.5t60 -282.5q0 -135 -38 -264.5t-113 -241.5t-178 -197t-241.5 -133.5t-295.5 -48.5q-159 0 -285 50l-97 -139l-126 75l93 134q-110 80 -169.5 204.5t-59.5 283.5q0 135 38 264t112.5 241t177.5 196.5t242.5 133t296.5 48.5t283 -50l98 141
l126 -75zM415 606q0 -157 95 -246l561 804q-54 15 -117 15q-119 0 -221.5 -50t-171 -131t-107.5 -183.5t-39 -208.5zM757 273q120 0 223 50t171 131.5t106.5 183.5t38.5 208q0 157 -96 247l-561 -804q52 -16 118 -16z" />
    <glyph glyph-name="Ugrave" unicode="&#xd9;" horiz-adv-x="1436" 
d="M805 1582l-180 269l178 112l199 -381h-197zM640 -20q-232 0 -371.5 107.5t-139.5 316.5q0 58 12 119l164 928h319l-158 -906q-10 -57 -10 -93q0 -190 194 -190q123 0 212 75t118 229l156 885h320l-168 -950q-24 -136 -85 -238t-148.5 -163t-191 -90.5t-223.5 -29.5z" />
    <glyph glyph-name="Uacute" unicode="&#xda;" horiz-adv-x="1436" 
d="M806 1582l334 381l137 -112l-273 -269h-198zM640 -20q-232 0 -371.5 107.5t-139.5 316.5q0 58 12 119l164 928h319l-158 -906q-10 -57 -10 -93q0 -190 194 -190q123 0 212 75t118 229l156 885h320l-168 -950q-24 -136 -85 -238t-148.5 -163t-191 -90.5t-223.5 -29.5z" />
    <glyph glyph-name="Ucircumflex" unicode="&#xdb;" horiz-adv-x="1436" 
d="M774 1582h-197l285 300h189l179 -300h-197l-97 185zM640 -20q-232 0 -371.5 107.5t-139.5 316.5q0 58 12 119l164 928h319l-158 -906q-10 -57 -10 -93q0 -190 194 -190q123 0 212 75t118 229l156 885h320l-168 -950q-24 -136 -85 -238t-148.5 -163t-191 -90.5
t-223.5 -29.5z" />
    <glyph glyph-name="Udieresis" unicode="&#xdc;" horiz-adv-x="1436" 
d="M688 1582q-63 0 -100.5 45t-26.5 109q11 63 64.5 107.5t116.5 44.5t100.5 -44.5t26.5 -107.5q-11 -64 -64.5 -109t-116.5 -45zM1121 1582q-65 0 -102 45t-26 109q11 63 64 107.5t117 44.5q63 0 100 -44.5t26 -107.5q-11 -64 -63.5 -109t-115.5 -45zM640 -20
q-232 0 -371.5 107.5t-139.5 316.5q0 58 12 119l164 928h319l-158 -906q-10 -57 -10 -93q0 -190 194 -190q123 0 212 75t118 229l156 885h320l-168 -950q-24 -136 -85 -238t-148.5 -163t-191 -90.5t-223.5 -29.5z" />
    <glyph glyph-name="Yacute" unicode="&#xdd;" horiz-adv-x="1286" 
d="M1200 1851l-273 -269h-198l334 381zM1446 1451l-617 -765l-121 -686h-321l124 696l-344 755h338l201 -479l373 479h367z" />
    <glyph glyph-name="Thorn" unicode="&#xde;" horiz-adv-x="1244" 
d="M795 1311q241 0 351.5 -98t110.5 -292q0 -75 -21.5 -148.5t-68 -141t-112 -119.5t-160 -83t-206.5 -31h-210l-70 -398h-330l232 1311l40 225h330l-40 -225h154zM729 688q111 0 170.5 60t59.5 145q0 61 -39 94.5t-136 33.5h-194l-60 -333h199z" />
    <glyph glyph-name="germandbls" unicode="&#xdf;" horiz-adv-x="1312" 
d="M44 0l168 950q25 143 75 252t110.5 175t138 107.5t150 56.5t153.5 15q210 0 333 -98t123 -256q0 -92 -35.5 -158.5t-106.5 -124.5q-5 -4 -30 -23.5t-31.5 -26t-21 -21.5t-19 -28.5t-4.5 -28.5q0 -24 21 -45t50.5 -41.5t59 -48.5t50.5 -78.5t21 -118.5
q0 -208 -129.5 -333.5t-344.5 -125.5h-213l42 237h94q102 0 165.5 65.5t63.5 160.5q0 39 -18.5 70t-45 52t-53 44t-45 59t-18.5 83q0 36 6.5 66t14.5 49.5t27 42t30.5 33t40 34t41.5 35.5q83 67 83 165q0 104 -149 104q-242 0 -295 -302l-176 -998h-326z" />
    <glyph glyph-name="agrave" unicode="&#xe0;" horiz-adv-x="1310" 
d="M870 1176h-197l-178 270l176 112zM957 1037h307l-184 -1037h-274l5 125q-51 -73 -139.5 -111.5t-192.5 -38.5q-191 0 -312 118.5t-121 326.5q0 119 42.5 233t116.5 203.5t185 144t238 54.5q110 0 191.5 -40t115.5 -110zM569 230q73 0 136.5 32t104.5 82.5t64.5 111
t23.5 120.5q0 98 -57 162t-163 64q-95 0 -170.5 -52.5t-113.5 -131.5t-38 -167q0 -104 57.5 -162.5t155.5 -58.5z" />
    <glyph glyph-name="aacute" unicode="&#xe1;" horiz-adv-x="1310" 
d="M1147 1446l-276 -270h-197l334 382zM957 1037h307l-184 -1037h-274l5 125q-51 -73 -139.5 -111.5t-192.5 -38.5q-191 0 -312 118.5t-121 326.5q0 119 42.5 233t116.5 203.5t185 144t238 54.5q110 0 191.5 -40t115.5 -110zM569 230q73 0 136.5 32t104.5 82.5t64.5 111
t23.5 120.5q0 98 -57 162t-163 64q-95 0 -170.5 -52.5t-113.5 -131.5t-38 -167q0 -104 57.5 -162.5t155.5 -58.5z" />
    <glyph glyph-name="acircumflex" unicode="&#xe2;" horiz-adv-x="1310" 
d="M812 1407l-162 -186h-197l285 300h189l180 -300h-198zM957 1037h307l-184 -1037h-274l5 125q-51 -73 -139.5 -111.5t-192.5 -38.5q-191 0 -312 118.5t-121 326.5q0 119 42.5 233t116.5 203.5t185 144t238 54.5q110 0 191.5 -40t115.5 -110zM569 230q73 0 136.5 32
t104.5 82.5t64.5 111t23.5 120.5q0 98 -57 162t-163 64q-95 0 -170.5 -52.5t-113.5 -131.5t-38 -167q0 -104 57.5 -162.5t155.5 -58.5z" />
    <glyph glyph-name="atilde" unicode="&#xe3;" horiz-adv-x="1310" 
d="M700 1307q-62 0 -85 -127h-150q21 121 90 197.5t165 76.5q59 0 100 -29t62 -76q13 -34 46 -34q59 0 82 126h152q-21 -120 -89.5 -196.5t-167.5 -76.5q-115 0 -160 104q-17 35 -45 35zM957 1037h307l-184 -1037h-274l5 125q-51 -73 -139.5 -111.5t-192.5 -38.5
q-191 0 -312 118.5t-121 326.5q0 119 42.5 233t116.5 203.5t185 144t238 54.5q110 0 191.5 -40t115.5 -110zM569 230q73 0 136.5 32t104.5 82.5t64.5 111t23.5 120.5q0 98 -57 162t-163 64q-95 0 -170.5 -52.5t-113.5 -131.5t-38 -167q0 -104 57.5 -162.5t155.5 -58.5z" />
    <glyph glyph-name="adieresis" unicode="&#xe4;" horiz-adv-x="1310" 
d="M562 1178q-76 0 -124.5 53.5t-40.5 129.5q8 75 68 127.5t137 52.5q73 0 120 -52.5t40 -127.5t-66.5 -129t-133.5 -54zM1012 1178q-76 0 -124.5 53.5t-40.5 129.5q8 75 68 127.5t137 52.5q73 0 120 -52.5t40 -127.5t-66.5 -129t-133.5 -54zM957 1037h307l-184 -1037h-274
l5 125q-51 -73 -139.5 -111.5t-192.5 -38.5q-191 0 -312 118.5t-121 326.5q0 119 42.5 233t116.5 203.5t185 144t238 54.5q110 0 191.5 -40t115.5 -110zM569 230q73 0 136.5 32t104.5 82.5t64.5 111t23.5 120.5q0 98 -57 162t-163 64q-95 0 -170.5 -52.5t-113.5 -131.5
t-38 -167q0 -104 57.5 -162.5t155.5 -58.5z" />
    <glyph glyph-name="aring" unicode="&#xe5;" horiz-adv-x="1310" 
d="M784 1149q-103 0 -169 73.5t-56 176.5q12 102 93.5 174.5t184.5 72.5q102 0 166.5 -73t52.5 -174q-10 -103 -90 -176.5t-182 -73.5zM696 1399q-4 -52 24.5 -84t77.5 -32t85.5 32t41.5 84q5 47 -25 82.5t-77 35.5q-48 0 -85 -35.5t-42 -82.5zM957 1037h307l-184 -1037
h-274l5 125q-51 -73 -139.5 -111.5t-192.5 -38.5q-191 0 -312 118.5t-121 326.5q0 119 42.5 233t116.5 203.5t185 144t238 54.5q110 0 191.5 -40t115.5 -110zM569 230q73 0 136.5 32t104.5 82.5t64.5 111t23.5 120.5q0 98 -57 162t-163 64q-95 0 -170.5 -52.5t-113.5 -131.5
t-38 -167q0 -104 57.5 -162.5t155.5 -58.5z" />
    <glyph glyph-name="ae" unicode="&#xe6;" horiz-adv-x="1827" 
d="M1319 1066q212 0 337.5 -105t125.5 -310q0 -66 -12 -127l-17 -75h-761q-2 -26 -2 -37q0 -88 52.5 -132.5t140.5 -44.5q77 0 140.5 36t102.5 100l296 -63q-82 -164 -224 -246t-328 -82q-267 0 -398 154h-14q-195 -154 -436 -154q-141 0 -227.5 59t-86.5 181q0 56 13 102.5
t34 81t56 63.5t70.5 48.5t86.5 37t94.5 28.5t103.5 24l146 30q64 14 98 45t34 77q0 50 -34 67.5t-91 17.5q-88 0 -152.5 -44t-88.5 -134l-281 67q61 176 191 254t350 78q227 0 323 -95q154 98 358 98zM1314 841q-184 0 -265 -170h429q1 8 1 22q0 148 -165 148zM431 215
q62 0 131 32.5t120 89.5q-6 41 -6 84q0 21 1 31l-181 -47q-164 -35 -164 -123q0 -33 27 -50t72 -17z" />
    <glyph glyph-name="ccedilla" unicode="&#xe7;" horiz-adv-x="1171" 
d="M537 223q97 0 171 48t111 137l278 -50q-64 -175 -206 -272.5t-325 -104.5l-76 -99q23 5 43 5q84 0 129 -54t30 -138q-17 -95 -93.5 -161t-171.5 -66q-89 0 -146 44.5t-67 113.5l149 47q6 -29 29 -45t52 -16q35 0 64.5 23t35.5 60q8 39 -13.5 61t-57.5 22q-47 0 -78 -33
l-103 65l131 179q-177 30 -278 147t-101 293q0 120 44.5 232.5t125 200t203.5 140.5t269 53q211 0 335 -105t127 -291l-282 -8q-11 165 -185 165q-101 0 -179.5 -62t-116.5 -150t-38 -180q0 -94 50.5 -147.5t139.5 -53.5z" />
    <glyph glyph-name="egrave" unicode="&#xe8;" horiz-adv-x="1178" 
d="M826 1171h-197l-178 270l176 112zM679 1057q209 0 331.5 -103t122.5 -306q0 -66 -12 -126l-13 -64h-765q-2 -34 -2 -50q0 -93 54.5 -140t145.5 -47q80 0 146 37t108 104l276 -59q-77 -156 -218 -239.5t-314 -83.5q-232 0 -362.5 114t-130.5 320q0 126 42 240.5t120 205
t200 144t271 53.5zM676 845q-199 0 -285 -184h458q1 9 1 25q0 78 -48 118.5t-126 40.5z" />
    <glyph glyph-name="eacute" unicode="&#xe9;" horiz-adv-x="1178" 
d="M1103 1441l-276 -270h-197l334 382zM679 1057q209 0 331.5 -103t122.5 -306q0 -66 -12 -126l-13 -64h-765q-2 -34 -2 -50q0 -93 54.5 -140t145.5 -47q80 0 146 37t108 104l276 -59q-77 -156 -218 -239.5t-314 -83.5q-232 0 -362.5 114t-130.5 320q0 126 42 240.5t120 205
t200 144t271 53.5zM676 845q-199 0 -285 -184h458q1 9 1 25q0 78 -48 118.5t-126 40.5z" />
    <glyph glyph-name="ecircumflex" unicode="&#xea;" horiz-adv-x="1178" 
d="M768 1402l-162 -186h-197l285 300h189l180 -300h-198zM679 1057q209 0 331.5 -103t122.5 -306q0 -66 -12 -126l-13 -64h-765q-2 -34 -2 -50q0 -93 54.5 -140t145.5 -47q80 0 146 37t108 104l276 -59q-77 -156 -218 -239.5t-314 -83.5q-232 0 -362.5 114t-130.5 320
q0 126 42 240.5t120 205t200 144t271 53.5zM676 845q-199 0 -285 -184h458q1 9 1 25q0 78 -48 118.5t-126 40.5z" />
    <glyph glyph-name="edieresis" unicode="&#xeb;" horiz-adv-x="1178" 
d="M518 1173q-76 0 -124.5 53.5t-40.5 129.5q8 75 68 127.5t137 52.5q73 0 120 -52.5t40 -127.5t-66.5 -129t-133.5 -54zM1008 1536q73 0 120 -52.5t40 -127.5t-66.5 -129t-133.5 -54q-76 0 -124.5 53.5t-40.5 129.5q8 75 68 127.5t137 52.5zM679 1057q209 0 331.5 -103
t122.5 -306q0 -66 -12 -126l-13 -64h-765q-2 -34 -2 -50q0 -93 54.5 -140t145.5 -47q80 0 146 37t108 104l276 -59q-77 -156 -218 -239.5t-314 -83.5q-232 0 -362.5 114t-130.5 320q0 126 42 240.5t120 205t200 144t271 53.5zM676 845q-199 0 -285 -184h458q1 9 1 25
q0 78 -48 118.5t-126 40.5z" />
    <glyph glyph-name="igrave" unicode="&#xec;" horiz-adv-x="603" 
d="M319 1176l-178 270l176 112l199 -382h-197zM45 0l185 1044h328l-185 -1044h-328z" />
    <glyph glyph-name="iacute" unicode="&#xed;" horiz-adv-x="603" 
d="M320 1176l334 382l139 -112l-276 -270h-197zM45 0l185 1044h328l-185 -1044h-328z" />
    <glyph glyph-name="icircumflex" unicode="&#xee;" horiz-adv-x="603" 
d="M296 1221h-197l285 300h189l180 -300h-198l-97 186zM45 0l185 1044h328l-185 -1044h-328z" />
    <glyph glyph-name="idieresis" unicode="&#xef;" horiz-adv-x="603" 
d="M208 1178q-76 0 -124.5 53.5t-40.5 129.5q8 75 68 127.5t137 52.5q73 0 120 -52.5t40 -127.5t-66.5 -129t-133.5 -54zM658 1178q-76 0 -124.5 53.5t-40.5 129.5q8 75 68 127.5t137 52.5q73 0 120 -52.5t40 -127.5t-66.5 -129t-133.5 -54zM45 0l185 1044h328l-185 -1044
h-328z" />
    <glyph glyph-name="eth" unicode="&#xf0;" horiz-adv-x="1205" 
d="M1073 877q74 -151 74 -323q0 -118 -40.5 -222t-115.5 -182.5t-190 -124t-255 -45.5q-238 0 -368.5 124.5t-130.5 333.5q0 126 47 241.5t124 196t176.5 128.5t202.5 48q27 0 53 -3l-98 176l-242 -59l-10 90l208 51l-127 229h358l78 -154l209 51l8 -90l-175 -43zM570 269
q73 0 129 30.5t86 79t44.5 98.5t14.5 98q0 91 -50.5 148.5t-139.5 57.5q-61 0 -111 -22t-81 -56t-52 -77t-29.5 -83t-8.5 -77q0 -88 54.5 -142.5t143.5 -54.5z" />
    <glyph glyph-name="ntilde" unicode="&#xf1;" horiz-adv-x="1230" 
d="M653 1300q-62 0 -85 -127h-150q21 121 90 197.5t165 76.5q59 0 100 -29t62 -76q13 -34 46 -34q59 0 82 126h152q-21 -120 -89.5 -196.5t-167.5 -76.5q-115 0 -160 104q-17 35 -45 35zM853 1055q141 0 219.5 -73.5t78.5 -205.5q0 -26 -8 -90l-123 -686h-307l117 658
q5 27 5 43q0 110 -133 110q-76 0 -146 -52.5t-100 -160.5l-106 -598h-305l183 1037h306l-25 -139q144 157 344 157z" />
    <glyph glyph-name="ograve" unicode="&#xf2;" horiz-adv-x="1257" 
d="M641 1167l-178 270l176 112l199 -382h-197zM551 -20q-230 0 -367.5 118t-137.5 326q0 127 44.5 240.5t126.5 201t207.5 138.5t277.5 51q233 0 370 -117.5t137 -324.5q0 -127 -45 -241.5t-127.5 -201.5t-208.5 -138.5t-277 -51.5zM559 222q65 0 121.5 22.5t96.5 60
t69.5 86.5t43.5 101.5t14 105.5q0 99 -57.5 158.5t-158.5 59.5q-78 0 -144 -35t-107 -90.5t-63.5 -121t-22.5 -129.5q0 -102 55 -160t153 -58z" />
    <glyph glyph-name="oacute" unicode="&#xf3;" horiz-adv-x="1257" 
d="M642 1167l334 382l139 -112l-276 -270h-197zM551 -20q-230 0 -367.5 118t-137.5 326q0 127 44.5 240.5t126.5 201t207.5 138.5t277.5 51q233 0 370 -117.5t137 -324.5q0 -127 -45 -241.5t-127.5 -201.5t-208.5 -138.5t-277 -51.5zM559 222q65 0 121.5 22.5t96.5 60
t69.5 86.5t43.5 101.5t14 105.5q0 99 -57.5 158.5t-158.5 59.5q-78 0 -144 -35t-107 -90.5t-63.5 -121t-22.5 -129.5q0 -102 55 -160t153 -58z" />
    <glyph glyph-name="ocircumflex" unicode="&#xf4;" horiz-adv-x="1257" 
d="M618 1212h-197l285 300h189l180 -300h-198l-97 186zM551 -20q-230 0 -367.5 118t-137.5 326q0 127 44.5 240.5t126.5 201t207.5 138.5t277.5 51q233 0 370 -117.5t137 -324.5q0 -127 -45 -241.5t-127.5 -201.5t-208.5 -138.5t-277 -51.5zM559 222q65 0 121.5 22.5
t96.5 60t69.5 86.5t43.5 101.5t14 105.5q0 99 -57.5 158.5t-158.5 59.5q-78 0 -144 -35t-107 -90.5t-63.5 -121t-22.5 -129.5q0 -102 55 -160t153 -58z" />
    <glyph glyph-name="otilde" unicode="&#xf5;" horiz-adv-x="1257" 
d="M873 1159q-115 0 -160 104q-17 35 -45 35q-62 0 -85 -127h-150q21 121 90 197.5t165 76.5q59 0 100 -29t62 -76q13 -34 46 -34q59 0 82 126h152q-21 -120 -89.5 -196.5t-167.5 -76.5zM551 -20q-230 0 -367.5 118t-137.5 326q0 127 44.5 240.5t126.5 201t207.5 138.5
t277.5 51q233 0 370 -117.5t137 -324.5q0 -127 -45 -241.5t-127.5 -201.5t-208.5 -138.5t-277 -51.5zM559 222q65 0 121.5 22.5t96.5 60t69.5 86.5t43.5 101.5t14 105.5q0 99 -57.5 158.5t-158.5 59.5q-78 0 -144 -35t-107 -90.5t-63.5 -121t-22.5 -129.5q0 -102 55 -160
t153 -58z" />
    <glyph glyph-name="odieresis" unicode="&#xf6;" horiz-adv-x="1257" 
d="M530 1169q-76 0 -124.5 53.5t-40.5 129.5q8 75 68 127.5t137 52.5q73 0 120 -52.5t40 -127.5t-66.5 -129t-133.5 -54zM980 1169q-76 0 -124.5 53.5t-40.5 129.5q8 75 68 127.5t137 52.5q73 0 120 -52.5t40 -127.5t-66.5 -129t-133.5 -54zM551 -20q-230 0 -367.5 118
t-137.5 326q0 127 44.5 240.5t126.5 201t207.5 138.5t277.5 51q233 0 370 -117.5t137 -324.5q0 -127 -45 -241.5t-127.5 -201.5t-208.5 -138.5t-277 -51.5zM559 222q65 0 121.5 22.5t96.5 60t69.5 86.5t43.5 101.5t14 105.5q0 99 -57.5 158.5t-158.5 59.5q-78 0 -144 -35
t-107 -90.5t-63.5 -121t-22.5 -129.5q0 -102 55 -160t153 -58z" />
    <glyph glyph-name="divide" unicode="&#xf7;" horiz-adv-x="1116" 
d="M581 929q-65 0 -113 47t-48 114q0 64 48.5 113t112.5 49q65 0 113.5 -49t48.5 -113q0 -67 -48.5 -114t-113.5 -47zM129 584v245h923v-245h-923zM581 161q-65 0 -113 47t-48 115q0 64 48.5 112.5t112.5 48.5t113 -48.5t49 -112.5q0 -68 -48 -115t-114 -47z" />
    <glyph glyph-name="oslash" unicode="&#xf8;" horiz-adv-x="1257" 
d="M1028 970q181 -118 181 -357q0 -127 -45 -241.5t-127.5 -201.5t-208.5 -138.5t-277 -51.5q-105 0 -194 26l-72 -103l-125 74l63 91q-177 119 -177 356q0 127 44.5 240.5t126.5 201t207.5 138.5t277.5 51q107 0 191 -25l71 102l125 -74zM351 440q0 -81 36 -137l354 508
q-28 5 -53 5q-78 0 -144 -35t-107 -90.5t-63.5 -121t-22.5 -129.5zM559 222q65 0 121.5 22.5t96.5 60t69.5 86.5t43.5 101.5t14 105.5q0 82 -40 137l-354 -509q20 -4 49 -4z" />
    <glyph glyph-name="ugrave" unicode="&#xf9;" horiz-adv-x="1230" 
d="M831 1169h-197l-178 270l176 112zM878 1037h305l-184 -1037h-287l18 150q-68 -79 -158 -124.5t-193 -45.5q-145 0 -223.5 73.5t-78.5 206.5q0 46 8 89l123 688h305l-110 -627q-6 -32 -6 -55q0 -120 122 -120q97 0 166.5 57t87.5 159h2z" />
    <glyph glyph-name="uacute" unicode="&#xfa;" horiz-adv-x="1230" 
d="M1108 1439l-276 -270h-197l334 382zM878 1037h305l-184 -1037h-287l18 150q-68 -79 -158 -124.5t-193 -45.5q-145 0 -223.5 73.5t-78.5 206.5q0 46 8 89l123 688h305l-110 -627q-6 -32 -6 -55q0 -120 122 -120q97 0 166.5 57t87.5 159h2z" />
    <glyph glyph-name="ucircumflex" unicode="&#xfb;" horiz-adv-x="1230" 
d="M773 1400l-162 -186h-197l285 300h189l180 -300h-198zM878 1037h305l-184 -1037h-287l18 150q-68 -79 -158 -124.5t-193 -45.5q-145 0 -223.5 73.5t-78.5 206.5q0 46 8 89l123 688h305l-110 -627q-6 -32 -6 -55q0 -120 122 -120q97 0 166.5 57t87.5 159h2z" />
    <glyph glyph-name="udieresis" unicode="&#xfc;" horiz-adv-x="1230" 
d="M523 1171q-76 0 -124.5 53.5t-40.5 129.5q8 75 68 127.5t137 52.5q73 0 120 -52.5t40 -127.5t-66.5 -129t-133.5 -54zM973 1171q-76 0 -124.5 53.5t-40.5 129.5q8 75 68 127.5t137 52.5q73 0 120 -52.5t40 -127.5t-66.5 -129t-133.5 -54zM878 1037h305l-184 -1037h-287
l18 150q-68 -79 -158 -124.5t-193 -45.5q-145 0 -223.5 73.5t-78.5 206.5q0 46 8 89l123 688h305l-110 -627q-6 -32 -6 -55q0 -120 122 -120q97 0 166.5 57t87.5 159h2z" />
    <glyph glyph-name="yacute" unicode="&#xfd;" horiz-adv-x="1126" 
d="M1050 1439l-276 -270h-197l334 382zM907 1037h318l-913 -1524h-316l339 545l-252 979h327l122 -659z" />
    <glyph glyph-name="thorn" unicode="&#xfe;" horiz-adv-x="1329" 
d="M862 1064q186 0 303.5 -113t117.5 -311q0 -127 -45 -247t-123.5 -213t-194.5 -149t-250 -56q-98 0 -173 33t-109 94l-107 -604h-326l360 2038h326l-105 -598q55 61 141.5 93.5t184.5 32.5zM642 244q72 0 132 30t98.5 79t59.5 108.5t21 121.5q0 99 -58.5 155.5
t-154.5 56.5q-94 0 -167.5 -52t-109 -128t-35.5 -158q0 -99 58.5 -156t155.5 -57z" />
    <glyph glyph-name="ydieresis" unicode="&#xff;" horiz-adv-x="1126" 
d="M465 1171q-76 0 -124.5 53.5t-40.5 129.5q8 75 68 127.5t137 52.5q73 0 120 -52.5t40 -127.5t-66.5 -129t-133.5 -54zM915 1171q-76 0 -124.5 53.5t-40.5 129.5q8 75 68 127.5t137 52.5q73 0 120 -52.5t40 -127.5t-66.5 -129t-133.5 -54zM907 1037h318l-913 -1524h-316
l339 545l-252 979h327l122 -659z" />
    <glyph glyph-name="Amacron" unicode="&#x100;" horiz-adv-x="1495" 
d="M1304 1771l-33 -189h-670l33 189h670zM1063 0l-51 292h-603l-154 -292h-331l789 1451h392l280 -1451h-322zM550 559h416l-104 593z" />
    <glyph glyph-name="amacron" unicode="&#x101;" horiz-adv-x="1310" 
d="M1146 1393l-34 -189h-670l34 189h670zM957 1037h307l-184 -1037h-274l5 125q-51 -73 -139.5 -111.5t-192.5 -38.5q-191 0 -312 118.5t-121 326.5q0 119 42.5 233t116.5 203.5t185 144t238 54.5q110 0 191.5 -40t115.5 -110zM569 230q73 0 136.5 32t104.5 82.5t64.5 111
t23.5 120.5q0 98 -57 162t-163 64q-95 0 -170.5 -52.5t-113.5 -131.5t-38 -167q0 -104 57.5 -162.5t155.5 -58.5z" />
    <glyph glyph-name="Abreve" unicode="&#x102;" horiz-adv-x="1495" 
d="M935 1582q-86 0 -149.5 16t-108 50.5t-60 94t-0.5 142.5h185q-14 -78 28 -116t132 -38q189 0 216 154h186q-30 -162 -140 -232.5t-289 -70.5zM1063 0l-51 292h-603l-154 -292h-331l789 1451h392l280 -1451h-322zM550 559h416l-104 593z" />
    <glyph glyph-name="abreve" unicode="&#x103;" horiz-adv-x="1310" 
d="M769 1159q-171 0 -255.5 92t-53.5 270h186q-17 -95 23 -153.5t126 -58.5q87 0 148.5 58.5t78.5 153.5h185q-31 -178 -148 -270t-290 -92zM957 1037h307l-184 -1037h-274l5 125q-51 -73 -139.5 -111.5t-192.5 -38.5q-191 0 -312 118.5t-121 326.5q0 119 42.5 233
t116.5 203.5t185 144t238 54.5q110 0 191.5 -40t115.5 -110zM569 230q73 0 136.5 32t104.5 82.5t64.5 111t23.5 120.5q0 98 -57 162t-163 64q-95 0 -170.5 -52.5t-113.5 -131.5t-38 -167q0 -104 57.5 -162.5t155.5 -58.5z" />
    <glyph glyph-name="Aogonek" unicode="&#x104;" horiz-adv-x="1495" 
d="M1175 -218q-4 -17 9 -25t39 -8q30 0 66.5 12t59.5 32l-36 -201q-73 -30 -160 -30q-86 0 -137 29.5t-42 84.5q19 117 282 324h-193l-51 292h-603l-154 -292h-331l789 1451h392l280 -1451q-78 -57 -141 -119.5t-69 -98.5zM550 559h416l-104 593z" />
    <glyph glyph-name="aogonek" unicode="&#x105;" horiz-adv-x="1310" 
d="M1080 0q-78 -57 -141 -119.5t-69 -98.5q-4 -17 9 -25t39 -8q30 0 66.5 12t59.5 32l-36 -201q-73 -30 -160 -30q-86 0 -137 29.5t-42 84.5q19 117 282 324h-145l5 125q-51 -73 -139.5 -111.5t-192.5 -38.5q-191 0 -312 118.5t-121 326.5q0 119 42.5 233t116.5 203.5
t185 144t238 54.5q110 0 191.5 -40t115.5 -110l22 132h307zM569 230q73 0 136.5 32t104.5 82.5t64.5 111t23.5 120.5q0 98 -57 162t-163 64q-95 0 -170.5 -52.5t-113.5 -131.5t-38 -167q0 -104 57.5 -162.5t155.5 -58.5z" />
    <glyph glyph-name="Cacute" unicode="&#x106;" horiz-adv-x="1563" 
d="M911 1582l334 381l137 -112l-273 -269h-198zM744 -20q-293 0 -468.5 164.5t-175.5 443.5q0 135 38 264t112.5 241t177.5 196.5t242.5 133t296.5 48.5q252 0 420 -124.5t210 -335.5l-310 -86q-22 122 -110.5 188t-222.5 66q-118 0 -221 -50t-171.5 -131t-107.5 -183
t-39 -208q0 -157 93.5 -245.5t248.5 -88.5q144 0 267 74.5t190 200.5l284 -128q-113 -208 -313.5 -324t-440.5 -116z" />
    <glyph glyph-name="cacute" unicode="&#x107;" horiz-adv-x="1171" 
d="M613 1169l334 382l139 -112l-276 -270h-197zM537 -20q-226 0 -359.5 122.5t-133.5 326.5q0 120 44.5 232.5t125 200t203.5 140.5t269 53q211 0 335 -105t127 -291l-282 -8q-11 165 -185 165q-101 0 -179.5 -62t-116.5 -150t-38 -180q0 -94 50.5 -147.5t139.5 -53.5
q97 0 171 48t111 137l278 -50q-67 -182 -217.5 -280t-342.5 -98z" />
    <glyph glyph-name="Cdotaccent" unicode="&#x10a;" horiz-adv-x="1563" 
d="M1010 1582q-76 0 -120.5 53t-31.5 129q13 75 76.5 127.5t139.5 52.5q74 0 117.5 -52.5t30.5 -127.5q-12 -75 -75 -128.5t-137 -53.5zM744 -20q-293 0 -468.5 164.5t-175.5 443.5q0 135 38 264t112.5 241t177.5 196.5t242.5 133t296.5 48.5q252 0 420 -124.5t210 -335.5
l-310 -86q-22 122 -110.5 188t-222.5 66q-118 0 -221 -50t-171.5 -131t-107.5 -183t-39 -208q0 -157 93.5 -245.5t248.5 -88.5q144 0 267 74.5t190 200.5l284 -128q-113 -208 -313.5 -324t-440.5 -116z" />
    <glyph glyph-name="cdotaccent" unicode="&#x10b;" horiz-adv-x="1171" 
d="M725 1171q-76 0 -124 53.5t-41 129.5q8 75 68 127.5t136 52.5q74 0 121.5 -52.5t38.5 -127.5q-7 -75 -66.5 -129t-132.5 -54zM537 -20q-226 0 -359.5 122.5t-133.5 326.5q0 120 44.5 232.5t125 200t203.5 140.5t269 53q211 0 335 -105t127 -291l-282 -8q-11 165 -185 165
q-101 0 -179.5 -62t-116.5 -150t-38 -180q0 -94 50.5 -147.5t139.5 -53.5q97 0 171 48t111 137l278 -50q-67 -182 -217.5 -280t-342.5 -98z" />
    <glyph glyph-name="Ccaron" unicode="&#x10c;" horiz-adv-x="1563" 
d="M913 1582l-179 300h197l97 -187l162 187h198l-286 -300h-189zM744 -20q-293 0 -468.5 164.5t-175.5 443.5q0 135 38 264t112.5 241t177.5 196.5t242.5 133t296.5 48.5q252 0 420 -124.5t210 -335.5l-310 -86q-22 122 -110.5 188t-222.5 66q-118 0 -221 -50t-171.5 -131
t-107.5 -183t-39 -208q0 -157 93.5 -245.5t248.5 -88.5q144 0 267 74.5t190 200.5l284 -128q-113 -208 -313.5 -324t-440.5 -116z" />
    <glyph glyph-name="ccaron" unicode="&#x10d;" horiz-adv-x="1171" 
d="M624 1214l-179 300h197l97 -186l162 186h198l-285 -300h-190zM537 -20q-226 0 -359.5 122.5t-133.5 326.5q0 120 44.5 232.5t125 200t203.5 140.5t269 53q211 0 335 -105t127 -291l-282 -8q-11 165 -185 165q-101 0 -179.5 -62t-116.5 -150t-38 -180q0 -94 50.5 -147.5
t139.5 -53.5q97 0 171 48t111 137l278 -50q-67 -182 -217.5 -280t-342.5 -98z" />
    <glyph glyph-name="Dcaron" unicode="&#x10e;" horiz-adv-x="1482" 
d="M723 1582l-179 300h197l97 -187l162 187h198l-286 -300h-189zM79 0l256 1451h525q290 0 440.5 -148.5t150.5 -409.5q0 -92 -14 -181.5t-45 -178.5t-76.5 -167t-113.5 -146t-150.5 -116.5t-192 -76t-235.5 -27.5h-545zM449 282h189q103 0 186.5 37.5t137 98t90 140.5
t52 162t15.5 166q0 285 -304 285h-210z" />
    <glyph glyph-name="dcaron" unicode="&#x10f;" horiz-adv-x="1588" 
d="M943 919l106 617h326l-272 -1536h-307l10 103q-52 -63 -135.5 -95.5t-181.5 -32.5q-193 0 -316.5 119t-123.5 325q0 124 43 240t118.5 206t187.5 144.5t241 54.5q106 0 187.5 -38.5t116.5 -106.5zM1522 1536h334l-229 -665h-232zM569 244q75 0 140 33t107 85t66 114.5
t24 123.5q0 91 -54 143t-143 52q-97 0 -175.5 -53.5t-119 -134.5t-40.5 -168q0 -92 53 -143.5t142 -51.5z" />
    <glyph glyph-name="Dcroat" unicode="&#x110;" horiz-adv-x="1482" 
d="M860 1451q290 0 440.5 -148.5t150.5 -409.5q0 -92 -14 -181.5t-45 -178.5t-76.5 -167t-113.5 -146t-150.5 -116.5t-192 -76t-235.5 -27.5h-545l111 628h-158l33 196h159l111 627h525zM638 282q103 0 186.5 37.5t137 98t90 140.5t52 162t15.5 166q0 285 -304 285h-210
l-61 -347h239l-34 -196h-239l-61 -346h189z" />
    <glyph glyph-name="dcroat" unicode="&#x111;" horiz-adv-x="1308" 
d="M1466 1379l-34 -196h-143l-209 -1183h-289l11 112q-52 -67 -138 -102t-185 -35q-191 0 -312 118t-121 322q0 123 42.5 238t117 204.5t185.5 143.5t239 54q109 0 190.5 -40.5t115.5 -112.5l48 281h-269l33 196h270l27 157h307l-28 -157h142zM576 230q142 0 230 105.5
t88 236.5q0 108 -60.5 169t-159.5 61q-140 0 -229 -104t-89 -238q0 -109 60.5 -169.5t159.5 -60.5z" />
    <glyph glyph-name="Emacron" unicode="&#x112;" horiz-adv-x="1139" 
d="M1162 1771l-33 -189h-670l33 189h670zM1137 1171h-529l-54 -307h471l-48 -277h-472l-54 -305h529l-49 -282h-852l256 1451h852z" />
    <glyph glyph-name="emacron" unicode="&#x113;" horiz-adv-x="1178" 
d="M1102 1388l-34 -189h-670l34 189h670zM679 1057q209 0 331.5 -103t122.5 -306q0 -66 -12 -126l-13 -64h-765q-2 -34 -2 -50q0 -93 54.5 -140t145.5 -47q80 0 146 37t108 104l276 -59q-77 -156 -218 -239.5t-314 -83.5q-232 0 -362.5 114t-130.5 320q0 126 42 240.5
t120 205t200 144t271 53.5zM676 845q-199 0 -285 -184h458q1 9 1 25q0 78 -48 118.5t-126 40.5z" />
    <glyph glyph-name="Edotaccent" unicode="&#x116;" horiz-adv-x="1139" 
d="M795 1582q-76 0 -120.5 53t-31.5 129q13 75 76.5 127.5t139.5 52.5q74 0 117.5 -52.5t30.5 -127.5q-12 -75 -75 -128.5t-137 -53.5zM1137 1171h-529l-54 -307h471l-48 -277h-472l-54 -305h529l-49 -282h-852l256 1451h852z" />
    <glyph glyph-name="edotaccent" unicode="&#x117;" horiz-adv-x="1178" 
d="M742 1173q-76 0 -124 53.5t-41 129.5q8 75 68 127.5t136 52.5q74 0 121.5 -52.5t38.5 -127.5q-7 -75 -66.5 -129t-132.5 -54zM679 1057q209 0 331.5 -103t122.5 -306q0 -66 -12 -126l-13 -64h-765q-2 -34 -2 -50q0 -93 54.5 -140t145.5 -47q80 0 146 37t108 104l276 -59
q-77 -156 -218 -239.5t-314 -83.5q-232 0 -362.5 114t-130.5 320q0 126 42 240.5t120 205t200 144t271 53.5zM676 845q-199 0 -285 -184h458q1 9 1 25q0 78 -48 118.5t-126 40.5z" />
    <glyph glyph-name="Eogonek" unicode="&#x118;" horiz-adv-x="1139" 
d="M1137 1171h-529l-54 -307h471l-48 -277h-472l-54 -305h529l-49 -282q-78 -57 -141 -119.5t-69 -98.5q-4 -17 9 -25t39 -8q30 0 66.5 12t59.5 32l-36 -201q-73 -30 -160 -30q-86 0 -137 29.5t-42 84.5q19 117 282 324h-723l256 1451h852z" />
    <glyph glyph-name="eogonek" unicode="&#x119;" horiz-adv-x="1178" 
d="M679 1057q209 0 331.5 -103t122.5 -306q0 -66 -12 -126l-13 -64h-765q-2 -34 -2 -50q0 -93 54.5 -140t145.5 -47q80 0 146 37t108 104l276 -59q-78 -160 -225 -244q-95 -86 -102 -129q-4 -17 9 -25t39 -8q30 0 66.5 12t59.5 32l-36 -201q-73 -30 -160 -30
q-86 0 -137 29.5t-42 84.5q12 68 104 165q-53 -9 -108 -9q-232 0 -362.5 114t-130.5 320q0 126 42 240.5t120 205t200 144t271 53.5zM676 845q-199 0 -285 -184h458q1 9 1 25q0 78 -48 118.5t-126 40.5z" />
    <glyph glyph-name="Ecaron" unicode="&#x11a;" horiz-adv-x="1139" 
d="M887 1582h-189l-179 300h197l97 -187l162 187h198zM1137 1171h-529l-54 -307h471l-48 -277h-472l-54 -305h529l-49 -282h-852l256 1451h852z" />
    <glyph glyph-name="ecaron" unicode="&#x11b;" horiz-adv-x="1178" 
d="M831 1216h-190l-179 300h197l97 -186l162 186h198zM679 1057q209 0 331.5 -103t122.5 -306q0 -66 -12 -126l-13 -64h-765q-2 -34 -2 -50q0 -93 54.5 -140t145.5 -47q80 0 146 37t108 104l276 -59q-77 -156 -218 -239.5t-314 -83.5q-232 0 -362.5 114t-130.5 320
q0 126 42 240.5t120 205t200 144t271 53.5zM676 845q-199 0 -285 -184h458q1 9 1 25q0 78 -48 118.5t-126 40.5z" />
    <glyph glyph-name="Gbreve" unicode="&#x11e;" horiz-adv-x="1624" 
d="M999 1582q-86 0 -149.5 16t-108 50.5t-60 94t-0.5 142.5h185q-14 -78 28 -116t132 -38q189 0 216 154h186q-30 -162 -140 -232.5t-289 -70.5zM724 -20q-284 0 -455 163t-171 439q0 135 37.5 264.5t112 242t177 198t242.5 135t298 49.5q217 0 373 -93.5t225 -257.5
l-296 -131q-70 206 -311 206q-125 0 -230.5 -54.5t-172 -143t-103.5 -198t-37 -223.5q0 -154 88.5 -236.5t260.5 -82.5q157 0 276.5 74t175.5 219l-381 -10l46 255h684l-142 -795h-250l40 182q-180 -202 -487 -202z" />
    <glyph glyph-name="gbreve" unicode="&#x11f;" horiz-adv-x="1274" 
d="M738 1152q-171 0 -255.5 92t-53.5 270h186q-17 -95 23 -153.5t126 -58.5q87 0 148.5 58.5t78.5 153.5h185q-31 -178 -148 -270t-290 -92zM934 1037h293l-170 -966q-98 -559 -634 -559q-429 0 -497 333l263 85q27 -97 79 -138.5t145 -41.5q139 0 225 83.5t110 234.5l15 87
q-53 -54 -134.5 -86t-172.5 -32q-177 0 -292 115.5t-115 306.5q0 161 73 298t200 217.5t277 80.5q110 0 191 -44t114 -116zM555 285q125 0 219 95t94 225q0 92 -57.5 150.5t-150.5 58.5q-130 0 -222.5 -97.5t-92.5 -224.5q0 -92 58 -149.5t152 -57.5z" />
    <glyph glyph-name="Gdotaccent" unicode="&#x120;" horiz-adv-x="1624" 
d="M1001 1582q-76 0 -120.5 53t-31.5 129q13 75 76.5 127.5t139.5 52.5q74 0 117.5 -52.5t30.5 -127.5q-12 -75 -75 -128.5t-137 -53.5zM724 -20q-284 0 -455 163t-171 439q0 135 37.5 264.5t112 242t177 198t242.5 135t298 49.5q217 0 373 -93.5t225 -257.5l-296 -131
q-70 206 -311 206q-125 0 -230.5 -54.5t-172 -143t-103.5 -198t-37 -223.5q0 -154 88.5 -236.5t260.5 -82.5q157 0 276.5 74t175.5 219l-381 -10l46 255h684l-142 -795h-250l40 182q-180 -202 -487 -202z" />
    <glyph glyph-name="gdotaccent" unicode="&#x121;" horiz-adv-x="1274" 
d="M755 1171q-76 0 -124 53.5t-41 129.5q8 75 68 127.5t136 52.5q74 0 121.5 -52.5t38.5 -127.5q-7 -75 -66.5 -129t-132.5 -54zM934 1037h293l-170 -966q-98 -559 -634 -559q-429 0 -497 333l263 85q27 -97 79 -138.5t145 -41.5q139 0 225 83.5t110 234.5l15 87
q-53 -54 -134.5 -86t-172.5 -32q-177 0 -292 115.5t-115 306.5q0 161 73 298t200 217.5t277 80.5q110 0 191 -44t114 -116zM555 285q125 0 219 95t94 225q0 92 -57.5 150.5t-150.5 58.5q-130 0 -222.5 -97.5t-92.5 -224.5q0 -92 58 -149.5t152 -57.5z" />
    <glyph glyph-name="Gcommaaccent" unicode="&#x122;" horiz-adv-x="1624" 
d="M724 -20q-284 0 -455 163t-171 439q0 135 37.5 264.5t112 242t177 198t242.5 135t298 49.5q217 0 373 -93.5t225 -257.5l-296 -131q-70 206 -311 206q-125 0 -230.5 -54.5t-172 -143t-103.5 -198t-37 -223.5q0 -154 88.5 -236.5t260.5 -82.5q157 0 276.5 74t175.5 219
l-381 -10l46 255h684l-142 -795h-250l40 182q-180 -202 -487 -202zM463 -579l-145 74l237 376h282z" />
    <glyph glyph-name="gcommaaccent" unicode="&#x123;" horiz-adv-x="1274" 
d="M1200 1512l-304 -334h-338l404 334h238zM934 1037h293l-170 -966q-98 -559 -634 -559q-429 0 -497 333l263 85q27 -97 79 -138.5t145 -41.5q139 0 225 83.5t110 234.5l15 87q-53 -54 -134.5 -86t-172.5 -32q-177 0 -292 115.5t-115 306.5q0 161 73 298t200 217.5
t277 80.5q110 0 191 -44t114 -116zM555 285q125 0 219 95t94 225q0 92 -57.5 150.5t-150.5 58.5q-130 0 -222.5 -97.5t-92.5 -224.5q0 -92 58 -149.5t152 -57.5z" />
    <glyph glyph-name="Hbar" unicode="&#x126;" horiz-adv-x="1578" 
d="M1666 1209l-22 -127h-139l-192 -1082h-320l105 589h-594l-105 -589h-320l191 1082h-137l23 127h136l43 242h322l-43 -242h594l43 242h320l-43 -242h138zM1147 866l38 216h-594l-38 -216h594z" />
    <glyph glyph-name="hbar" unicode="&#x127;" horiz-adv-x="1229" 
d="M853 1055q140 0 219 -74t79 -205q0 -32 -9 -90l-123 -686h-305l116 658q4 32 4 45q0 108 -118 108q-51 0 -98.5 -17.5t-93 -66.5t-67.5 -123l-107 -604h-306l210 1183h-135l33 196h137l28 157h305l-28 -157h276l-34 -196h-277l-50 -284q143 156 344 156z" />
    <glyph glyph-name="Itilde" unicode="&#x128;" horiz-adv-x="664" 
d="M667 1579q-125 0 -183 119q-18 41 -52 41q-37 0 -62.5 -40t-37.5 -105h-167q24 136 102.5 222t186.5 86q128 0 182 -119q11 -20 22.5 -30t32.5 -10q70 0 98 144h168q-24 -135 -101 -221.5t-189 -86.5zM79 0l256 1451h320l-256 -1451h-320z" />
    <glyph glyph-name="itilde" unicode="&#x129;" horiz-adv-x="603" 
d="M551 1168q-115 0 -160 104q-17 35 -45 35q-62 0 -85 -127h-150q21 121 90 197.5t165 76.5q59 0 100 -29t62 -76q13 -34 46 -34q59 0 82 126h152q-21 -120 -89.5 -196.5t-167.5 -76.5zM45 0l185 1044h328l-185 -1044h-328z" />
    <glyph glyph-name="Imacron" unicode="&#x12a;" horiz-adv-x="664" 
d="M182 1582l33 189h670l-33 -189h-670zM79 0l256 1451h320l-256 -1451h-320z" />
    <glyph glyph-name="imacron" unicode="&#x12b;" horiz-adv-x="603" 
d="M88 1204l34 189h670l-34 -189h-670zM45 0l185 1044h328l-185 -1044h-328z" />
    <glyph glyph-name="Iogonek" unicode="&#x12e;" horiz-adv-x="664" 
d="M399 0q-78 -57 -141 -119.5t-69 -98.5q-4 -17 9 -25t39 -8q30 0 66.5 12t59.5 32l-36 -201q-73 -30 -160 -30q-86 0 -137 29.5t-42 84.5q19 117 282 324h-191l256 1451h320z" />
    <glyph glyph-name="iogonek" unicode="&#x12f;" horiz-adv-x="603" 
d="M471 1541q74 0 121.5 -52.5t38.5 -127.5q-7 -75 -66.5 -129t-132.5 -54q-76 0 -124 53.5t-41 129.5q8 75 68 127.5t136 52.5zM45 0l185 1044h328l-185 -1044q-78 -57 -141 -119.5t-69 -98.5q-4 -17 9 -25t39 -8q30 0 66.5 12t59.5 32l-36 -201q-73 -30 -160 -30
q-86 0 -137 29.5t-42 84.5q19 117 282 324h-199z" />
    <glyph glyph-name="Idotaccent" unicode="&#x130;" horiz-adv-x="664" 
d="M518 1582q-76 0 -120.5 53t-31.5 129q13 75 76.5 127.5t139.5 52.5q74 0 117.5 -52.5t30.5 -127.5q-12 -75 -75 -128.5t-137 -53.5zM79 0l256 1451h320l-256 -1451h-320z" />
    <glyph glyph-name="dotlessi" unicode="&#x131;" horiz-adv-x="603" 
d="M45 0l185 1044h328l-185 -1044h-328z" />
    <glyph glyph-name="Kcommaaccent" unicode="&#x136;" horiz-adv-x="1453" 
d="M897 752l-2 -17l428 -735h-376l-345 621h-93l-110 -621h-320l256 1451h320l-97 -551h108l532 551h398zM220 -505l237 376h282l-374 -450z" />
    <glyph glyph-name="kcommaaccent" unicode="&#x137;" horiz-adv-x="1185" 
d="M1259 1037l-500 -488l343 -549h-359l-258 437h-53l-77 -437h-311l273 1536h310l-157 -886h59l376 387h354zM100 -505l237 376h282l-374 -450z" />
    <glyph glyph-name="Lacute" unicode="&#x139;" horiz-adv-x="971" 
d="M892 1851l-273 -269h-198l334 381zM452 282h445l-49 -282h-769l256 1451h320z" />
    <glyph glyph-name="lacute" unicode="&#x13a;" horiz-adv-x="583" 
d="M396 1668l334 382l139 -112l-276 -270h-197zM44 0l273 1536h310l-272 -1536h-311z" />
    <glyph glyph-name="Lcommaaccent" unicode="&#x13b;" horiz-adv-x="971" 
d="M452 282h445l-49 -282h-769l256 1451h320zM65 -505l237 376h282l-374 -450z" />
    <glyph glyph-name="lcommaaccent" unicode="&#x13c;" horiz-adv-x="583" 
d="M44 0l273 1536h310l-272 -1536h-311zM-56 -579l-145 74l237 376h282z" />
    <glyph glyph-name="Lcaron" unicode="&#x13d;" horiz-adv-x="1148" 
d="M943 1458h338l-345 -664h-238zM655 1451l-203 -1169h445l-49 -282h-769l256 1451h320z" />
    <glyph glyph-name="lcaron" unicode="&#x13e;" horiz-adv-x="857" 
d="M44 0l273 1536h329l-272 -1536h-330zM666 871l127 665h334l-229 -665h-232z" />
    <glyph glyph-name="Lslash" unicode="&#x141;" horiz-adv-x="971" 
d="M452 282h445l-49 -282h-769l90 509l-199 -130l35 200l199 130l131 742h320l-87 -503l191 125l-36 -201l-190 -124z" />
    <glyph glyph-name="lslash" unicode="&#x142;" horiz-adv-x="583" 
d="M732 1138l-36 -201l-198 -130l-143 -807h-311l103 577l-204 -133l35 200l204 134l135 758h310l-94 -528z" />
    <glyph glyph-name="Nacute" unicode="&#x143;" horiz-adv-x="1657" 
d="M1389 1851l-273 -269h-198l334 381zM1329 1451h319l-256 -1451h-368l-445 1020l-181 -1020h-319l256 1451h366l449 -1015z" />
    <glyph glyph-name="nacute" unicode="&#x144;" horiz-adv-x="1230" 
d="M1100 1439l-276 -270h-197l334 382zM853 1055q141 0 219.5 -73.5t78.5 -205.5q0 -26 -8 -90l-123 -686h-307l117 658q5 27 5 43q0 110 -133 110q-76 0 -146 -52.5t-100 -160.5l-106 -598h-305l183 1037h306l-25 -139q144 157 344 157z" />
    <glyph glyph-name="Ncommaaccent" unicode="&#x145;" horiz-adv-x="1657" 
d="M1329 1451h319l-256 -1451h-368l-445 1020l-181 -1020h-319l256 1451h366l449 -1015zM336 -505l237 376h282l-374 -450z" />
    <glyph glyph-name="ncommaaccent" unicode="&#x146;" horiz-adv-x="1230" 
d="M853 1055q141 0 219.5 -73.5t78.5 -205.5q0 -26 -8 -90l-123 -686h-307l117 658q5 27 5 43q0 110 -133 110q-76 0 -146 -52.5t-100 -160.5l-106 -598h-305l183 1037h306l-25 -139q144 157 344 157zM118 -505l237 376h282l-374 -450z" />
    <glyph glyph-name="Ncaron" unicode="&#x147;" horiz-adv-x="1657" 
d="M1109 1582h-189l-179 300h197l97 -187l162 187h198zM1329 1451h319l-256 -1451h-368l-445 1020l-181 -1020h-319l256 1451h366l449 -1015z" />
    <glyph glyph-name="ncaron" unicode="&#x148;" horiz-adv-x="1230" 
d="M828 1214h-190l-179 300h197l97 -186l162 186h198zM853 1055q141 0 219.5 -73.5t78.5 -205.5q0 -26 -8 -90l-123 -686h-307l117 658q5 27 5 43q0 110 -133 110q-76 0 -146 -52.5t-100 -160.5l-106 -598h-305l183 1037h306l-25 -139q144 157 344 157z" />
    <glyph glyph-name="Eng" unicode="&#x14a;" horiz-adv-x="1691" 
d="M1684 1458l-215 -1221l1 1l-43 -238q-39 -221 -202 -346.5t-400 -125.5l42 251q85 0 136 59.5t24 161.5l-431 999l-177 -999h-340l258 1458h396l437 -992l174 992h340z" />
    <glyph glyph-name="eng" unicode="&#x14b;" horiz-adv-x="1256" 
d="M873 1064q174 0 251.5 -99.5t46.5 -275.5l-147 -832q-30 -164 -132 -256t-265 -92h-198l39 228h85q53 0 93.5 30t50.5 94l135 765q32 167 -111 167q-93 0 -161.5 -54.5t-85.5 -152.5h-1l-104 -586h-324l185 1044h325l-24 -136q146 156 342 156z" />
    <glyph glyph-name="Omacron" unicode="&#x14c;" horiz-adv-x="1638" 
d="M672 1582l33 189h670l-33 -189h-670zM744 -20q-293 0 -468.5 164.5t-175.5 443.5q0 135 38 264t112.5 241t177.5 196.5t242.5 133t296.5 48.5q291 0 467 -164t176 -442q0 -135 -38 -264.5t-113 -241.5t-178 -197t-241.5 -133.5t-295.5 -48.5zM757 273q120 0 223 50
t171 131.5t106.5 183.5t38.5 208q0 155 -93.5 244t-248.5 89q-119 0 -221.5 -50t-171 -131t-107.5 -183.5t-39 -208.5q0 -156 93.5 -244.5t248.5 -88.5z" />
    <glyph glyph-name="omacron" unicode="&#x14d;" horiz-adv-x="1257" 
d="M410 1195l34 189h670l-34 -189h-670zM551 -20q-230 0 -367.5 118t-137.5 326q0 127 44.5 240.5t126.5 201t207.5 138.5t277.5 51q233 0 370 -117.5t137 -324.5q0 -127 -45 -241.5t-127.5 -201.5t-208.5 -138.5t-277 -51.5zM559 222q65 0 121.5 22.5t96.5 60t69.5 86.5
t43.5 101.5t14 105.5q0 99 -57.5 158.5t-158.5 59.5q-78 0 -144 -35t-107 -90.5t-63.5 -121t-22.5 -129.5q0 -102 55 -160t153 -58z" />
    <glyph glyph-name="Ohungarumlaut" unicode="&#x150;" horiz-adv-x="1638" 
d="M715 1582l334 381l137 -112l-273 -269h-198zM1099 1582l334 381l137 -112l-274 -269h-197zM744 -20q-293 0 -468.5 164.5t-175.5 443.5q0 135 38 264t112.5 241t177.5 196.5t242.5 133t296.5 48.5q291 0 467 -164t176 -442q0 -135 -38 -264.5t-113 -241.5t-178 -197
t-241.5 -133.5t-295.5 -48.5zM757 273q120 0 223 50t171 131.5t106.5 183.5t38.5 208q0 155 -93.5 244t-248.5 89q-119 0 -221.5 -50t-171 -131t-107.5 -183.5t-39 -208.5q0 -156 93.5 -244.5t248.5 -88.5z" />
    <glyph glyph-name="ohungarumlaut" unicode="&#x151;" horiz-adv-x="1257" 
d="M449 1167l334 382l139 -112l-276 -270h-197zM832 1167l334 382l139 -112l-275 -270h-198zM551 -20q-230 0 -367.5 118t-137.5 326q0 127 44.5 240.5t126.5 201t207.5 138.5t277.5 51q233 0 370 -117.5t137 -324.5q0 -127 -45 -241.5t-127.5 -201.5t-208.5 -138.5
t-277 -51.5zM559 222q65 0 121.5 22.5t96.5 60t69.5 86.5t43.5 101.5t14 105.5q0 99 -57.5 158.5t-158.5 59.5q-78 0 -144 -35t-107 -90.5t-63.5 -121t-22.5 -129.5q0 -102 55 -160t153 -58z" />
    <glyph glyph-name="OE" unicode="&#x152;" horiz-adv-x="2008" 
d="M709 0q-614 0 -614 525q0 137 26.5 263t90.5 248.5t161 212.5t249 145t343 55h1090l-53 -299h-558l-48 -276h472l-53 -299h-472l-49 -275h558l-53 -300h-1090zM780 300h174l150 850h-175q-95 0 -171 -24t-127 -68t-87 -98.5t-55 -122t-27.5 -131.5t-8.5 -135
q0 -137 76 -204t251 -67z" />
    <glyph glyph-name="oe" unicode="&#x153;" horiz-adv-x="2034" 
d="M1535 1057q209 0 331.5 -103t122.5 -306q0 -66 -12 -126l-13 -64h-765q-2 -34 -2 -50q0 -93 54.5 -140t145.5 -47q80 0 146 37t108 104l276 -59q-77 -156 -218 -239.5t-314 -83.5q-271 0 -400 152q-178 -152 -444 -152q-230 0 -367.5 118t-137.5 326q0 127 44.5 240.5
t126.5 201t207.5 138.5t277.5 51q269 0 405 -152q172 154 428 154zM1532 845q-199 0 -285 -184h458q1 9 1 25q0 78 -48 118.5t-126 40.5zM559 222q65 0 121.5 22.5t96.5 60t69.5 86.5t43.5 101.5t14 105.5q0 99 -57.5 158.5t-158.5 59.5q-78 0 -144 -35t-107 -90.5
t-63.5 -121t-22.5 -129.5q0 -102 55 -160t153 -58z" />
    <glyph glyph-name="Racute" unicode="&#x154;" horiz-adv-x="1328" 
d="M1216 1851l-273 -269h-198l334 381zM1269 1092q0 -80 -22 -152t-65.5 -132.5t-115 -103t-164.5 -58.5l316 -646h-354l-285 637h-68l-112 -637h-320l256 1451h524q207 0 308.5 -97.5t101.5 -261.5zM607 1186l-62 -352h155q74 0 128.5 21.5t82.5 55t41 67.5t13 67
q0 69 -42.5 105t-141.5 36h-174z" />
    <glyph glyph-name="racute" unicode="&#x155;" horiz-adv-x="778" 
d="M853 1439l-276 -270h-197l334 382zM495 873q54 71 154 122.5t206 51.5l-54 -294q-314 0 -364 -288l-82 -465h-310l183 1037h295z" />
    <glyph glyph-name="Rcommaaccent" unicode="&#x156;" horiz-adv-x="1328" 
d="M1269 1092q0 -80 -22 -152t-65.5 -132.5t-115 -103t-164.5 -58.5l316 -646h-354l-285 637h-68l-112 -637h-320l256 1451h524q207 0 308.5 -97.5t101.5 -261.5zM607 1186l-62 -352h155q74 0 128.5 21.5t82.5 55t41 67.5t13 67q0 69 -42.5 105t-141.5 36h-174zM161 -505
l237 376h282l-374 -450z" />
    <glyph glyph-name="rcommaaccent" unicode="&#x157;" horiz-adv-x="778" 
d="M495 873q54 71 154 122.5t206 51.5l-54 -294q-314 0 -364 -288l-82 -465h-310l183 1037h295zM-203 -505l237 376h282l-374 -450z" />
    <glyph glyph-name="Rcaron" unicode="&#x158;" horiz-adv-x="1328" 
d="M936 1582h-189l-179 300h197l97 -187l162 187h198zM1269 1092q0 -80 -22 -152t-65.5 -132.5t-115 -103t-164.5 -58.5l316 -646h-354l-285 637h-68l-112 -637h-320l256 1451h524q207 0 308.5 -97.5t101.5 -261.5zM607 1186l-62 -352h155q74 0 128.5 21.5t82.5 55t41 67.5
t13 67q0 69 -42.5 105t-141.5 36h-174z" />
    <glyph glyph-name="rcaron" unicode="&#x159;" horiz-adv-x="778" 
d="M581 1214h-190l-179 300h197l97 -186l162 186h198zM495 873q54 71 154 122.5t206 51.5l-54 -294q-314 0 -364 -288l-82 -465h-310l183 1037h295z" />
    <glyph glyph-name="Sacute" unicode="&#x15a;" horiz-adv-x="1286" 
d="M737 1582l334 381l137 -112l-273 -269h-198zM606 -20q-163 0 -290.5 51t-202 151t-72.5 235l339 56q3 -111 66 -172.5t180 -61.5q104 0 171 54t67 130q0 35 -14 63.5t-38.5 49t-57.5 37t-72 30.5t-81 27q-3 1 -5 1.5t-4.5 1t-4.5 1.5q-48 16 -81 28t-77 32t-74 39.5
t-61.5 49t-50.5 63t-31 77.5t-12 96q0 201 158 326.5t396 125.5q82 0 157.5 -14t145.5 -44.5t122 -76t84 -112.5t35 -149l-314 -56q0 101 -59 147t-158 46q-104 0 -174.5 -47t-70.5 -118q0 -23 7.5 -43t17 -34.5t31.5 -29.5t37 -23.5t48.5 -20.5t51.5 -17.5t59 -18.5
q50 -15 86 -27.5t83 -33.5t80 -42t68 -52.5t56.5 -67t35 -83.5t13.5 -103q0 -144 -78 -252t-211 -163.5t-301 -55.5z" />
    <glyph glyph-name="sacute" unicode="&#x15b;" horiz-adv-x="982" 
d="M511 1169l334 382l139 -112l-276 -270h-197zM416 -20q-190 0 -296.5 78t-110.5 220l282 52q-2 -71 38.5 -109t107.5 -38q61 0 104.5 33.5t43.5 96.5q0 20 -4.5 35.5t-18.5 28t-25.5 20.5t-39 17.5t-45.5 14.5t-58 16q-51 14 -86 26.5t-74.5 35t-63.5 49t-40 68t-16 93.5
q0 109 60.5 187t157.5 114.5t218 36.5q108 0 193.5 -28.5t142 -94.5t59.5 -162l-252 -35q-1 64 -39.5 91t-97.5 27q-67 0 -110 -30.5t-43 -83.5q0 -16 4.5 -29t16 -22.5t21 -16.5t30.5 -14t33.5 -10.5t41 -10t42.5 -10.5q67 -17 114.5 -37t91 -53t66 -83t22.5 -116
q0 -172 -131.5 -264.5t-338.5 -92.5z" />
    <glyph glyph-name="Scedilla" unicode="&#x15e;" horiz-adv-x="1286" 
d="M774 860q50 -15 86 -27.5t83 -33.5t80 -42t68 -52.5t56.5 -67t35 -83.5t13.5 -103q0 -143 -76.5 -250t-207.5 -163t-296 -58l-75 -98q23 5 43 5q84 0 129 -54t30 -138q-17 -95 -93.5 -161t-171.5 -66q-89 0 -146 44.5t-67 113.5l149 47q6 -29 29 -45t52 -16q35 0 64.5 23
t35.5 60q8 39 -13.5 61t-57.5 22q-46 0 -78 -33l-103 65l131 179q-197 30 -316 142.5t-117 285.5l339 56q3 -111 66 -172.5t180 -61.5q104 0 171 54t67 130q0 35 -14 63.5t-38.5 49t-57.5 37t-72 30.5t-81 27q-3 1 -5 1.5t-4.5 1t-4.5 1.5q-48 16 -81 28t-77 32t-74 39.5
t-61.5 49t-50.5 63t-31 77.5t-12 96q0 201 158 326.5t396 125.5q82 0 157.5 -14t145.5 -44.5t122 -76t84 -112.5t35 -149l-314 -56q0 101 -59 147t-158 46q-104 0 -174.5 -47t-70.5 -118q0 -23 7.5 -43t17 -34.5t31.5 -29.5t37 -23.5t48.5 -20.5t51.5 -17.5t59 -18.5z" />
    <glyph glyph-name="scedilla" unicode="&#x15f;" horiz-adv-x="982" 
d="M592 626q67 -17 114.5 -37t91 -53t66 -83t22.5 -116q0 -162 -116.5 -253.5t-304.5 -102.5l-75 -97q23 5 43 5q84 0 129 -54t30 -138q-17 -95 -93.5 -161t-171.5 -66q-89 0 -146 44.5t-67 113.5l149 47q6 -29 29 -45t52 -16q35 0 64.5 23t35.5 60q8 39 -13.5 61t-57.5 22
q-47 0 -78 -33l-103 65l127 174q-146 19 -226.5 94t-83.5 198l282 52q-2 -71 38.5 -109t107.5 -38q61 0 104.5 33.5t43.5 96.5q0 20 -4.5 35.5t-18.5 28t-25.5 20.5t-39 17.5t-45.5 14.5t-58 16q-51 14 -86 26.5t-74.5 35t-63.5 49t-40 68t-16 93.5q0 109 60.5 187
t157.5 114.5t218 36.5q108 0 193.5 -28.5t142 -94.5t59.5 -162l-252 -35q-1 64 -39.5 91t-97.5 27q-67 0 -110 -30.5t-43 -83.5q0 -16 4.5 -29t16 -22.5t21 -16.5t30.5 -14t33.5 -10.5t41 -10t42.5 -10.5z" />
    <glyph glyph-name="Scaron" unicode="&#x160;" horiz-adv-x="1286" 
d="M739 1582l-179 300h197l97 -187l162 187h198l-286 -300h-189zM606 -20q-163 0 -290.5 51t-202 151t-72.5 235l339 56q3 -111 66 -172.5t180 -61.5q104 0 171 54t67 130q0 35 -14 63.5t-38.5 49t-57.5 37t-72 30.5t-81 27q-3 1 -5 1.5t-4.5 1t-4.5 1.5q-48 16 -81 28
t-77 32t-74 39.5t-61.5 49t-50.5 63t-31 77.5t-12 96q0 201 158 326.5t396 125.5q82 0 157.5 -14t145.5 -44.5t122 -76t84 -112.5t35 -149l-314 -56q0 101 -59 147t-158 46q-104 0 -174.5 -47t-70.5 -118q0 -23 7.5 -43t17 -34.5t31.5 -29.5t37 -23.5t48.5 -20.5t51.5 -17.5
t59 -18.5q50 -15 86 -27.5t83 -33.5t80 -42t68 -52.5t56.5 -67t35 -83.5t13.5 -103q0 -144 -78 -252t-211 -163.5t-301 -55.5z" />
    <glyph glyph-name="scaron" unicode="&#x161;" horiz-adv-x="982" 
d="M522 1214l-179 300h197l97 -186l162 186h198l-285 -300h-190zM416 -20q-190 0 -296.5 78t-110.5 220l282 52q-2 -71 38.5 -109t107.5 -38q61 0 104.5 33.5t43.5 96.5q0 20 -4.5 35.5t-18.5 28t-25.5 20.5t-39 17.5t-45.5 14.5t-58 16q-51 14 -86 26.5t-74.5 35t-63.5 49
t-40 68t-16 93.5q0 109 60.5 187t157.5 114.5t218 36.5q108 0 193.5 -28.5t142 -94.5t59.5 -162l-252 -35q-1 64 -39.5 91t-97.5 27q-67 0 -110 -30.5t-43 -83.5q0 -16 4.5 -29t16 -22.5t21 -16.5t30.5 -14t33.5 -10.5t41 -10t42.5 -10.5q67 -17 114.5 -37t91 -53t66 -83
t22.5 -116q0 -172 -131.5 -264.5t-338.5 -92.5z" />
    <glyph glyph-name="uni0162" unicode="&#x162;" horiz-adv-x="1060" 
d="M597 0h-81l-91 -118q23 5 43 5q84 0 129 -54t30 -138q-17 -95 -93.5 -161t-171.5 -66q-89 0 -146 44.5t-67 113.5l149 47q6 -29 29 -45t52 -16q35 0 64.5 23t35.5 60q8 39 -13.5 61t-57.5 22q-46 0 -78 -33l-103 65l139 190h-85l206 1171h-342l49 280h1000l-49 -280h-342
z" />
    <glyph glyph-name="uni0163" unicode="&#x163;" horiz-adv-x="799" 
d="M569 802l-80 -449q-3 -17 -3 -43q0 -43 21.5 -61t67.5 -18h104l-42 -231h-68l-91 -118q23 5 43 5q84 0 129 -54t30 -138q-17 -95 -93.5 -161t-171.5 -66q-89 0 -146 44.5t-67 113.5l149 47q6 -29 29 -45t52 -16q35 0 64.5 23t35.5 60q8 39 -13.5 61t-57.5 22
q-47 0 -78 -33l-103 65l140 191q-121 7 -186.5 75.5t-65.5 184.5q0 30 10 78l82 463h-204l43 235h53q81 0 139 46.5t73 134.5l26 149h279l-58 -330h209l-40 -235h-211z" />
    <glyph glyph-name="Tcaron" unicode="&#x164;" horiz-adv-x="1060" 
d="M812 1582h-189l-179 300h197l97 -187l162 187h198zM1194 1451l-49 -280h-342l-206 -1171h-316l206 1171h-342l49 280h1000z" />
    <glyph glyph-name="tcaron" unicode="&#x165;" horiz-adv-x="822" 
d="M793 1199l127 664h334l-229 -664h-232zM461 0q-137 0 -212.5 71t-75.5 197q0 43 8 82l79 445h-202l44 249h51q84 0 143.5 47.5t76.5 138.5l24 146h296l-57 -332h207l-44 -249h-207l-78 -431q-4 -36 -4 -44q0 -41 21 -58t67 -17h104l-44 -245h-197z" />
    <glyph glyph-name="Tbar" unicode="&#x166;" horiz-adv-x="1060" 
d="M1145 1171h-342l-61 -347h201l-34 -196h-201l-111 -628h-316l111 628h-200l33 196h201l61 347h-342l49 280h1000z" />
    <glyph glyph-name="tbar" unicode="&#x167;" horiz-adv-x="799" 
d="M780 802h-211l-33 -185h151l-29 -196h-157l-12 -68q-3 -17 -3 -43q0 -43 21.5 -61t67.5 -18h104l-42 -231h-188q-134 0 -207.5 69t-73.5 192q0 30 10 78l15 82h-149l28 196h155l33 185h-204l43 235h53q81 0 139 46.5t73 134.5l26 149h279l-58 -330h209z" />
    <glyph glyph-name="Utilde" unicode="&#x168;" horiz-adv-x="1436" 
d="M1054 1579q-125 0 -183 119q-18 41 -52 41q-37 0 -62.5 -40t-37.5 -105h-167q24 136 102.5 222t186.5 86q128 0 182 -119q11 -20 22.5 -30t32.5 -10q70 0 98 144h168q-24 -135 -101 -221.5t-189 -86.5zM640 -20q-232 0 -371.5 107.5t-139.5 316.5q0 58 12 119l164 928
h319l-158 -906q-10 -57 -10 -93q0 -190 194 -190q123 0 212 75t118 229l156 885h320l-168 -950q-24 -136 -85 -238t-148.5 -163t-191 -90.5t-223.5 -29.5z" />
    <glyph glyph-name="utilde" unicode="&#x169;" horiz-adv-x="1230" 
d="M661 1300q-62 0 -85 -127h-150q21 121 90 197.5t165 76.5q59 0 100 -29t62 -76q13 -34 46 -34q59 0 82 126h152q-21 -120 -89.5 -196.5t-167.5 -76.5q-115 0 -160 104q-17 35 -45 35zM878 1037h305l-184 -1037h-287l18 150q-68 -79 -158 -124.5t-193 -45.5
q-145 0 -223.5 73.5t-78.5 206.5q0 46 8 89l123 688h305l-110 -627q-6 -32 -6 -55q0 -120 122 -120q97 0 166.5 57t87.5 159h2z" />
    <glyph glyph-name="Umacron" unicode="&#x16a;" horiz-adv-x="1436" 
d="M569 1582l33 189h670l-33 -189h-670zM640 -20q-232 0 -371.5 107.5t-139.5 316.5q0 58 12 119l164 928h319l-158 -906q-10 -57 -10 -93q0 -190 194 -190q123 0 212 75t118 229l156 885h320l-168 -950q-24 -136 -85 -238t-148.5 -163t-191 -90.5t-223.5 -29.5z" />
    <glyph glyph-name="umacron" unicode="&#x16b;" horiz-adv-x="1230" 
d="M1107 1386l-34 -189h-670l34 189h670zM878 1037h305l-184 -1037h-287l18 150q-68 -79 -158 -124.5t-193 -45.5q-145 0 -223.5 73.5t-78.5 206.5q0 46 8 89l123 688h305l-110 -627q-6 -32 -6 -55q0 -120 122 -120q97 0 166.5 57t87.5 159h2z" />
    <glyph glyph-name="Uring" unicode="&#x16e;" horiz-adv-x="1436" 
d="M916 1582q-96 0 -157 57.5t-65 149.5q-5 113 78 201t206 88q96 0 154.5 -57t62.5 -148q5 -114 -76.5 -202.5t-202.5 -88.5zM929 1715q63 0 99 40.5t36 93.5q0 43 -26.5 71.5t-73.5 28.5q-60 0 -96.5 -42.5t-36.5 -97.5q0 -44 25.5 -69t72.5 -25zM640 -20
q-232 0 -371.5 107.5t-139.5 316.5q0 58 12 119l164 928h319l-158 -906q-10 -57 -10 -93q0 -190 194 -190q123 0 212 75t118 229l156 885h320l-168 -950q-24 -136 -85 -238t-148.5 -163t-191 -90.5t-223.5 -29.5z" />
    <glyph glyph-name="uring" unicode="&#x16f;" horiz-adv-x="1230" 
d="M745 1142q-103 0 -169 73.5t-56 176.5q12 102 93.5 174.5t184.5 72.5q102 0 166.5 -73t52.5 -174q-10 -103 -90 -176.5t-182 -73.5zM657 1392q-4 -52 24.5 -84t77.5 -32t85.5 32t41.5 84q5 47 -25 82.5t-77 35.5q-48 0 -85 -35.5t-42 -82.5zM878 1037h305l-184 -1037
h-287l18 150q-68 -79 -158 -124.5t-193 -45.5q-145 0 -223.5 73.5t-78.5 206.5q0 46 8 89l123 688h305l-110 -627q-6 -32 -6 -55q0 -120 122 -120q97 0 166.5 57t87.5 159h2z" />
    <glyph glyph-name="Uhungarumlaut" unicode="&#x170;" horiz-adv-x="1436" 
d="M612 1582l334 381l137 -112l-273 -269h-198zM996 1582l334 381l137 -112l-274 -269h-197zM640 -20q-232 0 -371.5 107.5t-139.5 316.5q0 58 12 119l164 928h319l-158 -906q-10 -57 -10 -93q0 -190 194 -190q123 0 212 75t118 229l156 885h320l-168 -950
q-24 -136 -85 -238t-148.5 -163t-191 -90.5t-223.5 -29.5z" />
    <glyph glyph-name="uhungarumlaut" unicode="&#x171;" horiz-adv-x="1230" 
d="M915 1439l-276 -270h-197l334 382zM1023 1169h-198l334 382l139 -112zM775 451l103 586h305l-184 -1037h-287l18 150q-68 -79 -158 -124.5t-193 -45.5q-145 0 -223.5 73.5t-78.5 206.5q0 46 8 89l123 688h305l-110 -627q-6 -32 -6 -55q0 -120 122 -120q97 0 166.5 57
t87.5 159h2z" />
    <glyph glyph-name="Uogonek" unicode="&#x172;" horiz-adv-x="1436" 
d="M1136 1451h320l-168 -950q-33 -181 -126.5 -297.5t-233.5 -172.5q-153 -123 -162 -181q-4 -17 9 -25t39 -8q30 0 66.5 12t59.5 32l-36 -201q-73 -30 -160 -30q-86 0 -137 29.5t-42 84.5q15 92 184 242q-53 -6 -109 -6q-232 0 -371.5 107.5t-139.5 316.5q0 58 12 119
l164 928h319l-158 -906q-10 -57 -10 -93q0 -190 194 -190q123 0 212 75t118 229z" />
    <glyph glyph-name="uogonek" unicode="&#x173;" horiz-adv-x="1230" 
d="M999 0q-78 -57 -141 -119.5t-69 -98.5q-4 -17 9 -25t39 -8q30 0 66.5 12t59.5 32l-36 -201q-73 -30 -160 -30q-86 0 -137 29.5t-42 84.5q19 117 282 324h-158l18 150q-68 -79 -158 -124.5t-193 -45.5q-145 0 -223.5 73.5t-78.5 206.5q0 46 8 89l123 688h305l-110 -627
q-6 -32 -6 -55q0 -120 122 -120q97 0 166.5 57t87.5 159h2l103 586h305z" />
    <glyph glyph-name="Wcircumflex" unicode="&#x174;" horiz-adv-x="2181" 
d="M1145 1582h-197l285 300h189l179 -300h-197l-97 185zM314 0l-119 1451h324l80 -1083l512 1083h270l122 -1083l470 1083h339l-629 -1451h-415l-116 863l-423 -863h-415z" />
    <glyph glyph-name="wcircumflex" unicode="&#x175;" horiz-adv-x="1765" 
d="M1047 1400l-162 -186h-197l285 300h189l180 -300h-198zM1534 1037h322l-546 -1039h-286l-115 666l-353 -666h-289l-174 1039h311l92 -656l353 656h237l122 -654z" />
    <glyph glyph-name="Ycircumflex" unicode="&#x176;" horiz-adv-x="1286" 
d="M859 1767l-162 -185h-197l285 300h189l179 -300h-197zM1446 1451l-617 -765l-121 -686h-321l124 696l-344 755h338l201 -479l373 479h367z" />
    <glyph glyph-name="ycircumflex" unicode="&#x177;" horiz-adv-x="1126" 
d="M715 1400l-162 -186h-197l285 300h189l180 -300h-198zM907 1037h318l-913 -1524h-316l339 545l-252 979h327l122 -659z" />
    <glyph glyph-name="Ydieresis" unicode="&#x178;" horiz-adv-x="1286" 
d="M611 1582q-63 0 -100.5 45t-26.5 109q11 63 64.5 107.5t116.5 44.5t100.5 -44.5t26.5 -107.5q-11 -64 -64.5 -109t-116.5 -45zM1044 1582q-65 0 -102 45t-26 109q11 63 64 107.5t117 44.5q63 0 100 -44.5t26 -107.5q-11 -64 -63.5 -109t-115.5 -45zM1446 1451l-617 -765
l-121 -686h-321l124 696l-344 755h338l201 -479l373 479h367z" />
    <glyph glyph-name="Zacute" unicode="&#x179;" horiz-adv-x="1219" 
d="M1197 1851l-273 -269h-198l334 381zM1292 1451l-41 -251l-823 -918h668l-50 -282h-1055l42 251l825 920h-661l50 280h1045z" />
    <glyph glyph-name="zacute" unicode="&#x17a;" horiz-adv-x="946" 
d="M978 1439l-276 -270h-197l334 382zM999 1037l-574 -802h411l-40 -235h-862l572 801h-389l42 236h840z" />
    <glyph glyph-name="Zdotaccent" unicode="&#x17b;" horiz-adv-x="1219" 
d="M825 1582q-76 0 -120.5 53t-31.5 129q13 75 76.5 127.5t139.5 52.5q74 0 117.5 -52.5t30.5 -127.5q-12 -75 -75 -128.5t-137 -53.5zM1292 1451l-41 -251l-823 -918h668l-50 -282h-1055l42 251l825 920h-661l50 280h1045z" />
    <glyph glyph-name="zdotaccent" unicode="&#x17c;" horiz-adv-x="946" 
d="M617 1171q-76 0 -124 53.5t-41 129.5q8 75 68 127.5t136 52.5q74 0 121.5 -52.5t38.5 -127.5q-7 -75 -66.5 -129t-132.5 -54zM999 1037l-574 -802h411l-40 -235h-862l572 801h-389l42 236h840z" />
    <glyph glyph-name="Zcaron" unicode="&#x17d;" horiz-adv-x="1219" 
d="M917 1582h-189l-179 300h197l97 -187l162 187h198zM1292 1451l-41 -251l-823 -918h668l-50 -282h-1055l42 251l825 920h-661l50 280h1045z" />
    <glyph glyph-name="zcaron" unicode="&#x17e;" horiz-adv-x="946" 
d="M706 1214h-190l-179 300h197l97 -186l162 186h198zM999 1037l-574 -802h411l-40 -235h-862l572 801h-389l42 236h840z" />
    <glyph glyph-name="florin" unicode="&#x192;" horiz-adv-x="1058" 
d="M-53 -434l411 1229h-170l83 249h172l46 146q51 159 194 262.5t299 103.5q59 0 105 -14.5t63 -30.5l-46 -213q-25 25 -86 25q-85 0 -151.5 -55t-96.5 -144l-30 -80h274l-82 -249h-273l-414 -1229h-298z" />
    <glyph glyph-name="Ohorn" unicode="&#x1a0;" horiz-adv-x="1638" 
d="M1674 1560h151l-33 -186q-40 -230 -232 -230h-8q58 -122 58 -279q0 -135 -38 -264.5t-113 -241.5t-178 -197t-241.5 -133.5t-295.5 -48.5q-293 0 -468.5 164.5t-175.5 443.5q0 135 38 264t112.5 241t177.5 196.5t242.5 133t296.5 48.5q289 0 464 -161l4 6q48 -28 94 -28
q56 0 81.5 28t38.5 109zM757 273q120 0 223 50t171 131.5t106.5 183.5t38.5 208q0 155 -93.5 244t-248.5 89q-119 0 -221.5 -50t-171 -131t-107.5 -183.5t-39 -208.5q0 -156 93.5 -244.5t248.5 -88.5z" />
    <glyph glyph-name="ohorn" unicode="&#x1a1;" horiz-adv-x="1257" 
d="M1267 1213h151l-33 -186q-39 -218 -211 -229q35 -82 35 -185q0 -127 -45 -241.5t-127.5 -201.5t-208.5 -138.5t-277 -51.5q-230 0 -367.5 118t-137.5 326q0 127 44.5 240.5t126.5 201t207.5 138.5t277.5 51q205 0 337 -92q44 -22 83 -22q56 0 81.5 28t38.5 109zM559 222
q65 0 121.5 22.5t96.5 60t69.5 86.5t43.5 101.5t14 105.5q0 99 -57.5 158.5t-158.5 59.5q-78 0 -144 -35t-107 -90.5t-63.5 -121t-22.5 -129.5q0 -102 55 -160t153 -58z" />
    <glyph glyph-name="Uhorn" unicode="&#x1af;" horiz-adv-x="1436" 
d="M1639 1637h151l-33 -186q-40 -230 -232 -230q-49 0 -106 20l-131 -740q-24 -136 -85 -238t-148.5 -163t-191 -90.5t-223.5 -29.5q-232 0 -371.5 107.5t-139.5 316.5q0 58 12 119l164 928h319l-158 -906q-10 -57 -10 -93q0 -190 194 -190q123 0 212 75t118 229l156 885
h320l-14 -77q26 -9 52 -9q56 0 81.5 28t38.5 109z" />
    <glyph glyph-name="uhorn" unicode="&#x1b0;" horiz-adv-x="1230" 
d="M1371 1223h151l-33 -186q-40 -230 -232 -230q-53 0 -111 21l-147 -828h-287l18 150q-68 -79 -158 -124.5t-193 -45.5q-145 0 -223.5 73.5t-78.5 206.5q0 46 8 89l123 688h305l-110 -627q-6 -32 -6 -55q0 -120 122 -120q97 0 166.5 57t87.5 159h2l103 586h305l-13 -76
q30 -10 56 -10q56 0 81.5 28t38.5 109z" />
    <glyph glyph-name="uni01CD" unicode="&#x1cd;" horiz-adv-x="1495" 
d="M1029 1582h-189l-179 300h197l97 -187l162 187h198zM1063 0l-51 292h-603l-154 -292h-331l789 1451h392l280 -1451h-322zM550 559h416l-104 593z" />
    <glyph glyph-name="uni01CE" unicode="&#x1ce;" horiz-adv-x="1310" 
d="M875 1221h-190l-179 300h197l97 -186l162 186h198zM957 1037h307l-184 -1037h-274l5 125q-51 -73 -139.5 -111.5t-192.5 -38.5q-191 0 -312 118.5t-121 326.5q0 119 42.5 233t116.5 203.5t185 144t238 54.5q110 0 191.5 -40t115.5 -110zM569 230q73 0 136.5 32
t104.5 82.5t64.5 111t23.5 120.5q0 98 -57 162t-163 64q-95 0 -170.5 -52.5t-113.5 -131.5t-38 -167q0 -104 57.5 -162.5t155.5 -58.5z" />
    <glyph glyph-name="uni01CF" unicode="&#x1cf;" horiz-adv-x="664" 
d="M421 1582l-179 300h197l97 -187l162 187h198l-286 -300h-189zM79 0l256 1451h320l-256 -1451h-320z" />
    <glyph glyph-name="uni01D0" unicode="&#x1d0;" horiz-adv-x="603" 
d="M331 1221l-179 300h197l97 -186l162 186h198l-285 -300h-190zM45 0l185 1044h328l-185 -1044h-328z" />
    <glyph glyph-name="uni01D1" unicode="&#x1d1;" horiz-adv-x="1638" 
d="M911 1582l-179 300h197l97 -187l162 187h198l-286 -300h-189zM744 -20q-293 0 -468.5 164.5t-175.5 443.5q0 135 38 264t112.5 241t177.5 196.5t242.5 133t296.5 48.5q291 0 467 -164t176 -442q0 -135 -38 -264.5t-113 -241.5t-178 -197t-241.5 -133.5t-295.5 -48.5z
M757 273q120 0 223 50t171 131.5t106.5 183.5t38.5 208q0 155 -93.5 244t-248.5 89q-119 0 -221.5 -50t-171 -131t-107.5 -183.5t-39 -208.5q0 -156 93.5 -244.5t248.5 -88.5z" />
    <glyph glyph-name="uni01D2" unicode="&#x1d2;" horiz-adv-x="1257" 
d="M653 1212l-179 300h197l97 -186l162 186h198l-285 -300h-190zM551 -20q-230 0 -367.5 118t-137.5 326q0 127 44.5 240.5t126.5 201t207.5 138.5t277.5 51q233 0 370 -117.5t137 -324.5q0 -127 -45 -241.5t-127.5 -201.5t-208.5 -138.5t-277 -51.5zM559 222
q65 0 121.5 22.5t96.5 60t69.5 86.5t43.5 101.5t14 105.5q0 99 -57.5 158.5t-158.5 59.5q-78 0 -144 -35t-107 -90.5t-63.5 -121t-22.5 -129.5q0 -102 55 -160t153 -58z" />
    <glyph glyph-name="uni01D3" unicode="&#x1d3;" horiz-adv-x="1436" 
d="M808 1582l-179 300h197l97 -187l162 187h198l-286 -300h-189zM640 -20q-232 0 -371.5 107.5t-139.5 316.5q0 58 12 119l164 928h319l-158 -906q-10 -57 -10 -93q0 -190 194 -190q123 0 212 75t118 229l156 885h320l-168 -950q-24 -136 -85 -238t-148.5 -163t-191 -90.5
t-223.5 -29.5z" />
    <glyph glyph-name="uni01D4" unicode="&#x1d4;" horiz-adv-x="1230" 
d="M836 1214h-190l-179 300h197l97 -186l162 186h198zM878 1037h305l-184 -1037h-287l18 150q-68 -79 -158 -124.5t-193 -45.5q-145 0 -223.5 73.5t-78.5 206.5q0 46 8 89l123 688h305l-110 -627q-6 -32 -6 -55q0 -120 122 -120q97 0 166.5 57t87.5 159h2z" />
    <glyph glyph-name="uni01D5" unicode="&#x1d5;" horiz-adv-x="1436" 
d="M646 2019l33 189h670l-33 -189h-670zM688 1582q-63 0 -100.5 45t-26.5 109q11 63 64.5 107.5t116.5 44.5t100.5 -44.5t26.5 -107.5q-11 -64 -64.5 -109t-116.5 -45zM1121 1582q-65 0 -102 45t-26 109q11 63 64 107.5t117 44.5q63 0 100 -44.5t26 -107.5
q-11 -64 -63.5 -109t-115.5 -45zM640 -20q-232 0 -371.5 107.5t-139.5 316.5q0 58 12 119l164 928h319l-158 -906q-10 -57 -10 -93q0 -190 194 -190q123 0 212 75t118 229l156 885h320l-168 -950q-24 -136 -85 -238t-148.5 -163t-191 -90.5t-223.5 -29.5z" />
    <glyph glyph-name="uni01D6" unicode="&#x1d6;" horiz-adv-x="1230" 
d="M1192 1866l-34 -189h-670l34 189h670zM523 1171q-76 0 -124.5 53.5t-40.5 129.5q8 75 68 127.5t137 52.5q73 0 120 -52.5t40 -127.5t-66.5 -129t-133.5 -54zM1013 1534q73 0 120 -52.5t40 -127.5t-66.5 -129t-133.5 -54q-76 0 -124.5 53.5t-40.5 129.5q8 75 68 127.5
t137 52.5zM775 451l103 586h305l-184 -1037h-287l18 150q-68 -79 -158 -124.5t-193 -45.5q-145 0 -223.5 73.5t-78.5 206.5q0 46 8 89l123 688h305l-110 -627q-6 -32 -6 -55q0 -120 122 -120q97 0 166.5 57t87.5 159h2z" />
    <glyph glyph-name="uni01D7" unicode="&#x1d7;" horiz-adv-x="1436" 
d="M883 2019l334 381l137 -112l-273 -269h-198zM688 1582q-63 0 -100.5 45t-26.5 109q11 63 64.5 107.5t116.5 44.5t100.5 -44.5t26.5 -107.5q-11 -64 -64.5 -109t-116.5 -45zM1121 1582q-65 0 -102 45t-26 109q11 63 64 107.5t117 44.5q63 0 100 -44.5t26 -107.5
q-11 -64 -63.5 -109t-115.5 -45zM640 -20q-232 0 -371.5 107.5t-139.5 316.5q0 58 12 119l164 928h319l-158 -906q-10 -57 -10 -93q0 -190 194 -190q123 0 212 75t118 229l156 885h320l-168 -950q-24 -136 -85 -238t-148.5 -163t-191 -90.5t-223.5 -29.5z" />
    <glyph glyph-name="uni01D8" unicode="&#x1d8;" horiz-adv-x="1230" 
d="M1193 1919l-276 -270h-197l334 382zM523 1171q-76 0 -124.5 53.5t-40.5 129.5q8 75 68 127.5t137 52.5q73 0 120 -52.5t40 -127.5t-66.5 -129t-133.5 -54zM808 1354q8 75 68 127.5t137 52.5q73 0 120 -52.5t40 -127.5t-66.5 -129t-133.5 -54q-76 0 -124.5 53.5
t-40.5 129.5zM775 451l103 586h305l-184 -1037h-287l18 150q-68 -79 -158 -124.5t-193 -45.5q-145 0 -223.5 73.5t-78.5 206.5q0 46 8 89l123 688h305l-110 -627q-6 -32 -6 -55q0 -120 122 -120q97 0 166.5 57t87.5 159h2z" />
    <glyph glyph-name="uni01D9" unicode="&#x1d9;" horiz-adv-x="1436" 
d="M885 2019l-179 300h197l97 -187l162 187h198l-286 -300h-189zM688 1582q-63 0 -100.5 45t-26.5 109q11 63 64.5 107.5t116.5 44.5t100.5 -44.5t26.5 -107.5q-11 -64 -64.5 -109t-116.5 -45zM1121 1582q-65 0 -102 45t-26 109q11 63 64 107.5t117 44.5q63 0 100 -44.5
t26 -107.5q-11 -64 -63.5 -109t-115.5 -45zM640 -20q-232 0 -371.5 107.5t-139.5 316.5q0 58 12 119l164 928h319l-158 -906q-10 -57 -10 -93q0 -190 194 -190q123 0 212 75t118 229l156 885h320l-168 -950q-24 -136 -85 -238t-148.5 -163t-191 -90.5t-223.5 -29.5z" />
    <glyph glyph-name="uni01DA" unicode="&#x1da;" horiz-adv-x="1230" 
d="M921 1694h-190l-179 300h197l97 -186l162 186h198zM523 1171q-76 0 -124.5 53.5t-40.5 129.5q8 75 68 127.5t137 52.5q73 0 120 -52.5t40 -127.5t-66.5 -129t-133.5 -54zM808 1354q8 75 68 127.5t137 52.5q73 0 120 -52.5t40 -127.5t-66.5 -129t-133.5 -54
q-76 0 -124.5 53.5t-40.5 129.5zM775 451l103 586h305l-184 -1037h-287l18 150q-68 -79 -158 -124.5t-193 -45.5q-145 0 -223.5 73.5t-78.5 206.5q0 46 8 89l123 688h305l-110 -627q-6 -32 -6 -55q0 -120 122 -120q97 0 166.5 57t87.5 159h2z" />
    <glyph glyph-name="uni01DB" unicode="&#x1db;" horiz-adv-x="1436" 
d="M882 2019l-180 269l178 112l199 -381h-197zM688 1582q-63 0 -100.5 45t-26.5 109q11 63 64.5 107.5t116.5 44.5t100.5 -44.5t26.5 -107.5q-11 -64 -64.5 -109t-116.5 -45zM1121 1582q-65 0 -102 45t-26 109q11 63 64 107.5t117 44.5q63 0 100 -44.5t26 -107.5
q-11 -64 -63.5 -109t-115.5 -45zM640 -20q-232 0 -371.5 107.5t-139.5 316.5q0 58 12 119l164 928h319l-158 -906q-10 -57 -10 -93q0 -190 194 -190q123 0 212 75t118 229l156 885h320l-168 -950q-24 -136 -85 -238t-148.5 -163t-191 -90.5t-223.5 -29.5z" />
    <glyph glyph-name="uni01DC" unicode="&#x1dc;" horiz-adv-x="1230" 
d="M916 1649h-197l-178 270l176 112zM523 1171q-76 0 -124.5 53.5t-40.5 129.5q8 75 68 127.5t137 52.5q73 0 120 -52.5t40 -127.5t-66.5 -129t-133.5 -54zM808 1354q8 75 68 127.5t137 52.5q73 0 120 -52.5t40 -127.5t-66.5 -129t-133.5 -54q-76 0 -124.5 53.5t-40.5 129.5
zM878 1037h305l-184 -1037h-287l18 150q-68 -79 -158 -124.5t-193 -45.5q-145 0 -223.5 73.5t-78.5 206.5q0 46 8 89l123 688h305l-110 -627q-6 -32 -6 -55q0 -120 122 -120q97 0 166.5 57t87.5 159h2z" />
    <glyph glyph-name="Scommaaccent" unicode="&#x218;" horiz-adv-x="1286" 
d="M606 -20q-163 0 -290.5 51t-202 151t-72.5 235l339 56q3 -111 66 -172.5t180 -61.5q104 0 171 54t67 130q0 35 -14 63.5t-38.5 49t-57.5 37t-72 30.5t-81 27q-3 1 -5 1.5t-4.5 1t-4.5 1.5q-48 16 -81 28t-77 32t-74 39.5t-61.5 49t-50.5 63t-31 77.5t-12 96
q0 201 158 326.5t396 125.5q82 0 157.5 -14t145.5 -44.5t122 -76t84 -112.5t35 -149l-314 -56q0 101 -59 147t-158 46q-104 0 -174.5 -47t-70.5 -118q0 -23 7.5 -43t17 -34.5t31.5 -29.5t37 -23.5t48.5 -20.5t51.5 -17.5t59 -18.5q50 -15 86 -27.5t83 -33.5t80 -42t68 -52.5
t56.5 -67t35 -83.5t13.5 -103q0 -144 -78 -252t-211 -163.5t-301 -55.5zM300 -579l-145 74l237 376h282z" />
    <glyph glyph-name="scommaaccent" unicode="&#x219;" horiz-adv-x="982" 
d="M416 -20q-190 0 -296.5 78t-110.5 220l282 52q-2 -71 38.5 -109t107.5 -38q61 0 104.5 33.5t43.5 96.5q0 20 -4.5 35.5t-18.5 28t-25.5 20.5t-39 17.5t-45.5 14.5t-58 16q-51 14 -86 26.5t-74.5 35t-63.5 49t-40 68t-16 93.5q0 109 60.5 187t157.5 114.5t218 36.5
q108 0 193.5 -28.5t142 -94.5t59.5 -162l-252 -35q-1 64 -39.5 91t-97.5 27q-67 0 -110 -30.5t-43 -83.5q0 -16 4.5 -29t16 -22.5t21 -16.5t30.5 -14t33.5 -10.5t41 -10t42.5 -10.5q67 -17 114.5 -37t91 -53t66 -83t22.5 -116q0 -172 -131.5 -264.5t-338.5 -92.5zM149 -577
l-145 74l237 376h282z" />
    <glyph glyph-name="uni021A" unicode="&#x21a;" horiz-adv-x="1060" 
d="M1194 1451l-49 -280h-342l-206 -1171h-316l206 1171h-342l49 280h1000zM39 -505l237 376h282l-374 -450z" />
    <glyph glyph-name="uni021B" unicode="&#x21b;" horiz-adv-x="799" 
d="M449 0q-134 0 -207.5 69t-73.5 192q0 30 10 78l82 463h-204l43 235h53q81 0 139 46.5t73 134.5l26 149h279l-58 -330h209l-40 -235h-211l-80 -449q-3 -17 -3 -43q0 -43 21.5 -61t67.5 -18h104l-42 -231h-188zM237 -579l-145 74l237 376h282z" />
    <glyph glyph-name="uni0237" unicode="&#x237;" horiz-adv-x="607" 
d="M-233 -490l40 252q65 0 107.5 16t69.5 56t41.5 88t29.5 131l175 991h332l-179 -1013q-48 -272 -191 -396.5t-425 -124.5z" />
    <glyph glyph-name="circumflex" unicode="&#x2c6;" horiz-adv-x="711" 
d="M352 1236h-197l285 300h189l180 -300h-198l-97 186z" />
    <glyph glyph-name="caron" unicode="&#x2c7;" horiz-adv-x="716" 
d="M389 1236l-179 300h197l97 -186l162 186h198l-285 -300h-190z" />
    <glyph glyph-name="breve" unicode="&#x2d8;" horiz-adv-x="893" 
d="M560 1174q-171 0 -255.5 92t-53.5 270h186q-17 -95 23 -153.5t126 -58.5q87 0 148.5 58.5t78.5 153.5h185q-31 -178 -148 -270t-290 -92z" />
    <glyph glyph-name="dotaccent" unicode="&#x2d9;" horiz-adv-x="548" 
d="M404 1178q-76 0 -124 53.5t-41 129.5q8 75 68 127.5t136 52.5q74 0 121.5 -52.5t38.5 -127.5q-7 -75 -66.5 -129t-132.5 -54z" />
    <glyph glyph-name="ring" unicode="&#x2da;" horiz-adv-x="653" 
d="M452 1129q-103 0 -169 73.5t-56 176.5q12 102 93.5 174.5t184.5 72.5q102 0 166.5 -73t52.5 -174q-10 -103 -90 -176.5t-182 -73.5zM466 1263q49 0 85.5 32t41.5 84q5 47 -25 82.5t-77 35.5q-48 0 -85 -35.5t-42 -82.5q-4 -52 24.5 -84t77.5 -32z" />
    <glyph glyph-name="ogonek" unicode="&#x2db;" horiz-adv-x="517" 
d="M80 -438q-86 0 -137 29.5t-42 84.5q11 68 103.5 164t224.5 195l83 -35q-78 -57 -141 -119.5t-69 -98.5q-4 -17 9 -25t39 -8q30 0 66.5 12t59.5 32l-36 -201q-73 -30 -160 -30z" />
    <glyph glyph-name="tilde" unicode="&#x2dc;" horiz-adv-x="838" 
d="M651 1168q-115 0 -160 104q-17 35 -45 35q-62 0 -85 -127h-150q21 121 90 197.5t165 76.5q59 0 100 -29t62 -76q13 -34 46 -34q59 0 82 126h152q-21 -120 -89.5 -196.5t-167.5 -76.5z" />
    <glyph glyph-name="hungarumlaut" unicode="&#x2dd;" horiz-adv-x="865" 
d="M134 1191l334 382l139 -112l-276 -270h-197zM517 1191l334 382l139 -112l-275 -270h-198z" />
    <glyph glyph-name="gravecomb" unicode="&#x300;" 
d="M-99 1191l-178 270l176 112l199 -382h-197z" />
    <glyph glyph-name="acutecomb" unicode="&#x301;" 
d="M-344 1191l334 382l139 -112l-276 -270h-197z" />
    <glyph glyph-name="uni0302" unicode="&#x302;" 
d="M-359 1236h-197l285 300h189l180 -300h-198l-97 186z" />
    <glyph glyph-name="tildecomb" unicode="&#x303;" 
d="M-187 1168q-115 0 -160 104q-17 35 -45 35q-62 0 -85 -127h-150q21 121 90 197.5t165 76.5q59 0 100 -29t62 -76q13 -34 46 -34q59 0 82 126h152q-21 -120 -89.5 -196.5t-167.5 -76.5z" />
    <glyph glyph-name="uni0304" unicode="&#x304;" 
d="M-680 1219l34 189h670l-34 -189h-670z" />
    <glyph glyph-name="uni0306" unicode="&#x306;" 
d="M-333 1174q-171 0 -255.5 92t-53.5 270h186q-17 -95 23 -153.5t126 -58.5q87 0 148.5 58.5t78.5 153.5h185q-31 -178 -148 -270t-290 -92z" />
    <glyph glyph-name="uni0307" unicode="&#x307;" 
d="M-144 1178q-76 0 -124 53.5t-41 129.5q8 75 68 127.5t136 52.5q74 0 121.5 -52.5t38.5 -127.5q-7 -75 -66.5 -129t-132.5 -54z" />
    <glyph glyph-name="uni0308" unicode="&#x308;" 
d="M-594 1178q-76 0 -124.5 53.5t-40.5 129.5q8 75 68 127.5t137 52.5q73 0 120 -52.5t40 -127.5t-66.5 -129t-133.5 -54zM-144 1178q-76 0 -124.5 53.5t-40.5 129.5q8 75 68 127.5t137 52.5q73 0 120 -52.5t40 -127.5t-66.5 -129t-133.5 -54z" />
    <glyph glyph-name="hookabovecomb" unicode="&#x309;" 
d="M-239 1135l24 141q112 17 126 92q6 28 -7 45.5t-45 17.5q-48 0 -93 -41l-54 106q80 60 188 60q96 0 140.5 -48t29.5 -129q-12 -69 -52.5 -104.5t-101.5 -53.5l-14 -86h-141z" />
    <glyph glyph-name="uni030A" unicode="&#x30a;" 
d="M-200 1129q-103 0 -169 73.5t-56 176.5q12 102 93.5 174.5t184.5 72.5q102 0 166.5 -73t52.5 -174q-10 -103 -90 -176.5t-182 -73.5zM-186 1263q49 0 85.5 32t41.5 84q5 47 -25 82.5t-77 35.5q-48 0 -85 -35.5t-42 -82.5q-4 -52 24.5 -84t77.5 -32z" />
    <glyph glyph-name="uni030B" unicode="&#x30b;" 
d="M-728 1191l334 382l139 -112l-276 -270h-197zM-345 1191l334 382l139 -112l-275 -270h-198z" />
    <glyph glyph-name="uni030C" unicode="&#x30c;" 
d="M-327 1236l-179 300h197l97 -186l162 186h198l-285 -300h-190z" />
    <glyph glyph-name="uni0312" unicode="&#x312;" 
d="M152 1534l-304 -334h-338l404 334h238z" />
    <glyph glyph-name="uni031B" unicode="&#x31b;" 
d="M-267 743q-103 0 -194 65l69 107q48 -28 94 -28q56 0 81.5 28t38.5 109l25 135h151l-33 -186q-40 -230 -232 -230z" />
    <glyph glyph-name="dotbelowcomb" unicode="&#x323;" 
d="M-455 -512q-76 0 -120.5 53t-31.5 129q14 75 77 128t139 53q73 0 117.5 -53.5t30.5 -127.5q-13 -75 -75.5 -128.5t-136.5 -53.5z" />
    <glyph glyph-name="uni0326" unicode="&#x326;" 
d="M-504 -579l-145 74l237 376h282z" />
    <glyph glyph-name="uni0327" unicode="&#x327;" 
d="M-472 -532q-89 0 -146 44.5t-67 113.5l149 47q6 -29 29 -45t52 -16q35 0 64.5 23t35.5 60q8 39 -13.5 61t-57.5 22q-46 0 -78 -33l-103 65l164 224h151l-117 -152q23 5 43 5q84 0 129 -54t30 -138q-17 -95 -93.5 -161t-171.5 -66z" />
    <glyph glyph-name="uni0328" unicode="&#x328;" 
d="M-434 -438q-86 0 -137 29.5t-42 84.5q11 68 103.5 164t224.5 195l83 -35q-78 -57 -141 -119.5t-69 -98.5q-4 -17 9 -25t39 -8q30 0 66.5 12t59.5 32l-36 -201q-73 -30 -160 -30z" />
    <glyph glyph-name="uni0335" unicode="&#x335;" 
d="M-870 413l33 196h718l-34 -196h-717z" />
    <glyph glyph-name="uni0336" unicode="&#x336;" 
d="M-1677 469l23 127h1534l-23 -127h-1534z" />
    <glyph glyph-name="uni0337" unicode="&#x337;" 
d="M-745 238l35 200l754 494l-36 -201z" />
    <glyph glyph-name="uni0338" unicode="&#x338;" 
d="M-781 206l804 1155l125 -74l-804 -1155z" />
    <glyph glyph-name="uni0394" unicode="&#x394;" horiz-adv-x="1613" 
d="M1160 1536l346 -1536h-1584l887 1536h351zM437 306h673l-181 879z" />
    <glyph glyph-name="uni03A9" unicode="&#x3a9;" horiz-adv-x="1749" 
d="M1684 951q0 -166 -82 -355.5t-220 -314.5h229l-50 -281h-684l28 219q128 69 223 194.5t140 264t45 273.5q0 148 -71.5 229t-209.5 81q-97 0 -180.5 -38.5t-141.5 -103.5t-100 -149.5t-61.5 -176.5t-19.5 -185q0 -144 51.5 -248t139.5 -153l-28 -207h-690l50 281h235
l11 12q-49 66 -84.5 176t-35.5 238q0 123 35.5 243.5t108.5 228.5t173.5 190t241.5 130t302 48q158 0 283.5 -48t203 -130.5t118 -189t40.5 -228.5z" />
    <glyph glyph-name="uni03BC" unicode="&#x3bc;" horiz-adv-x="1252" 
d="M878 1044h328l-184 -1044h-328l15 83q-122 -101 -266 -101q-84 0 -156 36l-86 -491h-238l267 1517h329l-111 -638q-2 -12 -2 -31q0 -49 29 -78.5t76 -29.5q73 0 134.5 41.5t80.5 99.5z" />
    <glyph glyph-name="pi" unicode="&#x3c0;" horiz-adv-x="1308" 
d="M42 0q67 144 143.5 388.5t121.5 421.5q-139 0 -207 -6l-18 181q84 59 369 59h926l-65 -234h-145l-80 -529q-32 -215 -27 -281h-283q-14 35 -14 94q0 53 21 194l77 522h-268q-41 -207 -113 -455.5t-139 -354.5h-299z" />
    <glyph glyph-name="Wgrave" unicode="&#x1e80;" horiz-adv-x="2181" 
d="M1176 1582l-180 269l178 112l199 -381h-197zM314 0l-119 1451h324l80 -1083l512 1083h270l122 -1083l470 1083h339l-629 -1451h-415l-116 863l-423 -863h-415z" />
    <glyph glyph-name="wgrave" unicode="&#x1e81;" horiz-adv-x="1765" 
d="M1105 1169h-197l-178 270l176 112zM1534 1037h322l-546 -1039h-286l-115 666l-353 -666h-289l-174 1039h311l92 -656l353 656h237l122 -654z" />
    <glyph glyph-name="Wacute" unicode="&#x1e82;" horiz-adv-x="2181" 
d="M1177 1582l334 381l137 -112l-273 -269h-198zM314 0l-119 1451h324l80 -1083l512 1083h270l122 -1083l470 1083h339l-629 -1451h-415l-116 863l-423 -863h-415z" />
    <glyph glyph-name="wacute" unicode="&#x1e83;" horiz-adv-x="1765" 
d="M1382 1439l-276 -270h-197l334 382zM1534 1037h322l-546 -1039h-286l-115 666l-353 -666h-289l-174 1039h311l92 -656l353 656h237l122 -654z" />
    <glyph glyph-name="Wdieresis" unicode="&#x1e84;" horiz-adv-x="2181" 
d="M1059 1582q-63 0 -100.5 45t-26.5 109q11 63 64.5 107.5t116.5 44.5t100.5 -44.5t26.5 -107.5q-11 -64 -64.5 -109t-116.5 -45zM1492 1582q-65 0 -102 45t-26 109q11 63 64 107.5t117 44.5q63 0 100 -44.5t26 -107.5q-11 -64 -63.5 -109t-115.5 -45zM314 0l-119 1451h324
l80 -1083l512 1083h270l122 -1083l470 1083h339l-629 -1451h-415l-116 863l-423 -863h-415z" />
    <glyph glyph-name="wdieresis" unicode="&#x1e85;" horiz-adv-x="1765" 
d="M797 1171q-76 0 -124.5 53.5t-40.5 129.5q8 75 68 127.5t137 52.5q73 0 120 -52.5t40 -127.5t-66.5 -129t-133.5 -54zM1247 1171q-76 0 -124.5 53.5t-40.5 129.5q8 75 68 127.5t137 52.5q73 0 120 -52.5t40 -127.5t-66.5 -129t-133.5 -54zM1534 1037h322l-546 -1039h-286
l-115 666l-353 -666h-289l-174 1039h311l92 -656l353 656h237l122 -654z" />
    <glyph glyph-name="uni1EA0" unicode="&#x1ea0;" horiz-adv-x="1495" 
d="M1385 0h-322l-51 292h-603l-154 -292h-331l789 1451h392zM550 559h416l-104 593zM632 -149q73 0 117.5 -53.5t30.5 -127.5q-13 -75 -75.5 -128.5t-136.5 -53.5q-76 0 -120.5 53t-31.5 129q14 75 77 128t139 53z" />
    <glyph glyph-name="uni1EA1" unicode="&#x1ea1;" horiz-adv-x="1310" 
d="M957 1037h307l-184 -1037h-274l5 125q-51 -73 -139.5 -111.5t-192.5 -38.5q-191 0 -312 118.5t-121 326.5q0 119 42.5 233t116.5 203.5t185 144t238 54.5q110 0 191.5 -40t115.5 -110zM569 230q73 0 136.5 32t104.5 82.5t64.5 111t23.5 120.5q0 98 -57 162t-163 64
q-95 0 -170.5 -52.5t-113.5 -131.5t-38 -167q0 -104 57.5 -162.5t155.5 -58.5zM544 -149q73 0 117.5 -53.5t30.5 -127.5q-13 -75 -75.5 -128.5t-136.5 -53.5q-76 0 -120.5 53t-31.5 129q14 75 77 128t139 53z" />
    <glyph glyph-name="uni1EA2" unicode="&#x1ea2;" horiz-adv-x="1495" 
d="M958 1824q-48 0 -94 -40l-53 105q81 61 188 61q96 0 140 -48t30 -130q-12 -69 -53 -104.5t-101 -52.5l-14 -86h-141l24 140q112 19 126 93q6 28 -7 45t-45 17zM1063 0l-51 292h-603l-154 -292h-331l789 1451h392l280 -1451h-322zM550 559h416l-104 593z" />
    <glyph glyph-name="uni1EA3" unicode="&#x1ea3;" horiz-adv-x="1310" 
d="M794 1416q-48 0 -93 -41l-54 106q80 60 188 60q96 0 140.5 -48t29.5 -129q-12 -69 -52.5 -104.5t-101.5 -53.5l-14 -86h-141l24 141q112 17 126 92q6 28 -7 45.5t-45 17.5zM957 1037h307l-184 -1037h-274l5 125q-51 -73 -139.5 -111.5t-192.5 -38.5q-191 0 -312 118.5
t-121 326.5q0 119 42.5 233t116.5 203.5t185 144t238 54.5q110 0 191.5 -40t115.5 -110zM569 230q73 0 136.5 32t104.5 82.5t64.5 111t23.5 120.5q0 98 -57 162t-163 64q-95 0 -170.5 -52.5t-113.5 -131.5t-38 -167q0 -104 57.5 -162.5t155.5 -58.5z" />
    <glyph glyph-name="uni1EA4" unicode="&#x1ea4;" horiz-adv-x="1495" 
d="M1386 2282l-273 -269h-198l334 381zM968 1767l-162 -185h-197l285 300h189l179 -300h-197zM713 1451h392l280 -1451h-322l-51 292h-603l-154 -292h-331zM550 559h416l-104 593z" />
    <glyph glyph-name="uni1EA5" unicode="&#x1ea5;" horiz-adv-x="1310" 
d="M1231 1923l-276 -270h-197l334 382zM812 1407l-162 -186h-197l285 300h189l180 -300h-198zM957 1037h307l-184 -1037h-274l5 125q-51 -73 -139.5 -111.5t-192.5 -38.5q-191 0 -312 118.5t-121 326.5q0 119 42.5 233t116.5 203.5t185 144t238 54.5q110 0 191.5 -40
t115.5 -110zM569 230q73 0 136.5 32t104.5 82.5t64.5 111t23.5 120.5q0 98 -57 162t-163 64q-95 0 -170.5 -52.5t-113.5 -131.5t-38 -167q0 -104 57.5 -162.5t155.5 -58.5z" />
    <glyph glyph-name="uni1EA6" unicode="&#x1ea6;" horiz-adv-x="1495" 
d="M1111 2013h-197l-180 269l178 112zM968 1767l-162 -185h-197l285 300h189l179 -300h-197zM1063 0l-51 292h-603l-154 -292h-331l789 1451h392l280 -1451h-322zM550 559h416l-104 593z" />
    <glyph glyph-name="uni1EA7" unicode="&#x1ea7;" horiz-adv-x="1310" 
d="M954 1653h-197l-178 270l176 112zM812 1407l-162 -186h-197l285 300h189l180 -300h-198zM957 1037h307l-184 -1037h-274l5 125q-51 -73 -139.5 -111.5t-192.5 -38.5q-191 0 -312 118.5t-121 326.5q0 119 42.5 233t116.5 203.5t185 144t238 54.5q110 0 191.5 -40
t115.5 -110zM569 230q73 0 136.5 32t104.5 82.5t64.5 111t23.5 120.5q0 98 -57 162t-163 64q-95 0 -170.5 -52.5t-113.5 -131.5t-38 -167q0 -104 57.5 -162.5t155.5 -58.5z" />
    <glyph glyph-name="uni1EA8" unicode="&#x1ea8;" horiz-adv-x="1495" 
d="M1035 2255q-48 0 -94 -40l-53 105q81 61 188 61q96 0 140 -48t30 -130q-12 -69 -53 -104.5t-101 -52.5l-14 -86h-141l24 140q112 19 126 93q6 28 -7 45t-45 17zM968 1767l-162 -185h-197l285 300h189l179 -300h-197zM1063 0l-51 292h-603l-154 -292h-331l789 1451h392
l280 -1451h-322zM550 559h416l-104 593z" />
    <glyph glyph-name="uni1EA9" unicode="&#x1ea9;" horiz-adv-x="1310" 
d="M878 1893q-48 0 -93 -41l-54 106q80 60 188 60q96 0 140.5 -48t29.5 -129q-12 -69 -52.5 -104.5t-101.5 -53.5l-14 -86h-141l24 141q112 17 126 92q6 28 -7 45.5t-45 17.5zM812 1407l-162 -186h-197l285 300h189l180 -300h-198zM957 1037h307l-184 -1037h-274l5 125
q-51 -73 -139.5 -111.5t-192.5 -38.5q-191 0 -312 118.5t-121 326.5q0 119 42.5 233t116.5 203.5t185 144t238 54.5q110 0 191.5 -40t115.5 -110zM569 230q73 0 136.5 32t104.5 82.5t64.5 111t23.5 120.5q0 98 -57 162t-163 64q-95 0 -170.5 -52.5t-113.5 -131.5t-38 -167
q0 -104 57.5 -162.5t155.5 -58.5z" />
    <glyph glyph-name="uni1EAA" unicode="&#x1eaa;" horiz-adv-x="1495" 
d="M928 2170q-37 0 -62.5 -40t-37.5 -105h-167q24 136 102.5 222t186.5 86q128 0 182 -119q11 -20 22.5 -30t32.5 -10q70 0 98 144h168q-24 -135 -101 -221.5t-189 -86.5q-125 0 -183 119q-18 41 -52 41zM968 1767l-162 -185h-197l285 300h189l179 -300h-197zM713 1451h392
l280 -1451h-322l-51 292h-603l-154 -292h-331zM550 559h416l-104 593z" />
    <glyph glyph-name="uni1EAB" unicode="&#x1eab;" horiz-adv-x="1310" 
d="M784 1784q-62 0 -85 -127h-150q21 121 90 197.5t165 76.5q59 0 100 -29t62 -76q13 -34 46 -34q59 0 82 126h152q-21 -120 -89.5 -196.5t-167.5 -76.5q-115 0 -160 104q-17 35 -45 35zM812 1407l-162 -186h-197l285 300h189l180 -300h-198zM957 1037h307l-184 -1037h-274
l5 125q-51 -73 -139.5 -111.5t-192.5 -38.5q-191 0 -312 118.5t-121 326.5q0 119 42.5 233t116.5 203.5t185 144t238 54.5q110 0 191.5 -40t115.5 -110zM569 230q73 0 136.5 32t104.5 82.5t64.5 111t23.5 120.5q0 98 -57 162t-163 64q-95 0 -170.5 -52.5t-113.5 -131.5
t-38 -167q0 -104 57.5 -162.5t155.5 -58.5z" />
    <glyph glyph-name="uni1EAC" unicode="&#x1eac;" horiz-adv-x="1495" 
d="M968 1767l-162 -185h-197l285 300h189l179 -300h-197zM1385 0h-322l-51 292h-603l-154 -292h-331l789 1451h392zM550 559h416l-104 593zM632 -149q73 0 117.5 -53.5t30.5 -127.5q-13 -75 -75.5 -128.5t-136.5 -53.5q-76 0 -120.5 53t-31.5 129q14 75 77 128t139 53z" />
    <glyph glyph-name="uni1EAD" unicode="&#x1ead;" horiz-adv-x="1310" 
d="M812 1407l-162 -186h-197l285 300h189l180 -300h-198zM957 1037h307l-184 -1037h-274l5 125q-51 -73 -139.5 -111.5t-192.5 -38.5q-191 0 -312 118.5t-121 326.5q0 119 42.5 233t116.5 203.5t185 144t238 54.5q110 0 191.5 -40t115.5 -110zM569 230q73 0 136.5 32
t104.5 82.5t64.5 111t23.5 120.5q0 98 -57 162t-163 64q-95 0 -170.5 -52.5t-113.5 -131.5t-38 -167q0 -104 57.5 -162.5t155.5 -58.5zM544 -149q73 0 117.5 -53.5t30.5 -127.5q-13 -75 -75.5 -128.5t-136.5 -53.5q-76 0 -120.5 53t-31.5 129q14 75 77 128t139 53z" />
    <glyph glyph-name="uni1EAE" unicode="&#x1eae;" horiz-adv-x="1495" 
d="M1388 2285l-273 -269h-198l334 381zM935 1582q-86 0 -149.5 16t-108 50.5t-60 94t-0.5 142.5h185q-14 -78 28 -116t132 -38q189 0 216 154h186q-30 -162 -140 -232.5t-289 -70.5zM713 1451h392l280 -1451h-322l-51 292h-603l-154 -292h-331zM550 559h416l-104 593z" />
    <glyph glyph-name="uni1EAF" unicode="&#x1eaf;" horiz-adv-x="1310" 
d="M1231 1923l-276 -270h-197l334 382zM769 1159q-171 0 -255.5 92t-53.5 270h186q-17 -95 23 -153.5t126 -58.5q87 0 148.5 58.5t78.5 153.5h185q-31 -178 -148 -270t-290 -92zM957 1037h307l-184 -1037h-274l5 125q-51 -73 -139.5 -111.5t-192.5 -38.5q-191 0 -312 118.5
t-121 326.5q0 119 42.5 233t116.5 203.5t185 144t238 54.5q110 0 191.5 -40t115.5 -110zM569 230q73 0 136.5 32t104.5 82.5t64.5 111t23.5 120.5q0 98 -57 162t-163 64q-95 0 -170.5 -52.5t-113.5 -131.5t-38 -167q0 -104 57.5 -162.5t155.5 -58.5z" />
    <glyph glyph-name="uni1EB0" unicode="&#x1eb0;" horiz-adv-x="1495" 
d="M1113 2016h-197l-180 269l178 112zM935 1582q-86 0 -149.5 16t-108 50.5t-60 94t-0.5 142.5h185q-14 -78 28 -116t132 -38q189 0 216 154h186q-30 -162 -140 -232.5t-289 -70.5zM1063 0l-51 292h-603l-154 -292h-331l789 1451h392l280 -1451h-322zM550 559h416l-104 593z
" />
    <glyph glyph-name="uni1EB1" unicode="&#x1eb1;" horiz-adv-x="1310" 
d="M954 1653h-197l-178 270l176 112zM769 1159q-171 0 -255.5 92t-53.5 270h186q-17 -95 23 -153.5t126 -58.5q87 0 148.5 58.5t78.5 153.5h185q-31 -178 -148 -270t-290 -92zM957 1037h307l-184 -1037h-274l5 125q-51 -73 -139.5 -111.5t-192.5 -38.5q-191 0 -312 118.5
t-121 326.5q0 119 42.5 233t116.5 203.5t185 144t238 54.5q110 0 191.5 -40t115.5 -110zM569 230q73 0 136.5 32t104.5 82.5t64.5 111t23.5 120.5q0 98 -57 162t-163 64q-95 0 -170.5 -52.5t-113.5 -131.5t-38 -167q0 -104 57.5 -162.5t155.5 -58.5z" />
    <glyph glyph-name="uni1EB2" unicode="&#x1eb2;" horiz-adv-x="1495" 
d="M1037 2258q-48 0 -94 -40l-53 105q81 61 188 61q96 0 140 -48t30 -130q-12 -69 -53 -104.5t-101 -52.5l-14 -86h-141l24 140q112 19 126 93q6 28 -7 45t-45 17zM935 1582q-86 0 -149.5 16t-108 50.5t-60 94t-0.5 142.5h185q-14 -78 28 -116t132 -38q189 0 216 154h186
q-30 -162 -140 -232.5t-289 -70.5zM1063 0l-51 292h-603l-154 -292h-331l789 1451h392l280 -1451h-322zM550 559h416l-104 593z" />
    <glyph glyph-name="uni1EB3" unicode="&#x1eb3;" horiz-adv-x="1310" 
d="M878 1893q-48 0 -93 -41l-54 106q80 60 188 60q96 0 140.5 -48t29.5 -129q-12 -69 -52.5 -104.5t-101.5 -53.5l-14 -86h-141l24 141q112 17 126 92q6 28 -7 45.5t-45 17.5zM769 1159q-171 0 -255.5 92t-53.5 270h186q-17 -95 23 -153.5t126 -58.5q87 0 148.5 58.5
t78.5 153.5h185q-31 -178 -148 -270t-290 -92zM957 1037h307l-184 -1037h-274l5 125q-51 -73 -139.5 -111.5t-192.5 -38.5q-191 0 -312 118.5t-121 326.5q0 119 42.5 233t116.5 203.5t185 144t238 54.5q110 0 191.5 -40t115.5 -110zM569 230q73 0 136.5 32t104.5 82.5
t64.5 111t23.5 120.5q0 98 -57 162t-163 64q-95 0 -170.5 -52.5t-113.5 -131.5t-38 -167q0 -104 57.5 -162.5t155.5 -58.5z" />
    <glyph glyph-name="uni1EB4" unicode="&#x1eb4;" horiz-adv-x="1495" 
d="M930 2173q-37 0 -62.5 -40t-37.5 -105h-167q24 136 102.5 222t186.5 86q128 0 182 -119q11 -20 22.5 -30t32.5 -10q70 0 98 144h168q-24 -135 -101 -221.5t-189 -86.5q-125 0 -183 119q-18 41 -52 41zM935 1582q-86 0 -149.5 16t-108 50.5t-60 94t-0.5 142.5h185
q-14 -78 28 -116t132 -38q189 0 216 154h186q-30 -162 -140 -232.5t-289 -70.5zM713 1451h392l280 -1451h-322l-51 292h-603l-154 -292h-331zM550 559h416l-104 593z" />
    <glyph glyph-name="uni1EB5" unicode="&#x1eb5;" horiz-adv-x="1310" 
d="M784 1784q-62 0 -85 -127h-150q21 121 90 197.5t165 76.5q59 0 100 -29t62 -76q13 -34 46 -34q59 0 82 126h152q-21 -120 -89.5 -196.5t-167.5 -76.5q-115 0 -160 104q-17 35 -45 35zM769 1159q-171 0 -255.5 92t-53.5 270h186q-17 -95 23 -153.5t126 -58.5
q87 0 148.5 58.5t78.5 153.5h185q-31 -178 -148 -270t-290 -92zM957 1037h307l-184 -1037h-274l5 125q-51 -73 -139.5 -111.5t-192.5 -38.5q-191 0 -312 118.5t-121 326.5q0 119 42.5 233t116.5 203.5t185 144t238 54.5q110 0 191.5 -40t115.5 -110zM569 230q73 0 136.5 32
t104.5 82.5t64.5 111t23.5 120.5q0 98 -57 162t-163 64q-95 0 -170.5 -52.5t-113.5 -131.5t-38 -167q0 -104 57.5 -162.5t155.5 -58.5z" />
    <glyph glyph-name="uni1EB6" unicode="&#x1eb6;" horiz-adv-x="1495" 
d="M935 1582q-86 0 -149.5 16t-108 50.5t-60 94t-0.5 142.5h185q-14 -78 28 -116t132 -38q189 0 216 154h186q-30 -162 -140 -232.5t-289 -70.5zM1385 0h-322l-51 292h-603l-154 -292h-331l789 1451h392zM550 559h416l-104 593zM632 -149q73 0 117.5 -53.5t30.5 -127.5
q-13 -75 -75.5 -128.5t-136.5 -53.5q-76 0 -120.5 53t-31.5 129q14 75 77 128t139 53z" />
    <glyph glyph-name="uni1EB7" unicode="&#x1eb7;" horiz-adv-x="1310" 
d="M769 1159q-171 0 -255.5 92t-53.5 270h186q-17 -95 23 -153.5t126 -58.5q87 0 148.5 58.5t78.5 153.5h185q-31 -178 -148 -270t-290 -92zM957 1037h307l-184 -1037h-274l5 125q-51 -73 -139.5 -111.5t-192.5 -38.5q-191 0 -312 118.5t-121 326.5q0 119 42.5 233
t116.5 203.5t185 144t238 54.5q110 0 191.5 -40t115.5 -110zM569 230q73 0 136.5 32t104.5 82.5t64.5 111t23.5 120.5q0 98 -57 162t-163 64q-95 0 -170.5 -52.5t-113.5 -131.5t-38 -167q0 -104 57.5 -162.5t155.5 -58.5zM544 -149q73 0 117.5 -53.5t30.5 -127.5
q-13 -75 -75.5 -128.5t-136.5 -53.5q-76 0 -120.5 53t-31.5 129q14 75 77 128t139 53z" />
    <glyph glyph-name="uni1EB8" unicode="&#x1eb8;" horiz-adv-x="1139" 
d="M1137 1171h-529l-54 -307h471l-48 -277h-472l-54 -305h529l-49 -282h-852l256 1451h852zM490 -149q73 0 117.5 -53.5t30.5 -127.5q-13 -75 -75.5 -128.5t-136.5 -53.5q-76 0 -120.5 53t-31.5 129q14 75 77 128t139 53z" />
    <glyph glyph-name="uni1EB9" unicode="&#x1eb9;" horiz-adv-x="1178" 
d="M679 1057q209 0 331.5 -103t122.5 -306q0 -66 -12 -126l-13 -64h-765q-2 -34 -2 -50q0 -93 54.5 -140t145.5 -47q80 0 146 37t108 104l276 -59q-77 -156 -218 -239.5t-314 -83.5q-232 0 -362.5 114t-130.5 320q0 126 42 240.5t120 205t200 144t271 53.5zM676 845
q-199 0 -285 -184h458q1 9 1 25q0 78 -48 118.5t-126 40.5zM510 -151q73 0 117.5 -53.5t30.5 -127.5q-13 -75 -75.5 -128.5t-136.5 -53.5q-76 0 -120.5 53t-31.5 129q14 75 77 128t139 53z" />
    <glyph glyph-name="uni1EBA" unicode="&#x1eba;" horiz-adv-x="1139" 
d="M816 1824q-48 0 -94 -40l-53 105q81 61 188 61q96 0 140 -48t30 -130q-12 -69 -53 -104.5t-101 -52.5l-14 -86h-141l24 140q112 19 126 93q6 28 -7 45t-45 17zM1137 1171h-529l-54 -307h471l-48 -277h-472l-54 -305h529l-49 -282h-852l256 1451h852z" />
    <glyph glyph-name="uni1EBB" unicode="&#x1ebb;" horiz-adv-x="1178" 
d="M750 1411q-48 0 -93 -41l-54 106q80 60 188 60q96 0 140.5 -48t29.5 -129q-12 -69 -52.5 -104.5t-101.5 -53.5l-14 -86h-141l24 141q112 17 126 92q6 28 -7 45.5t-45 17.5zM679 1057q209 0 331.5 -103t122.5 -306q0 -66 -12 -126l-13 -64h-765q-2 -34 -2 -50
q0 -93 54.5 -140t145.5 -47q80 0 146 37t108 104l276 -59q-77 -156 -218 -239.5t-314 -83.5q-232 0 -362.5 114t-130.5 320q0 126 42 240.5t120 205t200 144t271 53.5zM676 845q-199 0 -285 -184h458q1 9 1 25q0 78 -48 118.5t-126 40.5z" />
    <glyph glyph-name="uni1EBC" unicode="&#x1ebc;" horiz-adv-x="1139" 
d="M709 1739q-37 0 -62.5 -40t-37.5 -105h-167q24 136 102.5 222t186.5 86q128 0 182 -119q11 -20 22.5 -30t32.5 -10q70 0 98 144h168q-24 -135 -101 -221.5t-189 -86.5q-125 0 -183 119q-18 41 -52 41zM79 0l256 1451h852l-50 -280h-529l-54 -307h471l-48 -277h-472
l-54 -305h529l-49 -282h-852z" />
    <glyph glyph-name="uni1EBD" unicode="&#x1ebd;" horiz-adv-x="1178" 
d="M656 1302q-62 0 -85 -127h-150q21 121 90 197.5t165 76.5q59 0 100 -29t62 -76q13 -34 46 -34q59 0 82 126h152q-21 -120 -89.5 -196.5t-167.5 -76.5q-115 0 -160 104q-17 35 -45 35zM679 1057q209 0 331.5 -103t122.5 -306q0 -66 -12 -126l-13 -64h-765q-2 -34 -2 -50
q0 -93 54.5 -140t145.5 -47q80 0 146 37t108 104l276 -59q-77 -156 -218 -239.5t-314 -83.5q-232 0 -362.5 114t-130.5 320q0 126 42 240.5t120 205t200 144t271 53.5zM676 845q-199 0 -285 -184h458q1 9 1 25q0 78 -48 118.5t-126 40.5z" />
    <glyph glyph-name="uni1EBE" unicode="&#x1ebe;" horiz-adv-x="1139" 
d="M1244 2282l-273 -269h-198l334 381zM826 1767l-162 -185h-197l285 300h189l179 -300h-197zM79 0l256 1451h852l-50 -280h-529l-54 -307h471l-48 -277h-472l-54 -305h529l-49 -282h-852z" />
    <glyph glyph-name="uni1EBF" unicode="&#x1ebf;" horiz-adv-x="1178" 
d="M1187 1918l-276 -270h-197l334 382zM768 1402l-162 -186h-197l285 300h189l180 -300h-198zM679 1057q209 0 331.5 -103t122.5 -306q0 -66 -12 -126l-13 -64h-765q-2 -34 -2 -50q0 -93 54.5 -140t145.5 -47q80 0 146 37t108 104l276 -59q-77 -156 -218 -239.5t-314 -83.5
q-232 0 -362.5 114t-130.5 320q0 126 42 240.5t120 205t200 144t271 53.5zM676 845q-199 0 -285 -184h458q1 9 1 25q0 78 -48 118.5t-126 40.5z" />
    <glyph glyph-name="uni1EC0" unicode="&#x1ec0;" horiz-adv-x="1139" 
d="M969 2013h-197l-180 269l178 112zM826 1767l-162 -185h-197l285 300h189l179 -300h-197zM1137 1171h-529l-54 -307h471l-48 -277h-472l-54 -305h529l-49 -282h-852l256 1451h852z" />
    <glyph glyph-name="uni1EC1" unicode="&#x1ec1;" horiz-adv-x="1178" 
d="M910 1648h-197l-178 270l176 112zM768 1402l-162 -186h-197l285 300h189l180 -300h-198zM679 1057q209 0 331.5 -103t122.5 -306q0 -66 -12 -126l-13 -64h-765q-2 -34 -2 -50q0 -93 54.5 -140t145.5 -47q80 0 146 37t108 104l276 -59q-77 -156 -218 -239.5t-314 -83.5
q-232 0 -362.5 114t-130.5 320q0 126 42 240.5t120 205t200 144t271 53.5zM676 845q-199 0 -285 -184h458q1 9 1 25q0 78 -48 118.5t-126 40.5z" />
    <glyph glyph-name="uni1EC2" unicode="&#x1ec2;" horiz-adv-x="1139" 
d="M893 2255q-48 0 -94 -40l-53 105q81 61 188 61q96 0 140 -48t30 -130q-12 -69 -53 -104.5t-101 -52.5l-14 -86h-141l24 140q112 19 126 93q6 28 -7 45t-45 17zM826 1767l-162 -185h-197l285 300h189l179 -300h-197zM1137 1171h-529l-54 -307h471l-48 -277h-472l-54 -305
h529l-49 -282h-852l256 1451h852z" />
    <glyph glyph-name="uni1EC3" unicode="&#x1ec3;" horiz-adv-x="1178" 
d="M834 1888q-48 0 -93 -41l-54 106q80 60 188 60q96 0 140.5 -48t29.5 -129q-12 -69 -52.5 -104.5t-101.5 -53.5l-14 -86h-141l24 141q112 17 126 92q6 28 -7 45.5t-45 17.5zM768 1402l-162 -186h-197l285 300h189l180 -300h-198zM679 1057q209 0 331.5 -103t122.5 -306
q0 -66 -12 -126l-13 -64h-765q-2 -34 -2 -50q0 -93 54.5 -140t145.5 -47q80 0 146 37t108 104l276 -59q-77 -156 -218 -239.5t-314 -83.5q-232 0 -362.5 114t-130.5 320q0 126 42 240.5t120 205t200 144t271 53.5zM676 845q-199 0 -285 -184h458q1 9 1 25q0 78 -48 118.5
t-126 40.5z" />
    <glyph glyph-name="uni1EC4" unicode="&#x1ec4;" horiz-adv-x="1139" 
d="M1143 2318h168q-24 -135 -101 -221.5t-189 -86.5q-125 0 -183 119q-18 41 -52 41q-37 0 -62.5 -40t-37.5 -105h-167q24 136 102.5 222t186.5 86q128 0 182 -119q11 -20 22.5 -30t32.5 -10q70 0 98 144zM923 1582l-97 185l-162 -185h-197l285 300h189l179 -300h-197zM79 0
l256 1451h852l-50 -280h-529l-54 -307h471l-48 -277h-472l-54 -305h529l-49 -282h-852z" />
    <glyph glyph-name="uni1EC5" unicode="&#x1ec5;" horiz-adv-x="1178" 
d="M740 1779q-62 0 -85 -127h-150q21 121 90 197.5t165 76.5q59 0 100 -29t62 -76q13 -34 46 -34q59 0 82 126h152q-21 -120 -89.5 -196.5t-167.5 -76.5q-115 0 -160 104q-17 35 -45 35zM768 1402l-162 -186h-197l285 300h189l180 -300h-198zM679 1057q209 0 331.5 -103
t122.5 -306q0 -66 -12 -126l-13 -64h-765q-2 -34 -2 -50q0 -93 54.5 -140t145.5 -47q80 0 146 37t108 104l276 -59q-77 -156 -218 -239.5t-314 -83.5q-232 0 -362.5 114t-130.5 320q0 126 42 240.5t120 205t200 144t271 53.5zM676 845q-199 0 -285 -184h458q1 9 1 25
q0 78 -48 118.5t-126 40.5z" />
    <glyph glyph-name="uni1EC6" unicode="&#x1ec6;" horiz-adv-x="1139" 
d="M826 1767l-162 -185h-197l285 300h189l179 -300h-197zM1137 1171h-529l-54 -307h471l-48 -277h-472l-54 -305h529l-49 -282h-852l256 1451h852zM490 -149q73 0 117.5 -53.5t30.5 -127.5q-13 -75 -75.5 -128.5t-136.5 -53.5q-76 0 -120.5 53t-31.5 129q14 75 77 128
t139 53z" />
    <glyph glyph-name="uni1EC7" unicode="&#x1ec7;" horiz-adv-x="1178" 
d="M768 1402l-162 -186h-197l285 300h189l180 -300h-198zM679 1057q209 0 331.5 -103t122.5 -306q0 -66 -12 -126l-13 -64h-765q-2 -34 -2 -50q0 -93 54.5 -140t145.5 -47q80 0 146 37t108 104l276 -59q-77 -156 -218 -239.5t-314 -83.5q-232 0 -362.5 114t-130.5 320
q0 126 42 240.5t120 205t200 144t271 53.5zM676 845q-199 0 -285 -184h458q1 9 1 25q0 78 -48 118.5t-126 40.5zM510 -151q73 0 117.5 -53.5t30.5 -127.5q-13 -75 -75.5 -128.5t-136.5 -53.5q-76 0 -120.5 53t-31.5 129q14 75 77 128t139 53z" />
    <glyph glyph-name="uni1EC8" unicode="&#x1ec8;" horiz-adv-x="664" 
d="M441 1529l24 140q112 19 126 93q6 28 -7 45t-45 17q-48 0 -94 -40l-53 105q81 61 188 61q96 0 140 -48t30 -130q-12 -69 -53 -104.5t-101 -52.5l-14 -86h-141zM79 0l256 1451h320l-256 -1451h-320z" />
    <glyph glyph-name="uni1EC9" unicode="&#x1ec9;" horiz-adv-x="603" 
d="M342 1120l24 141q112 17 126 92q6 28 -7 45.5t-45 17.5q-48 0 -93 -41l-54 106q80 60 188 60q96 0 140.5 -48t29.5 -129q-12 -69 -52.5 -104.5t-101.5 -53.5l-14 -86h-141zM45 0l185 1044h328l-185 -1044h-328z" />
    <glyph glyph-name="uni1ECA" unicode="&#x1eca;" horiz-adv-x="664" 
d="M79 0l256 1451h320l-256 -1451h-320zM149 -512q-76 0 -120.5 53t-31.5 129q14 75 77 128t139 53q73 0 117.5 -53.5t30.5 -127.5q-13 -75 -75.5 -128.5t-136.5 -53.5z" />
    <glyph glyph-name="uni1ECB" unicode="&#x1ecb;" horiz-adv-x="603" 
d="M432 1178q-76 0 -124 53.5t-41 129.5q8 75 68 127.5t136 52.5q74 0 121.5 -52.5t38.5 -127.5q-7 -75 -66.5 -129t-132.5 -54zM45 0l185 1044h328l-185 -1044h-328zM122 -512q-76 0 -120.5 53t-31.5 129q14 75 77 128t139 53q73 0 117.5 -53.5t30.5 -127.5
q-13 -75 -75.5 -128.5t-136.5 -53.5z" />
    <glyph glyph-name="uni1ECC" unicode="&#x1ecc;" horiz-adv-x="1638" 
d="M744 -20q-293 0 -468.5 164.5t-175.5 443.5q0 135 38 264t112.5 241t177.5 196.5t242.5 133t296.5 48.5q291 0 467 -164t176 -442q0 -135 -38 -264.5t-113 -241.5t-178 -197t-241.5 -133.5t-295.5 -48.5zM757 273q120 0 223 50t171 131.5t106.5 183.5t38.5 208
q0 155 -93.5 244t-248.5 89q-119 0 -221.5 -50t-171 -131t-107.5 -183.5t-39 -208.5q0 -156 93.5 -244.5t248.5 -88.5zM639 -512q-76 0 -120.5 53t-31.5 129q14 75 77 128t139 53q73 0 117.5 -53.5t30.5 -127.5q-13 -75 -75.5 -128.5t-136.5 -53.5z" />
    <glyph glyph-name="uni1ECD" unicode="&#x1ecd;" horiz-adv-x="1257" 
d="M551 -20q-230 0 -367.5 118t-137.5 326q0 127 44.5 240.5t126.5 201t207.5 138.5t277.5 51q233 0 370 -117.5t137 -324.5q0 -127 -45 -241.5t-127.5 -201.5t-208.5 -138.5t-277 -51.5zM559 222q65 0 121.5 22.5t96.5 60t69.5 86.5t43.5 101.5t14 105.5q0 99 -57.5 158.5
t-158.5 59.5q-78 0 -144 -35t-107 -90.5t-63.5 -121t-22.5 -129.5q0 -102 55 -160t153 -58zM447 -512q-76 0 -120.5 53t-31.5 129q14 75 77 128t139 53q73 0 117.5 -53.5t30.5 -127.5q-13 -75 -75.5 -128.5t-136.5 -53.5z" />
    <glyph glyph-name="uni1ECE" unicode="&#x1ece;" horiz-adv-x="1638" 
d="M931 1529l24 140q112 19 126 93q6 28 -7 45t-45 17q-48 0 -94 -40l-53 105q81 61 188 61q96 0 140 -48t30 -130q-12 -69 -53 -104.5t-101 -52.5l-14 -86h-141zM744 -20q-293 0 -468.5 164.5t-175.5 443.5q0 135 38 264t112.5 241t177.5 196.5t242.5 133t296.5 48.5
q291 0 467 -164t176 -442q0 -135 -38 -264.5t-113 -241.5t-178 -197t-241.5 -133.5t-295.5 -48.5zM757 273q120 0 223 50t171 131.5t106.5 183.5t38.5 208q0 155 -93.5 244t-248.5 89q-119 0 -221.5 -50t-171 -131t-107.5 -183.5t-39 -208.5q0 -156 93.5 -244.5t248.5 -88.5
z" />
    <glyph glyph-name="uni1ECF" unicode="&#x1ecf;" horiz-adv-x="1257" 
d="M664 1111l24 141q112 17 126 92q6 28 -7 45.5t-45 17.5q-48 0 -93 -41l-54 106q80 60 188 60q96 0 140.5 -48t29.5 -129q-12 -69 -52.5 -104.5t-101.5 -53.5l-14 -86h-141zM551 -20q-230 0 -367.5 118t-137.5 326q0 127 44.5 240.5t126.5 201t207.5 138.5t277.5 51
q233 0 370 -117.5t137 -324.5q0 -127 -45 -241.5t-127.5 -201.5t-208.5 -138.5t-277 -51.5zM559 222q65 0 121.5 22.5t96.5 60t69.5 86.5t43.5 101.5t14 105.5q0 99 -57.5 158.5t-158.5 59.5q-78 0 -144 -35t-107 -90.5t-63.5 -121t-22.5 -129.5q0 -102 55 -160t153 -58z
" />
    <glyph glyph-name="uni1ED0" unicode="&#x1ed0;" horiz-adv-x="1638" 
d="M986 2013l334 381l137 -112l-273 -269h-198zM877 1582h-197l285 300h189l179 -300h-197l-97 185zM744 -20q-293 0 -468.5 164.5t-175.5 443.5q0 135 38 264t112.5 241t177.5 196.5t242.5 133t296.5 48.5q291 0 467 -164t176 -442q0 -135 -38 -264.5t-113 -241.5
t-178 -197t-241.5 -133.5t-295.5 -48.5zM757 273q120 0 223 50t171 131.5t106.5 183.5t38.5 208q0 155 -93.5 244t-248.5 89q-119 0 -221.5 -50t-171 -131t-107.5 -183.5t-39 -208.5q0 -156 93.5 -244.5t248.5 -88.5z" />
    <glyph glyph-name="uni1ED1" unicode="&#x1ed1;" horiz-adv-x="1257" 
d="M726 1644l334 382l139 -112l-276 -270h-197zM618 1212h-197l285 300h189l180 -300h-198l-97 186zM551 -20q-230 0 -367.5 118t-137.5 326q0 127 44.5 240.5t126.5 201t207.5 138.5t277.5 51q233 0 370 -117.5t137 -324.5q0 -127 -45 -241.5t-127.5 -201.5t-208.5 -138.5
t-277 -51.5zM559 222q65 0 121.5 22.5t96.5 60t69.5 86.5t43.5 101.5t14 105.5q0 99 -57.5 158.5t-158.5 59.5q-78 0 -144 -35t-107 -90.5t-63.5 -121t-22.5 -129.5q0 -102 55 -160t153 -58z" />
    <glyph glyph-name="uni1ED2" unicode="&#x1ed2;" horiz-adv-x="1638" 
d="M985 2013l-180 269l178 112l199 -381h-197zM877 1582h-197l285 300h189l179 -300h-197l-97 185zM744 -20q-293 0 -468.5 164.5t-175.5 443.5q0 135 38 264t112.5 241t177.5 196.5t242.5 133t296.5 48.5q291 0 467 -164t176 -442q0 -135 -38 -264.5t-113 -241.5t-178 -197
t-241.5 -133.5t-295.5 -48.5zM757 273q120 0 223 50t171 131.5t106.5 183.5t38.5 208q0 155 -93.5 244t-248.5 89q-119 0 -221.5 -50t-171 -131t-107.5 -183.5t-39 -208.5q0 -156 93.5 -244.5t248.5 -88.5z" />
    <glyph glyph-name="uni1ED3" unicode="&#x1ed3;" horiz-adv-x="1257" 
d="M725 1644l-178 270l176 112l199 -382h-197zM618 1212h-197l285 300h189l180 -300h-198l-97 186zM551 -20q-230 0 -367.5 118t-137.5 326q0 127 44.5 240.5t126.5 201t207.5 138.5t277.5 51q233 0 370 -117.5t137 -324.5q0 -127 -45 -241.5t-127.5 -201.5t-208.5 -138.5
t-277 -51.5zM559 222q65 0 121.5 22.5t96.5 60t69.5 86.5t43.5 101.5t14 105.5q0 99 -57.5 158.5t-158.5 59.5q-78 0 -144 -35t-107 -90.5t-63.5 -121t-22.5 -129.5q0 -102 55 -160t153 -58z" />
    <glyph glyph-name="uni1ED4" unicode="&#x1ed4;" horiz-adv-x="1638" 
d="M1008 1960l24 140q112 19 126 93q6 28 -7 45t-45 17q-48 0 -94 -40l-53 105q81 61 188 61q96 0 140 -48t30 -130q-12 -69 -53 -104.5t-101 -52.5l-14 -86h-141zM877 1582h-197l285 300h189l179 -300h-197l-97 185zM744 -20q-293 0 -468.5 164.5t-175.5 443.5
q0 135 38 264t112.5 241t177.5 196.5t242.5 133t296.5 48.5q291 0 467 -164t176 -442q0 -135 -38 -264.5t-113 -241.5t-178 -197t-241.5 -133.5t-295.5 -48.5zM757 273q120 0 223 50t171 131.5t106.5 183.5t38.5 208q0 155 -93.5 244t-248.5 89q-119 0 -221.5 -50t-171 -131
t-107.5 -183.5t-39 -208.5q0 -156 93.5 -244.5t248.5 -88.5z" />
    <glyph glyph-name="uni1ED5" unicode="&#x1ed5;" horiz-adv-x="1257" 
d="M748 1588l24 141q112 17 126 92q6 28 -7 45.5t-45 17.5q-48 0 -93 -41l-54 106q80 60 188 60q96 0 140.5 -48t29.5 -129q-12 -69 -52.5 -104.5t-101.5 -53.5l-14 -86h-141zM618 1212h-197l285 300h189l180 -300h-198l-97 186zM551 -20q-230 0 -367.5 118t-137.5 326
q0 127 44.5 240.5t126.5 201t207.5 138.5t277.5 51q233 0 370 -117.5t137 -324.5q0 -127 -45 -241.5t-127.5 -201.5t-208.5 -138.5t-277 -51.5zM559 222q65 0 121.5 22.5t96.5 60t69.5 86.5t43.5 101.5t14 105.5q0 99 -57.5 158.5t-158.5 59.5q-78 0 -144 -35t-107 -90.5
t-63.5 -121t-22.5 -129.5q0 -102 55 -160t153 -58z" />
    <glyph glyph-name="uni1ED6" unicode="&#x1ed6;" horiz-adv-x="1638" 
d="M1234 2010q-125 0 -183 119q-18 41 -52 41q-37 0 -62.5 -40t-37.5 -105h-167q24 136 102.5 222t186.5 86q128 0 182 -119q11 -20 22.5 -30t32.5 -10q70 0 98 144h168q-24 -135 -101 -221.5t-189 -86.5zM877 1582h-197l285 300h189l179 -300h-197l-97 185zM744 -20
q-293 0 -468.5 164.5t-175.5 443.5q0 135 38 264t112.5 241t177.5 196.5t242.5 133t296.5 48.5q291 0 467 -164t176 -442q0 -135 -38 -264.5t-113 -241.5t-178 -197t-241.5 -133.5t-295.5 -48.5zM757 273q120 0 223 50t171 131.5t106.5 183.5t38.5 208q0 155 -93.5 244
t-248.5 89q-119 0 -221.5 -50t-171 -131t-107.5 -183.5t-39 -208.5q0 -156 93.5 -244.5t248.5 -88.5z" />
    <glyph glyph-name="uni1ED7" unicode="&#x1ed7;" horiz-adv-x="1257" 
d="M957 1636q-115 0 -160 104q-17 35 -45 35q-62 0 -85 -127h-150q21 121 90 197.5t165 76.5q59 0 100 -29t62 -76q13 -34 46 -34q59 0 82 126h152q-21 -120 -89.5 -196.5t-167.5 -76.5zM618 1212h-197l285 300h189l180 -300h-198l-97 186zM551 -20q-230 0 -367.5 118
t-137.5 326q0 127 44.5 240.5t126.5 201t207.5 138.5t277.5 51q233 0 370 -117.5t137 -324.5q0 -127 -45 -241.5t-127.5 -201.5t-208.5 -138.5t-277 -51.5zM559 222q65 0 121.5 22.5t96.5 60t69.5 86.5t43.5 101.5t14 105.5q0 99 -57.5 158.5t-158.5 59.5q-78 0 -144 -35
t-107 -90.5t-63.5 -121t-22.5 -129.5q0 -102 55 -160t153 -58z" />
    <glyph glyph-name="uni1ED8" unicode="&#x1ed8;" horiz-adv-x="1638" 
d="M877 1582h-197l285 300h189l179 -300h-197l-97 185zM744 -20q-293 0 -468.5 164.5t-175.5 443.5q0 135 38 264t112.5 241t177.5 196.5t242.5 133t296.5 48.5q291 0 467 -164t176 -442q0 -135 -38 -264.5t-113 -241.5t-178 -197t-241.5 -133.5t-295.5 -48.5zM757 273
q120 0 223 50t171 131.5t106.5 183.5t38.5 208q0 155 -93.5 244t-248.5 89q-119 0 -221.5 -50t-171 -131t-107.5 -183.5t-39 -208.5q0 -156 93.5 -244.5t248.5 -88.5zM639 -512q-76 0 -120.5 53t-31.5 129q14 75 77 128t139 53q73 0 117.5 -53.5t30.5 -127.5
q-13 -75 -75.5 -128.5t-136.5 -53.5z" />
    <glyph glyph-name="uni1ED9" unicode="&#x1ed9;" horiz-adv-x="1257" 
d="M618 1212h-197l285 300h189l180 -300h-198l-97 186zM551 -20q-230 0 -367.5 118t-137.5 326q0 127 44.5 240.5t126.5 201t207.5 138.5t277.5 51q233 0 370 -117.5t137 -324.5q0 -127 -45 -241.5t-127.5 -201.5t-208.5 -138.5t-277 -51.5zM559 222q65 0 121.5 22.5
t96.5 60t69.5 86.5t43.5 101.5t14 105.5q0 99 -57.5 158.5t-158.5 59.5q-78 0 -144 -35t-107 -90.5t-63.5 -121t-22.5 -129.5q0 -102 55 -160t153 -58zM447 -512q-76 0 -120.5 53t-31.5 129q14 75 77 128t139 53q73 0 117.5 -53.5t30.5 -127.5q-13 -75 -75.5 -128.5
t-136.5 -53.5z" />
    <glyph glyph-name="uni1EDA" unicode="&#x1eda;" horiz-adv-x="1638" 
d="M1380 1851l-273 -269h-198l334 381zM1674 1560h151l-33 -186q-40 -230 -232 -230h-8q58 -122 58 -279q0 -135 -38 -264.5t-113 -241.5t-178 -197t-241.5 -133.5t-295.5 -48.5q-293 0 -468.5 164.5t-175.5 443.5q0 135 38 264t112.5 241t177.5 196.5t242.5 133t296.5 48.5
q289 0 464 -161l4 6q48 -28 94 -28q56 0 81.5 28t38.5 109zM757 273q120 0 223 50t171 131.5t106.5 183.5t38.5 208q0 155 -93.5 244t-248.5 89q-119 0 -221.5 -50t-171 -131t-107.5 -183.5t-39 -208.5q0 -156 93.5 -244.5t248.5 -88.5z" />
    <glyph glyph-name="uni1EDB" unicode="&#x1edb;" horiz-adv-x="1257" 
d="M1115 1437l-276 -270h-197l334 382zM1267 1213h151l-33 -186q-39 -218 -211 -229q35 -82 35 -185q0 -127 -45 -241.5t-127.5 -201.5t-208.5 -138.5t-277 -51.5q-230 0 -367.5 118t-137.5 326q0 127 44.5 240.5t126.5 201t207.5 138.5t277.5 51q205 0 337 -92
q44 -22 83 -22q56 0 81.5 28t38.5 109zM559 222q65 0 121.5 22.5t96.5 60t69.5 86.5t43.5 101.5t14 105.5q0 99 -57.5 158.5t-158.5 59.5q-78 0 -144 -35t-107 -90.5t-63.5 -121t-22.5 -129.5q0 -102 55 -160t153 -58z" />
    <glyph glyph-name="uni1EDC" unicode="&#x1edc;" horiz-adv-x="1638" 
d="M1105 1582h-197l-180 269l178 112zM1674 1560h151l-33 -186q-40 -230 -232 -230h-8q58 -122 58 -279q0 -135 -38 -264.5t-113 -241.5t-178 -197t-241.5 -133.5t-295.5 -48.5q-293 0 -468.5 164.5t-175.5 443.5q0 135 38 264t112.5 241t177.5 196.5t242.5 133t296.5 48.5
q289 0 464 -161l4 6q48 -28 94 -28q56 0 81.5 28t38.5 109zM757 273q120 0 223 50t171 131.5t106.5 183.5t38.5 208q0 155 -93.5 244t-248.5 89q-119 0 -221.5 -50t-171 -131t-107.5 -183.5t-39 -208.5q0 -156 93.5 -244.5t248.5 -88.5z" />
    <glyph glyph-name="uni1EDD" unicode="&#x1edd;" horiz-adv-x="1257" 
d="M838 1167h-197l-178 270l176 112zM1267 1213h151l-33 -186q-39 -218 -211 -229q35 -82 35 -185q0 -127 -45 -241.5t-127.5 -201.5t-208.5 -138.5t-277 -51.5q-230 0 -367.5 118t-137.5 326q0 127 44.5 240.5t126.5 201t207.5 138.5t277.5 51q205 0 337 -92q44 -22 83 -22
q56 0 81.5 28t38.5 109zM559 222q65 0 121.5 22.5t96.5 60t69.5 86.5t43.5 101.5t14 105.5q0 99 -57.5 158.5t-158.5 59.5q-78 0 -144 -35t-107 -90.5t-63.5 -121t-22.5 -129.5q0 -102 55 -160t153 -58z" />
    <glyph glyph-name="uni1EDE" unicode="&#x1ede;" horiz-adv-x="1638" 
d="M1029 1824q-48 0 -94 -40l-53 105q81 61 188 61q96 0 140 -48t30 -130q-12 -69 -53 -104.5t-101 -52.5l-14 -86h-141l24 140q112 19 126 93q6 28 -7 45t-45 17zM1674 1560h151l-33 -186q-40 -230 -232 -230h-8q58 -122 58 -279q0 -135 -38 -264.5t-113 -241.5t-178 -197
t-241.5 -133.5t-295.5 -48.5q-293 0 -468.5 164.5t-175.5 443.5q0 135 38 264t112.5 241t177.5 196.5t242.5 133t296.5 48.5q289 0 464 -161l4 6q48 -28 94 -28q56 0 81.5 28t38.5 109zM757 273q120 0 223 50t171 131.5t106.5 183.5t38.5 208q0 155 -93.5 244t-248.5 89
q-119 0 -221.5 -50t-171 -131t-107.5 -183.5t-39 -208.5q0 -156 93.5 -244.5t248.5 -88.5z" />
    <glyph glyph-name="uni1EDF" unicode="&#x1edf;" horiz-adv-x="1257" 
d="M762 1407q-48 0 -93 -41l-54 106q80 60 188 60q96 0 140.5 -48t29.5 -129q-12 -69 -52.5 -104.5t-101.5 -53.5l-14 -86h-141l24 141q112 17 126 92q6 28 -7 45.5t-45 17.5zM1267 1213h151l-33 -186q-39 -218 -211 -229q35 -82 35 -185q0 -127 -45 -241.5t-127.5 -201.5
t-208.5 -138.5t-277 -51.5q-230 0 -367.5 118t-137.5 326q0 127 44.5 240.5t126.5 201t207.5 138.5t277.5 51q205 0 337 -92q44 -22 83 -22q56 0 81.5 28t38.5 109zM559 222q65 0 121.5 22.5t96.5 60t69.5 86.5t43.5 101.5t14 105.5q0 99 -57.5 158.5t-158.5 59.5
q-78 0 -144 -35t-107 -90.5t-63.5 -121t-22.5 -129.5q0 -102 55 -160t153 -58z" />
    <glyph glyph-name="uni1EE0" unicode="&#x1ee0;" horiz-adv-x="1638" 
d="M922 1739q-37 0 -62.5 -40t-37.5 -105h-167q24 136 102.5 222t186.5 86q128 0 182 -119q11 -20 22.5 -30t32.5 -10q70 0 98 144h168q-24 -135 -101 -221.5t-189 -86.5q-125 0 -183 119q-18 41 -52 41zM1674 1560h151l-33 -186q-40 -230 -232 -230h-8q58 -122 58 -279
q0 -135 -38 -264.5t-113 -241.5t-178 -197t-241.5 -133.5t-295.5 -48.5q-293 0 -468.5 164.5t-175.5 443.5q0 135 38 264t112.5 241t177.5 196.5t242.5 133t296.5 48.5q289 0 464 -161l4 6q48 -28 94 -28q56 0 81.5 28t38.5 109zM757 273q120 0 223 50t171 131.5
t106.5 183.5t38.5 208q0 155 -93.5 244t-248.5 89q-119 0 -221.5 -50t-171 -131t-107.5 -183.5t-39 -208.5q0 -156 93.5 -244.5t248.5 -88.5z" />
    <glyph glyph-name="uni1EE1" unicode="&#x1ee1;" horiz-adv-x="1257" 
d="M668 1298q-62 0 -85 -127h-150q21 121 90 197.5t165 76.5q59 0 100 -29t62 -76q13 -34 46 -34q59 0 82 126h152q-21 -120 -89.5 -196.5t-167.5 -76.5q-115 0 -160 104q-17 35 -45 35zM1267 1213h151l-33 -186q-39 -218 -211 -229q35 -82 35 -185q0 -127 -45 -241.5
t-127.5 -201.5t-208.5 -138.5t-277 -51.5q-230 0 -367.5 118t-137.5 326q0 127 44.5 240.5t126.5 201t207.5 138.5t277.5 51q205 0 337 -92q44 -22 83 -22q56 0 81.5 28t38.5 109zM559 222q65 0 121.5 22.5t96.5 60t69.5 86.5t43.5 101.5t14 105.5q0 99 -57.5 158.5
t-158.5 59.5q-78 0 -144 -35t-107 -90.5t-63.5 -121t-22.5 -129.5q0 -102 55 -160t153 -58z" />
    <glyph glyph-name="uni1EE2" unicode="&#x1ee2;" horiz-adv-x="1638" 
d="M1674 1560h151l-33 -186q-40 -230 -232 -230h-8q58 -122 58 -279q0 -135 -38 -264.5t-113 -241.5t-178 -197t-241.5 -133.5t-295.5 -48.5q-293 0 -468.5 164.5t-175.5 443.5q0 135 38 264t112.5 241t177.5 196.5t242.5 133t296.5 48.5q289 0 464 -161l4 6q48 -28 94 -28
q56 0 81.5 28t38.5 109zM757 273q120 0 223 50t171 131.5t106.5 183.5t38.5 208q0 155 -93.5 244t-248.5 89q-119 0 -221.5 -50t-171 -131t-107.5 -183.5t-39 -208.5q0 -156 93.5 -244.5t248.5 -88.5zM703 -149q73 0 117.5 -53.5t30.5 -127.5q-13 -75 -75.5 -128.5
t-136.5 -53.5q-76 0 -120.5 53t-31.5 129q14 75 77 128t139 53z" />
    <glyph glyph-name="uni1EE3" unicode="&#x1ee3;" horiz-adv-x="1257" 
d="M1267 1213h151l-33 -186q-39 -218 -211 -229q35 -82 35 -185q0 -127 -45 -241.5t-127.5 -201.5t-208.5 -138.5t-277 -51.5q-230 0 -367.5 118t-137.5 326q0 127 44.5 240.5t126.5 201t207.5 138.5t277.5 51q205 0 337 -92q44 -22 83 -22q56 0 81.5 28t38.5 109zM559 222
q65 0 121.5 22.5t96.5 60t69.5 86.5t43.5 101.5t14 105.5q0 99 -57.5 158.5t-158.5 59.5q-78 0 -144 -35t-107 -90.5t-63.5 -121t-22.5 -129.5q0 -102 55 -160t153 -58zM511 -149q73 0 117.5 -53.5t30.5 -127.5q-13 -75 -75.5 -128.5t-136.5 -53.5q-76 0 -120.5 53
t-31.5 129q14 75 77 128t139 53z" />
    <glyph glyph-name="uni1EE4" unicode="&#x1ee4;" horiz-adv-x="1436" 
d="M640 -20q-232 0 -371.5 107.5t-139.5 316.5q0 58 12 119l164 928h319l-158 -906q-10 -57 -10 -93q0 -190 194 -190q123 0 212 75t118 229l156 885h320l-168 -950q-24 -136 -85 -238t-148.5 -163t-191 -90.5t-223.5 -29.5zM534 -512q-76 0 -120.5 53t-31.5 129
q14 75 77 128t139 53q73 0 117.5 -53.5t30.5 -127.5q-13 -75 -75.5 -128.5t-136.5 -53.5z" />
    <glyph glyph-name="uni1EE5" unicode="&#x1ee5;" horiz-adv-x="1230" 
d="M878 1037h305l-184 -1037h-287l18 150q-68 -79 -158 -124.5t-193 -45.5q-145 0 -223.5 73.5t-78.5 206.5q0 46 8 89l123 688h305l-110 -627q-6 -32 -6 -55q0 -120 122 -120q97 0 166.5 57t87.5 159h2zM500 -149q73 0 117.5 -53.5t30.5 -127.5q-13 -75 -75.5 -128.5
t-136.5 -53.5q-76 0 -120.5 53t-31.5 129q14 75 77 128t139 53z" />
    <glyph glyph-name="uni1EE6" unicode="&#x1ee6;" horiz-adv-x="1436" 
d="M828 1529l24 140q112 19 126 93q6 28 -7 45t-45 17q-48 0 -94 -40l-53 105q81 61 188 61q96 0 140 -48t30 -130q-12 -69 -53 -104.5t-101 -52.5l-14 -86h-141zM640 -20q-232 0 -371.5 107.5t-139.5 316.5q0 58 12 119l164 928h319l-158 -906q-10 -57 -10 -93
q0 -190 194 -190q123 0 212 75t118 229l156 885h320l-168 -950q-24 -136 -85 -238t-148.5 -163t-191 -90.5t-223.5 -29.5z" />
    <glyph glyph-name="uni1EE7" unicode="&#x1ee7;" horiz-adv-x="1230" 
d="M755 1409q-48 0 -93 -41l-54 106q80 60 188 60q96 0 140.5 -48t29.5 -129q-12 -69 -52.5 -104.5t-101.5 -53.5l-14 -86h-141l24 141q112 17 126 92q6 28 -7 45.5t-45 17.5zM878 1037h305l-184 -1037h-287l18 150q-68 -79 -158 -124.5t-193 -45.5q-145 0 -223.5 73.5
t-78.5 206.5q0 46 8 89l123 688h305l-110 -627q-6 -32 -6 -55q0 -120 122 -120q97 0 166.5 57t87.5 159h2z" />
    <glyph glyph-name="uni1EE8" unicode="&#x1ee8;" horiz-adv-x="1436" 
d="M1277 1851l-273 -269h-198l334 381zM1639 1637h151l-33 -186q-40 -230 -232 -230q-49 0 -106 20l-131 -740q-24 -136 -85 -238t-148.5 -163t-191 -90.5t-223.5 -29.5q-232 0 -371.5 107.5t-139.5 316.5q0 58 12 119l164 928h319l-158 -906q-10 -57 -10 -93
q0 -190 194 -190q123 0 212 75t118 229l156 885h320l-14 -77q26 -9 52 -9q56 0 81.5 28t38.5 109z" />
    <glyph glyph-name="uni1EE9" unicode="&#x1ee9;" horiz-adv-x="1230" 
d="M1108 1439l-276 -270h-197l334 382zM1371 1223h151l-33 -186q-40 -230 -232 -230q-53 0 -111 21l-147 -828h-287l18 150q-68 -79 -158 -124.5t-193 -45.5q-145 0 -223.5 73.5t-78.5 206.5q0 46 8 89l123 688h305l-110 -627q-6 -32 -6 -55q0 -120 122 -120q97 0 166.5 57
t87.5 159h2l103 586h305l-13 -76q30 -10 56 -10q56 0 81.5 28t38.5 109z" />
    <glyph glyph-name="uni1EEA" unicode="&#x1eea;" horiz-adv-x="1436" 
d="M1002 1582h-197l-180 269l178 112zM1639 1637h151l-33 -186q-40 -230 -232 -230q-49 0 -106 20l-131 -740q-24 -136 -85 -238t-148.5 -163t-191 -90.5t-223.5 -29.5q-232 0 -371.5 107.5t-139.5 316.5q0 58 12 119l164 928h319l-158 -906q-10 -57 -10 -93
q0 -190 194 -190q123 0 212 75t118 229l156 885h320l-14 -77q26 -9 52 -9q56 0 81.5 28t38.5 109z" />
    <glyph glyph-name="uni1EEB" unicode="&#x1eeb;" horiz-adv-x="1230" 
d="M831 1169h-197l-178 270l176 112zM1371 1223h151l-33 -186q-40 -230 -232 -230q-53 0 -111 21l-147 -828h-287l18 150q-68 -79 -158 -124.5t-193 -45.5q-145 0 -223.5 73.5t-78.5 206.5q0 46 8 89l123 688h305l-110 -627q-6 -32 -6 -55q0 -120 122 -120q97 0 166.5 57
t87.5 159h2l103 586h305l-13 -76q30 -10 56 -10q56 0 81.5 28t38.5 109z" />
    <glyph glyph-name="uni1EEC" unicode="&#x1eec;" horiz-adv-x="1436" 
d="M926 1824q-48 0 -94 -40l-53 105q81 61 188 61q96 0 140 -48t30 -130q-12 -69 -53 -104.5t-101 -52.5l-14 -86h-141l24 140q112 19 126 93q6 28 -7 45t-45 17zM1639 1637h151l-33 -186q-40 -230 -232 -230q-49 0 -106 20l-131 -740q-24 -136 -85 -238t-148.5 -163
t-191 -90.5t-223.5 -29.5q-232 0 -371.5 107.5t-139.5 316.5q0 58 12 119l164 928h319l-158 -906q-10 -57 -10 -93q0 -190 194 -190q123 0 212 75t118 229l156 885h320l-14 -77q26 -9 52 -9q56 0 81.5 28t38.5 109z" />
    <glyph glyph-name="uni1EED" unicode="&#x1eed;" horiz-adv-x="1230" 
d="M755 1409q-48 0 -93 -41l-54 106q80 60 188 60q96 0 140.5 -48t29.5 -129q-12 -69 -52.5 -104.5t-101.5 -53.5l-14 -86h-141l24 141q112 17 126 92q6 28 -7 45.5t-45 17.5zM1371 1223h151l-33 -186q-40 -230 -232 -230q-53 0 -111 21l-147 -828h-287l18 150
q-68 -79 -158 -124.5t-193 -45.5q-145 0 -223.5 73.5t-78.5 206.5q0 46 8 89l123 688h305l-110 -627q-6 -32 -6 -55q0 -120 122 -120q97 0 166.5 57t87.5 159h2l103 586h305l-13 -76q30 -10 56 -10q56 0 81.5 28t38.5 109z" />
    <glyph glyph-name="uni1EEE" unicode="&#x1eee;" horiz-adv-x="1436" 
d="M819 1739q-37 0 -62.5 -40t-37.5 -105h-167q24 136 102.5 222t186.5 86q128 0 182 -119q11 -20 22.5 -30t32.5 -10q70 0 98 144h168q-24 -135 -101 -221.5t-189 -86.5q-125 0 -183 119q-18 41 -52 41zM1639 1637h151l-33 -186q-40 -230 -232 -230q-49 0 -106 20
l-131 -740q-24 -136 -85 -238t-148.5 -163t-191 -90.5t-223.5 -29.5q-232 0 -371.5 107.5t-139.5 316.5q0 58 12 119l164 928h319l-158 -906q-10 -57 -10 -93q0 -190 194 -190q123 0 212 75t118 229l156 885h320l-14 -77q26 -9 52 -9q56 0 81.5 28t38.5 109z" />
    <glyph glyph-name="uni1EEF" unicode="&#x1eef;" horiz-adv-x="1230" 
d="M661 1300q-62 0 -85 -127h-150q21 121 90 197.5t165 76.5q59 0 100 -29t62 -76q13 -34 46 -34q59 0 82 126h152q-21 -120 -89.5 -196.5t-167.5 -76.5q-115 0 -160 104q-17 35 -45 35zM1371 1223h151l-33 -186q-40 -230 -232 -230q-53 0 -111 21l-147 -828h-287l18 150
q-68 -79 -158 -124.5t-193 -45.5q-145 0 -223.5 73.5t-78.5 206.5q0 46 8 89l123 688h305l-110 -627q-6 -32 -6 -55q0 -120 122 -120q97 0 166.5 57t87.5 159h2l103 586h305l-13 -76q30 -10 56 -10q56 0 81.5 28t38.5 109z" />
    <glyph glyph-name="uni1EF0" unicode="&#x1ef0;" horiz-adv-x="1436" 
d="M1639 1637h151l-33 -186q-40 -230 -232 -230q-49 0 -106 20l-131 -740q-24 -136 -85 -238t-148.5 -163t-191 -90.5t-223.5 -29.5q-232 0 -371.5 107.5t-139.5 316.5q0 58 12 119l164 928h319l-158 -906q-10 -57 -10 -93q0 -190 194 -190q123 0 212 75t118 229l156 885
h320l-14 -77q26 -9 52 -9q56 0 81.5 28t38.5 109zM598 -149q73 0 117.5 -53.5t30.5 -127.5q-13 -75 -75.5 -128.5t-136.5 -53.5q-76 0 -120.5 53t-31.5 129q14 75 77 128t139 53z" />
    <glyph glyph-name="uni1EF1" unicode="&#x1ef1;" horiz-adv-x="1230" 
d="M1371 1223h151l-33 -186q-40 -230 -232 -230q-53 0 -111 21l-147 -828h-287l18 150q-68 -79 -158 -124.5t-193 -45.5q-145 0 -223.5 73.5t-78.5 206.5q0 46 8 89l123 688h305l-110 -627q-6 -32 -6 -55q0 -120 122 -120q97 0 166.5 57t87.5 159h2l103 586h305l-13 -76
q30 -10 56 -10q56 0 81.5 28t38.5 109zM500 -149q73 0 117.5 -53.5t30.5 -127.5q-13 -75 -75.5 -128.5t-136.5 -53.5q-76 0 -120.5 53t-31.5 129q14 75 77 128t139 53z" />
    <glyph glyph-name="Ygrave" unicode="&#x1ef2;" horiz-adv-x="1286" 
d="M925 1582h-197l-180 269l178 112zM1446 1451l-617 -765l-121 -686h-321l124 696l-344 755h338l201 -479l373 479h367z" />
    <glyph glyph-name="ygrave" unicode="&#x1ef3;" horiz-adv-x="1126" 
d="M773 1169h-197l-178 270l176 112zM907 1037h318l-913 -1524h-316l339 545l-252 979h327l122 -659z" />
    <glyph glyph-name="uni1EF4" unicode="&#x1ef4;" horiz-adv-x="1286" 
d="M1446 1451l-617 -765l-121 -686h-321l124 696l-344 755h338l201 -479l373 479h367zM525 -149q73 0 117.5 -53.5t30.5 -127.5q-13 -75 -75.5 -128.5t-136.5 -53.5q-76 0 -120.5 53t-31.5 129q14 75 77 128t139 53z" />
    <glyph glyph-name="uni1EF5" unicode="&#x1ef5;" horiz-adv-x="1126" 
d="M907 1037h318l-913 -1524h-316l339 545l-252 979h327l122 -659zM852 -149q73 0 117.5 -53.5t30.5 -127.5q-13 -75 -75.5 -128.5t-136.5 -53.5q-76 0 -120.5 53t-31.5 129q14 75 77 128t139 53z" />
    <glyph glyph-name="uni1EF6" unicode="&#x1ef6;" horiz-adv-x="1286" 
d="M849 1824q-48 0 -94 -40l-53 105q81 61 188 61q96 0 140 -48t30 -130q-12 -69 -53 -104.5t-101 -52.5l-14 -86h-141l24 140q112 19 126 93q6 28 -7 45t-45 17zM1446 1451l-617 -765l-121 -686h-321l124 696l-344 755h338l201 -479l373 479h367z" />
    <glyph glyph-name="uni1EF7" unicode="&#x1ef7;" horiz-adv-x="1126" 
d="M697 1409q-48 0 -93 -41l-54 106q80 60 188 60q96 0 140.5 -48t29.5 -129q-12 -69 -52.5 -104.5t-101.5 -53.5l-14 -86h-141l24 141q112 17 126 92q6 28 -7 45.5t-45 17.5zM907 1037h318l-913 -1524h-316l339 545l-252 979h327l122 -659z" />
    <glyph glyph-name="uni1EF8" unicode="&#x1ef8;" horiz-adv-x="1286" 
d="M742 1739q-37 0 -62.5 -40t-37.5 -105h-167q24 136 102.5 222t186.5 86q128 0 182 -119q11 -20 22.5 -30t32.5 -10q70 0 98 144h168q-24 -135 -101 -221.5t-189 -86.5q-125 0 -183 119q-18 41 -52 41zM1446 1451l-617 -765l-121 -686h-321l124 696l-344 755h338l201 -479
l373 479h367z" />
    <glyph glyph-name="uni1EF9" unicode="&#x1ef9;" horiz-adv-x="1126" 
d="M603 1300q-62 0 -85 -127h-150q21 121 90 197.5t165 76.5q59 0 100 -29t62 -76q13 -34 46 -34q59 0 82 126h152q-21 -120 -89.5 -196.5t-167.5 -76.5q-115 0 -160 104q-17 35 -45 35zM907 1037h318l-913 -1524h-316l339 545l-252 979h327l122 -659z" />
    <glyph glyph-name="endash" unicode="&#x2013;" horiz-adv-x="1294" 
d="M112 395l48 275h1024l-48 -275h-1024z" />
    <glyph glyph-name="emdash" unicode="&#x2014;" horiz-adv-x="2318" 
d="M112 395l48 275h2048l-48 -275h-2048z" />
    <glyph glyph-name="quoteleft" unicode="&#x2018;" horiz-adv-x="625" 
d="M104 793l346 665h237l-243 -665h-340z" />
    <glyph glyph-name="quoteright" unicode="&#x2019;" horiz-adv-x="625" 
d="M150 793l244 665h339l-345 -665h-238z" />
    <glyph glyph-name="quotesinglbase" unicode="&#x201a;" horiz-adv-x="621" 
d="M-57 -370l244 664h338l-345 -664h-237z" />
    <glyph glyph-name="quotedblleft" unicode="&#x201c;" horiz-adv-x="1115" 
d="M104 793l346 665h237l-243 -665h-340zM595 793l345 665h237l-243 -665h-339z" />
    <glyph glyph-name="quotedblright" unicode="&#x201d;" horiz-adv-x="1115" 
d="M150 793l244 665h339l-345 -665h-238zM640 793l244 665h339l-345 -665h-238z" />
    <glyph glyph-name="quotedblbase" unicode="&#x201e;" horiz-adv-x="1104" 
d="M-57 -370l244 664h338l-345 -664h-237zM425 -370l245 664h338l-346 -664h-237z" />
    <glyph glyph-name="dagger" unicode="&#x2020;" horiz-adv-x="980" 
d="M1028 1110l-35 -205h-336l-206 -1167h-207l206 1167h-327l35 205h328l61 348h207l-61 -348h335z" />
    <glyph glyph-name="daggerdbl" unicode="&#x2021;" horiz-adv-x="1062" 
d="M1034 905h-336l-106 -597h336l-37 -205h-335l-64 -365h-207l64 365h-327l37 205h326l106 597h-327l36 205h327l61 348h207l-61 -348h335z" />
    <glyph glyph-name="bullet" unicode="&#x2022;" horiz-adv-x="925" 
d="M451 331q-149 0 -239 107t-63 261q23 130 136.5 226t244.5 96q146 0 236 -110.5t63 -258.5q-23 -135 -134.5 -228t-243.5 -93z" />
    <glyph glyph-name="ellipsis" unicode="&#x2026;" horiz-adv-x="2052" 
d="M250 -20q-82 0 -130.5 60.5t-34.5 143.5q11 65 66 111.5t120 46.5q83 0 133 -61t34 -145q-11 -64 -66.5 -110t-121.5 -46zM951 -20q-81 0 -130 60.5t-35 143.5q11 65 66.5 111.5t120.5 46.5q83 0 132.5 -61t34.5 -145q-11 -64 -66.5 -110t-122.5 -46zM1649 -20
q-82 0 -130.5 60.5t-34.5 143.5q11 65 66.5 111.5t120.5 46.5q83 0 132.5 -61t34.5 -145q-12 -64 -67.5 -110t-121.5 -46z" />
    <glyph glyph-name="perthousand" unicode="&#x2030;" horiz-adv-x="2559" 
d="M489 772q-139 0 -226 89t-87 223q0 94 49.5 184t142.5 150t203 60q139 0 226 -89t87 -222q0 -70 -29.5 -140.5t-80 -127t-126 -92t-159.5 -35.5zM264 0l1016 1458h276l-1017 -1458h-275zM506 986q70 0 117 49.5t47 118.5q0 46 -32.5 78.5t-80.5 32.5q-70 0 -118 -49.5
t-48 -118.5q0 -48 32 -79.5t83 -31.5zM1259 -17q-139 0 -226.5 88t-87.5 222q0 96 49.5 186.5t142.5 150t205 59.5q136 0 223 -88t87 -220q0 -71 -29 -142t-79 -128t-125 -92.5t-160 -35.5zM2065 -17q-139 0 -226.5 88t-87.5 222q0 96 49.5 186.5t142.5 150t205 59.5
q136 0 223 -88t87 -220q0 -71 -29 -142t-79 -128t-125 -92.5t-160 -35.5zM1275 198q69 0 117.5 49.5t48.5 117.5q0 46 -33 78.5t-82 32.5q-69 0 -117.5 -49.5t-48.5 -118.5q0 -47 32 -78.5t83 -31.5zM2080 198q70 0 118.5 49.5t48.5 117.5q0 46 -33 78.5t-82 32.5
q-70 0 -118.5 -49.5t-48.5 -118.5q0 -47 32.5 -78.5t82.5 -31.5z" />
    <glyph glyph-name="guilsinglleft" unicode="&#x2039;" horiz-adv-x="645" 
d="M304 290l-249 377l373 377h268l-382 -377l242 -377h-252z" />
    <glyph glyph-name="guilsinglright" unicode="&#x203a;" horiz-adv-x="643" 
d="M-1 290l381 377l-240 377h249l250 -377l-373 -377h-267z" />
    <glyph glyph-name="fraction" unicode="&#x2044;" horiz-adv-x="507" 
d="M-377 0l1138 1536h210l-1137 -1536h-211z" />
    <glyph glyph-name="Euro" unicode="&#x20ac;" horiz-adv-x="1546" 
d="M814 287q111 0 200 59.5t143 158.5l268 -198q-116 -154 -277.5 -240.5t-344.5 -86.5q-239 0 -389 134t-167 384h-146l30 171h119q6 66 19 122h-117l32 172h135q90 231 271 373t434 142q196 0 335 -94t205 -251l-314 -155q-43 196 -239 196q-215 0 -336 -211h364l-32 -172
h-400q-16 -63 -23 -122h402l-30 -171h-376q21 -211 234 -211z" />
    <glyph glyph-name="uni2113" unicode="&#x2113;" horiz-adv-x="1172" 
d="M566 -14q-175 0 -264 86t-94 237q-22 -34 -108 -82l-72 171q17 11 89.5 57.5t108.5 71.5l89 455q47 263 173 390.5t303 127.5q145 0 217.5 -80.5t72.5 -211.5q0 -80 -23.5 -155t-81.5 -166.5t-167 -197.5t-270 -226q-10 -40 -19 -82q-5 -71 27.5 -108.5t98.5 -37.5
q81 0 165 54.5t151 133.5l116 -155q-207 -282 -512 -282zM576 750q141 125 220.5 248t79.5 223q0 70 -61 70q-59 0 -110 -69.5t-78 -224.5z" />
    <glyph glyph-name="uni2116" unicode="&#x2116;" horiz-adv-x="2964" 
d="M1417 1536h341l-272 -1536h-349l-503 1024l-181 -1024h-339l272 1536h347l504 -1015zM2454 1478q98 0 178.5 -25t136.5 -68t95 -102t57 -126.5t18 -141.5q0 -91 -27 -181.5t-81 -172.5t-129 -145t-179 -100.5t-222 -37.5q-121 0 -216 38t-153 103.5t-88 147.5t-30 176
q0 91 27 181.5t81.5 172t129.5 144.5t179.5 100t222.5 37zM2305 652q69 0 129 33.5t99 86.5t61 116t22 123q0 85 -43.5 139.5t-128.5 54.5q-89 0 -161 -58t-108 -139t-36 -163q0 -85 42 -139t124 -54zM1751 0l37 207h924l-37 -207h-924z" />
    <glyph glyph-name="trademark" unicode="&#x2122;" horiz-adv-x="1632" 
d="M249 1401v135h470v-135h-160v-581h-151v581h-159zM1382 1536h159v-716h-149v466l-210 -347l-212 348v-467h-152v716h165l198 -334z" />
    <glyph glyph-name="estimated" unicode="&#x212e;" horiz-adv-x="1918" 
d="M1022 -18q-178 0 -340 62t-279.5 167.5t-186.5 250.5t-69 304q0 215 117 397t318.5 287.5t439.5 105.5q179 0 341 -62.5t279.5 -168t186.5 -252t69 -307.5v-21h-1417q-12 0 -12 -8v-430q0 -24 18 -49q106 -109 245 -171t292 -62q167 0 313.5 69.5t251.5 192.5h125
q-119 -141 -301.5 -223t-390.5 -82zM481 788h1087q9 0 9 15v430q0 34 -21 51q-107 105 -243.5 165t-288.5 60q-151 0 -289 -61.5t-246 -169.5q-20 -23 -20 -53v-422q0 -15 12 -15z" />
    <glyph glyph-name="partialdiff" unicode="&#x2202;" horiz-adv-x="1212" 
d="M482 1462q109 26 209.5 13.5t178.5 -59t139.5 -122t93.5 -175.5t39.5 -219t-21.5 -252q-59 -294 -242.5 -471.5t-426.5 -177.5q-130 0 -222 50t-134.5 136.5t-29.5 209t86 260.5q128 226 324.5 319.5t382.5 29.5q-23 144 -123 205.5t-275 18.5zM463 207q48 0 100.5 29
t104.5 85.5t98 153.5t73 220q10 45 18 94q-118 61 -239 -7t-204 -243q-44 -81 -57.5 -147t0 -105t41 -59.5t65.5 -20.5z" />
    <glyph glyph-name="emptyset" unicode="&#x2205;" horiz-adv-x="1457" 
d="M741 -16q-219 0 -387 139l-90 -90l-86 86l90 90q-139 170 -139 387q0 166 82 307t223 223t307 82q220 0 388 -139l90 90l86 -86l-90 -90q139 -170 139 -387q0 -166 -82 -307t-223.5 -223t-307.5 -82zM452 392l493 494q-90 63 -204 63q-147 0 -249.5 -103t-102.5 -250
q0 -115 63 -204zM741 243q148 0 250.5 103t102.5 250q0 113 -63 204l-493 -494q90 -63 203 -63z" />
    <glyph glyph-name="product" unicode="&#x220f;" horiz-adv-x="1701" 
d="M139 0l206 1170h-109l52 288h1455l-51 -288h-109l-206 -1170h-287l207 1170h-662l-206 -1170h-290z" />
    <glyph glyph-name="summation" unicode="&#x2211;" horiz-adv-x="1405" 
d="M4 0l32 202l681 564l-476 564l33 206h1209l-44 -248h-782l428 -522l-604 -521h775l-45 -245h-1207z" />
    <glyph glyph-name="minus" unicode="&#x2212;" horiz-adv-x="1329" 
d="M236 584v245h922v-245h-922z" />
    <glyph glyph-name="radical" unicode="&#x221a;" horiz-adv-x="1474" 
d="M348 0l-97 647h-159l48 271h346l76 -517l746 1135h304l-1010 -1536h-254z" />
    <glyph glyph-name="infinity" unicode="&#x221e;" horiz-adv-x="1688" 
d="M481 252q-142 0 -233.5 95.5t-96.5 248.5q5 153 96.5 248.5t233.5 95.5q181 0 374 -191q194 191 375 191q149 0 236.5 -91t91.5 -253q-4 -162 -91.5 -253t-236.5 -91q-182 0 -375 191q-193 -191 -374 -191zM481 461q103 0 235 135q-132 135 -235 135q-51 0 -87 -38
t-36 -97t36 -97t87 -38zM1230 461q53 0 87 36t34 99t-34 99t-87 36q-100 0 -237 -135q137 -135 237 -135z" />
    <glyph glyph-name="integral" unicode="&#x222b;" horiz-adv-x="932" 
d="M-99 -457l33 306q143 0 203 48.5t81 174.5l189 1072q26 149 136 241.5t255 92.5q71 0 139 -24.5t107 -70.5l-143 -226q-32 39 -75 39q-46 0 -79.5 -35t-46.5 -106l-183 -1036q-39 -225 -207 -350.5t-409 -125.5z" />
    <glyph glyph-name="approxequal" unicode="&#x2248;" horiz-adv-x="1357" 
d="M910 693q-27 0 -52.5 3.5t-48.5 11.5t-42 15.5t-38.5 21t-32 22t-29.5 24t-24 22t-21 21.5t-16 17q-41 42 -85 42q-57 0 -87.5 -50t-35.5 -136h-228q5 191 97.5 303.5t257.5 112.5q82 0 145 -34t126 -114q15 -19 23 -27.5t28.5 -20.5t43.5 -12q49 0 80.5 48t36.5 135h225
q-5 -118 -41 -207.5t-109 -143.5t-173 -54zM910 178q-159 0 -297 154q-3 2 -4.5 3.5t-2.5 3.5q-22 23 -40 32t-45 8q-113 -7 -123 -186h-228q5 192 98.5 305t256.5 113q77 0 139.5 -34.5t131.5 -113.5q1 -1 6 -7.5t7 -9t7.5 -9t9.5 -9.5t10 -8t12 -7.5t13 -5.5t14.5 -4.5
t15.5 -1.5q50 0 81 47.5t36 137.5h225q-7 -180 -90.5 -294t-232.5 -114z" />
    <glyph glyph-name="notequal" unicode="&#x2260;" horiz-adv-x="1246" 
d="M153 0l184 362h-156v244h280l105 204h-385v245h509l154 301h241l-153 -301h200v-245h-325l-105 -204h430v-244h-554l-184 -362h-241z" />
    <glyph glyph-name="lessequal" unicode="&#x2264;" horiz-adv-x="1450" 
d="M1288 1526v-270l-855 -361l855 -362v-272l-1131 487v295zM157 0v205h1131v-205h-1131z" />
    <glyph glyph-name="greaterequal" unicode="&#x2265;" horiz-adv-x="1507" 
d="M230 1526l1130 -483v-295l-1130 -487v272l855 362l-855 361v270zM230 0v205h1130v-205h-1130z" />
    <glyph glyph-name="lozenge" unicode="&#x25ca;" horiz-adv-x="1327" 
d="M699 106l-618 617l618 618l617 -616zM700 465l257 260l-257 258l-261 -260z" />
    <glyph glyph-name="uniF8FF" unicode="&#xf8ff;" horiz-adv-x="1769" 
d="M930 0q-158 0 -302 62t-248 166t-166 248t-62 302t62 302.5t166 248.5t248 165.5t302 61.5t302.5 -61.5t248.5 -165.5t165.5 -248.5t61.5 -302.5t-61.5 -302t-165.5 -248t-248.5 -166t-302.5 -62zM930 74q143 0 273.5 56t225 150.5t150.5 224.5t56 273q0 191 -94.5 353.5
t-257 257t-353.5 94.5q-143 0 -273 -56t-224.5 -150.5t-150.5 -225t-56 -273.5t56 -273t150.5 -224.5t224.5 -150.5t273 -56zM1338 444q-15 0 -25 13l-297 295q-10 12 -10 27t10 26l297 297q11 10 26 10t25 -10q11 -11 11 -26.5t-11 -26.5l-270 -271l270 -270q24 -22 0 -51
q-10 -13 -26 -13zM523 444q-16 0 -26.5 11t-10.5 26v594q0 16 10.5 26.5t26.5 10.5q15 0 25.5 -10.5t10.5 -26.5v-594q0 -15 -10.5 -26t-25.5 -11zM930 444q-15 0 -26 11t-11 26v594q0 16 11 26.5t26 10.5q16 0 26.5 -10.5t10.5 -26.5v-594q0 -15 -10.5 -26t-26.5 -11z
M633 741q-15 0 -26 11t-11 26q0 16 11 26.5t26 10.5h186q16 0 26.5 -10.5t10.5 -26.5q0 -15 -10.5 -26t-26.5 -11h-186z" />
    <glyph glyph-name="G.ss02" horiz-adv-x="1606" 
d="M756 -20q-229 0 -388.5 95t-226.5 270t-27 404q38 219 161.5 385.5t304.5 255t392 88.5q220 0 378 -94.5t227 -260.5l-315 -138q-63 200 -299 200q-190 0 -333.5 -127t-181.5 -348q-36 -200 53 -318.5t289 -118.5q149 0 265.5 71.5t155.5 202.5l-369 -11l48 271l685 -11
q-4 -82 -21 -182q-26 -134 -84.5 -242.5t-136 -180.5t-174.5 -120.5t-197 -69.5t-206 -21z" />
    <glyph glyph-name="Gbreve.ss02" horiz-adv-x="1606" 
d="M1008 1589q-86 0 -149.5 16t-108 50.5t-60 94t-0.5 142.5h185q-14 -78 28 -116t132 -38q189 0 216 154h186q-30 -162 -140 -232.5t-289 -70.5zM756 -20q-229 0 -388.5 95t-226.5 270t-27 404q38 219 161.5 385.5t304.5 255t392 88.5q220 0 378 -94.5t227 -260.5
l-315 -138q-63 200 -299 200q-190 0 -333.5 -127t-181.5 -348q-36 -200 53 -318.5t289 -118.5q149 0 265.5 71.5t155.5 202.5l-369 -11l48 271l685 -11q-4 -82 -21 -182q-26 -134 -84.5 -242.5t-136 -180.5t-174.5 -120.5t-197 -69.5t-206 -21z" />
    <glyph glyph-name="Gcommaaccent.ss02" horiz-adv-x="1606" 
d="M756 -20q-229 0 -388.5 95t-226.5 270t-27 404q38 219 161.5 385.5t304.5 255t392 88.5q220 0 378 -94.5t227 -260.5l-315 -138q-63 200 -299 200q-190 0 -333.5 -127t-181.5 -348q-36 -200 53 -318.5t289 -118.5q149 0 265.5 71.5t155.5 202.5l-369 -11l48 271l685 -11
q-4 -82 -21 -182q-26 -134 -84.5 -242.5t-136 -180.5t-174.5 -120.5t-197 -69.5t-206 -21zM472 -579l-145 74l237 376h282z" />
    <glyph glyph-name="Gdotaccent.ss02" horiz-adv-x="1606" 
d="M1010 1589q-76 0 -120.5 53t-31.5 129q13 75 76.5 127.5t139.5 52.5q74 0 117.5 -52.5t30.5 -127.5q-12 -75 -75 -128.5t-137 -53.5zM756 -20q-229 0 -388.5 95t-226.5 270t-27 404q38 219 161.5 385.5t304.5 255t392 88.5q220 0 378 -94.5t227 -260.5l-315 -138
q-63 200 -299 200q-190 0 -333.5 -127t-181.5 -348q-36 -200 53 -318.5t289 -118.5q149 0 265.5 71.5t155.5 202.5l-369 -11l48 271l685 -11q-4 -82 -21 -182q-26 -134 -84.5 -242.5t-136 -180.5t-174.5 -120.5t-197 -69.5t-206 -21z" />
    <glyph glyph-name="i.loclTRK" horiz-adv-x="603" 
d="M432 1178q-76 0 -124 53.5t-41 129.5q8 75 68 127.5t136 52.5q74 0 121.5 -52.5t38.5 -127.5q-7 -75 -66.5 -129t-132.5 -54zM45 0l185 1044h328l-185 -1044h-328z" />
    <glyph glyph-name="f_t" horiz-adv-x="1497" 
d="M122 0l141 795h-205l44 249h205l24 130q34 200 129.5 291t266.5 91q100 0 198 -34l-19 -221q-51 3 -89 3q-63 0 -107.5 -36t-55.5 -100l-21 -124h199q84 0 143.5 47.5t76.5 138.5l24 146h296l-57 -332h207l-44 -249h-207l-78 -431q-11 -67 8.5 -93t75.5 -26h99l-45 -245
h-191q-159 0 -233.5 94t-46.5 256l79 445h-350l-141 -795h-326z" />
    <glyph glyph-name="t_t" horiz-adv-x="1545" 
d="M459 0q-159 0 -233.5 94t-46.5 256l80 445h-203l44 249h69q67 0 116 41.5t61 109.5l25 137h314l-51 -288h264q67 0 116 41.5t61 109.5l25 137h313l-50 -288h207l-44 -249h-207l-78 -431q-11 -67 8.5 -93t75.5 -26h99l-45 -245h-191q-159 0 -233.5 94t-46.5 256l79 445
h-397l-78 -431q-10 -68 9 -93.5t75 -25.5h99l-44 -245h-192z" />
    <glyph glyph-name="uni0308.case" 
d="M-494 1589q-63 0 -100.5 45t-26.5 109q11 63 64.5 107.5t116.5 44.5t100.5 -44.5t26.5 -107.5q-11 -64 -64.5 -109t-116.5 -45zM-61 1589q-65 0 -102 45t-26 109q11 63 64 107.5t117 44.5q63 0 100 -44.5t26 -107.5q-11 -64 -63.5 -109t-115.5 -45z" />
    <glyph glyph-name="uni0307.case" 
d="M-84 1589q-76 0 -120.5 53t-31.5 129q13 75 76.5 127.5t139.5 52.5q74 0 117.5 -52.5t30.5 -127.5q-12 -75 -75 -128.5t-137 -53.5z" />
    <glyph glyph-name="gravecomb.case" 
d="M-28 1589l-180 269l178 112l199 -381h-197z" />
    <glyph glyph-name="acutecomb.case" 
d="M-276 1589l334 381l137 -112l-273 -269h-198z" />
    <glyph glyph-name="uni030B.case" 
d="M-659 1589l334 381l137 -112l-273 -269h-198zM-275 1589l334 381l137 -112l-274 -269h-197z" />
    <glyph glyph-name="uni0302.case" 
d="M-297 1589h-197l285 300h189l179 -300h-197l-97 185z" />
    <glyph glyph-name="uni030C.case" 
d="M-265 1589l-179 300h197l97 -187l162 187h198l-286 -300h-189z" />
    <glyph glyph-name="uni0306.case" 
d="M-266 1589q-86 0 -149.5 16t-108 50.5t-60 94t-0.5 142.5h185q-14 -78 28 -116t132 -38q189 0 216 154h186q-30 -162 -140 -232.5t-289 -70.5z" />
    <glyph glyph-name="uni030A.case" 
d="M-124 1589q-96 0 -157 57.5t-65 149.5q-5 113 78 201t206 88q96 0 154.5 -57t62.5 -148q5 -114 -76.5 -202.5t-202.5 -88.5zM-111 1722q63 0 99 40.5t36 93.5q0 43 -26.5 71.5t-73.5 28.5q-60 0 -96.5 -42.5t-36.5 -97.5q0 -44 25.5 -69t72.5 -25z" />
    <glyph glyph-name="tildecomb.case" 
d="M-137 1586q-125 0 -183 119q-18 41 -52 41q-37 0 -62.5 -40t-37.5 -105h-167q24 136 102.5 222t186.5 86q128 0 182 -119q11 -20 22.5 -30t32.5 -10q70 0 98 144h168q-24 -135 -101 -221.5t-189 -86.5z" />
    <glyph glyph-name="uni0304.case" 
d="M-615 1589l33 189h670l-33 -189h-670z" />
    <glyph glyph-name="hookabovecomb.case" 
d="M-168 1536l24 140q112 19 126 93q6 28 -7 45t-45 17q-48 0 -94 -40l-53 105q81 61 188 61q96 0 140 -48t30 -130q-12 -69 -53 -104.5t-101 -52.5l-14 -86h-141z" />
    <glyph glyph-name="uni0312.case" 
d="M-60 1924h232l-185 -335h-334z" />
    <glyph glyph-name="uni0338.case" 
d="M-1039 -24l1112 1596l126 -75l-1112 -1596z" />
    <glyph glyph-name="uni03060301" 
d="M-344 1668l334 382l139 -112l-276 -270h-197zM-333 1174q-171 0 -255.5 92t-53.5 270h186q-17 -95 23 -153.5t126 -58.5q87 0 148.5 58.5t78.5 153.5h185q-31 -178 -148 -270t-290 -92z" />
    <glyph glyph-name="uni03060300" 
d="M-345 1668l-178 270l176 112l199 -382h-197zM-333 1174q-171 0 -255.5 92t-53.5 270h186q-17 -95 23 -153.5t126 -58.5q87 0 148.5 58.5t78.5 153.5h185q-31 -178 -148 -270t-290 -92z" />
    <glyph glyph-name="uni03060309" 
d="M-322 1612l24 141q112 17 126 92q6 28 -7 45.5t-45 17.5q-48 0 -93 -41l-54 106q80 60 188 60q96 0 140.5 -48t29.5 -129q-12 -69 -52.5 -104.5t-101.5 -53.5l-14 -86h-141zM-333 1174q-171 0 -255.5 92t-53.5 270h186q-17 -95 23 -153.5t126 -58.5q87 0 148.5 58.5
t78.5 153.5h185q-31 -178 -148 -270t-290 -92z" />
    <glyph glyph-name="uni03060303" 
d="M-113 1660q-115 0 -160 104q-17 35 -45 35q-62 0 -85 -127h-150q21 121 90 197.5t165 76.5q59 0 100 -29t62 -76q13 -34 46 -34q59 0 82 126h152q-21 -120 -89.5 -196.5t-167.5 -76.5zM-333 1174q-171 0 -255.5 92t-53.5 270h186q-17 -95 23 -153.5t126 -58.5
q87 0 148.5 58.5t78.5 153.5h185q-31 -178 -148 -270t-290 -92z" />
    <glyph glyph-name="uni03020301" 
d="M-251 1668l334 382l139 -112l-276 -270h-197zM-359 1236h-197l285 300h189l180 -300h-198l-97 186z" />
    <glyph glyph-name="uni03020300" 
d="M-252 1668l-178 270l176 112l199 -382h-197zM-359 1236h-197l285 300h189l180 -300h-198l-97 186z" />
    <glyph glyph-name="uni03020309" 
d="M-229 1612l24 141q112 17 126 92q6 28 -7 45.5t-45 17.5q-48 0 -93 -41l-54 106q80 60 188 60q96 0 140.5 -48t29.5 -129q-12 -69 -52.5 -104.5t-101.5 -53.5l-14 -86h-141zM-359 1236h-197l285 300h189l180 -300h-198l-97 186z" />
    <glyph glyph-name="uni03020303" 
d="M-20 1660q-115 0 -160 104q-17 35 -45 35q-62 0 -85 -127h-150q21 121 90 197.5t165 76.5q59 0 100 -29t62 -76q13 -34 46 -34q59 0 82 126h152q-21 -120 -89.5 -196.5t-167.5 -76.5zM-359 1236h-197l285 300h189l180 -300h-198l-97 186z" />
    <glyph glyph-name="uni03060301.case" 
d="M-284 2023l334 381l137 -112l-273 -269h-198zM-266 1589q-86 0 -149.5 16t-108 50.5t-60 94t-0.5 142.5h185q-14 -78 28 -116t132 -38q189 0 216 154h186q-30 -162 -140 -232.5t-289 -70.5z" />
    <glyph glyph-name="uni03060300.case" 
d="M-285 2023l-180 269l178 112l199 -381h-197zM-266 1589q-86 0 -149.5 16t-108 50.5t-60 94t-0.5 142.5h185q-14 -78 28 -116t132 -38q189 0 216 154h186q-30 -162 -140 -232.5t-289 -70.5z" />
    <glyph glyph-name="uni03060309.case" 
d="M-262 1970l24 140q112 19 126 93q6 28 -7 45t-45 17q-48 0 -94 -40l-53 105q81 61 188 61q96 0 140 -48t30 -130q-12 -69 -53 -104.5t-101 -52.5l-14 -86h-141zM-266 1589q-86 0 -149.5 16t-108 50.5t-60 94t-0.5 142.5h185q-14 -78 28 -116t132 -38q189 0 216 154h186
q-30 -162 -140 -232.5t-289 -70.5z" />
    <glyph glyph-name="uni03060303.case" 
d="M-36 2020q-125 0 -183 119q-18 41 -52 41q-37 0 -62.5 -40t-37.5 -105h-167q24 136 102.5 222t186.5 86q128 0 182 -119q11 -20 22.5 -30t32.5 -10q70 0 98 144h168q-24 -135 -101 -221.5t-189 -86.5zM-266 1589q-86 0 -149.5 16t-108 50.5t-60 94t-0.5 142.5h185
q-14 -78 28 -116t132 -38q189 0 216 154h186q-30 -162 -140 -232.5t-289 -70.5z" />
    <glyph glyph-name="uni03020301.case" 
d="M-188 2020l334 381l137 -112l-273 -269h-198zM-297 1589h-197l285 300h189l179 -300h-197l-97 185z" />
    <glyph glyph-name="uni03020300.case" 
d="M-189 2020l-180 269l178 112l199 -381h-197zM-297 1589h-197l285 300h189l179 -300h-197l-97 185z" />
    <glyph glyph-name="uni03020309.case" 
d="M-166 1967l24 140q112 19 126 93q6 28 -7 45t-45 17q-48 0 -94 -40l-53 105q81 61 188 61q96 0 140 -48t30 -130q-12 -69 -53 -104.5t-101 -52.5l-14 -86h-141zM-297 1589h-197l285 300h189l179 -300h-197l-97 185z" />
    <glyph glyph-name="uni03020303.case" 
d="M60 2017q-125 0 -183 119q-18 41 -52 41q-37 0 -62.5 -40t-37.5 -105h-167q24 136 102.5 222t186.5 86q128 0 182 -119q11 -20 22.5 -30t32.5 -10q70 0 98 144h168q-24 -135 -101 -221.5t-189 -86.5zM-297 1589h-197l285 300h189l179 -300h-197l-97 185z" />
    </font>
</defs>
</svg>
